osu file format v14

[General]
AudioFilename: audio.mp3
AudioLeadIn: 0
PreviewTime: 131
Countdown: 0
SampleSet: Soft
StackLeniency: 0.7
Mode: 0
LetterboxInBreaks: 0
WidescreenStoryboard: 0

[Editor]
DistanceSpacing: 1.6
BeatDivisor: 4
GridSize: 4
TimelineZoom: 1

[Metadata]
Title:Partner no Thema Orgel
TitleUnicode:パートナーのテーマ オルゴール
Artist:Keisuke Ito, Yasuhiro Kawagoe, Noriko Murakami
ArtistUnicode:いとうけいすけ、川越康弘、村上徳子
Creator:fieryrage
Version:will you be my friend?
Source:ポケモン超不思議のダンジョン
Tags:pokemon pokémon super mystery dungeon partner's theme music box pocket monsters nintendo the company game freak 3ds hobbes2 polkamocha
BeatmapID:1200194
BeatmapSetID:566584

[Difficulty]
HPDrainRate:4
CircleSize:3.6
OverallDifficulty:6.4
ApproachRate:7.2
SliderMultiplier:1.4
SliderTickRate:2

[Events]
//Background and Video events
0,0,"dasffdss.png",0,0
//Break Periods
2,47709,49931
2,97465,98956
//Storyboard Layer 0 (Background)
//Storyboard Layer 1 (Fail)
//Storyboard Layer 2 (Pass)
//Storyboard Layer 3 (Foreground)
//Storyboard Sound Samples

[TimingPoints]
680,731.707317073171,4,2,1,25,1,0
3606,-100,4,2,1,15,0,0
6167,-100,4,2,1,25,0,0
10558,-100,4,2,1,15,0,0
11655,-100,4,2,1,25,0,0
17143,-100,4,2,1,15,0,0
17875,-100,4,2,1,25,0,0
19887,-100,4,2,1,5,0,0
20253,-100,4,2,1,25,0,0
20436,-100,4,2,1,5,0,0
20801,-100,4,2,1,25,0,0
22631,-100,4,2,1,5,0,0
23728,-100,4,2,1,25,0,0
33972,-100,4,2,1,15,0,0
35070,-100,4,2,1,25,0,0
56472,-100,4,2,1,5,0,0
57021,-100,4,2,1,15,0,0
57204,-100,4,2,1,5,0,0
57753,-100,4,2,1,20,0,0
58484,-100,4,2,1,5,0,0
58850,-100,4,2,1,15,0,0
59216,-100,4,2,1,25,0,0
61045,-100,4,2,1,15,0,0
62509,-100,4,2,1,25,0,0
68180,-100,4,2,1,5,0,0
68728,-100,4,2,1,15,0,0
68911,-100,4,2,1,5,0,0
69460,-100,4,2,1,20,0,0
70192,-100,4,2,1,5,0,0
70558,-100,4,2,1,25,0,0
72753,-100,4,2,1,15,0,0
75314,-100,4,2,1,25,0,0
76960,-100,4,2,1,5,0,0
77326,-100,4,2,1,25,0,0
77509,-100,4,2,1,5,0,0
77875,-100,4,2,1,25,0,0
79704,-100,4,2,1,15,0,0
80619,-100,4,2,1,5,0,0
81167,-100,4,2,1,25,0,0
81350,-100,4,2,1,5,0,0
81899,-100,4,2,1,25,0,0
83728,-100,4,2,1,20,0,0
85558,-100,4,2,1,15,0,0
87204,-100,4,2,1,5,0,0
87570,-100,4,2,1,25,0,0
87753,-100,4,2,1,5,0,0
88119,-100,4,2,1,25,0,0
88850,-100,4,2,1,15,0,0
89948,-100,4,2,1,25,0,0
90131,-100,4,2,1,5,0,0
90497,-100,4,2,1,25,0,0
90680,-100,4,2,1,5,0,0
91045,-100,4,2,1,25,0,0
91777,-100,4,2,1,15,0,0
92875,-100,4,2,1,25,0,0
93058,-100,4,2,1,5,0,0
93423,-100,4,2,1,25,0,0
93606,-100,4,2,1,5,0,0
93972,-100,4,2,1,25,0,0
94704,-100,4,2,1,15,0,0
97265,-100,4,2,1,25,0,0
102387,-100,4,2,1,15,0,0
103119,-100,4,2,1,10,0,0
104582,-133.333333333333,4,2,1,10,0,0
106045,-133.333333333333,4,2,1,8,0,0
107509,-200,4,2,1,5,0,0

[Colours]
Combo1 : 220,86,86
Combo2 : 218,223,111
Combo3 : 153,153,153
Combo4 : 230,180,77

[HitObjects]
125,272,314,6,0,L|167:270,1,35,2|2,0:0|0:0,0:0:0:0:
256,223,680,2,0,P|268:266|266:306,2,70,2|2|2,0:0|0:0|0:0,0:0:0:0:
408,292,1777,2,0,L|366:294,1,35,2|2,0:0|0:0,0:0:0:0:
496,313,2143,6,0,P|495:273|477:233,1,70,0|2,0:0|0:0,0:0:0:0:
383,87,2875,1,2,0:0:0:0:
383,87,3240,2,0,L|379:134,1,35,2|2,0:0|0:0,0:0:0:0:
282,253,3606,5,0,0:0:0:0:
284,88,3972,1,0,0:0:0:0:
379,223,4338,1,0,0:0:0:0:
223,169,4704,1,0,0:0:0:0:
380,121,5070,1,0,0:0:0:0:
380,121,6167,6,0,L|319:118,1,35,2|2,0:0|0:0,0:0:0:0:
255,168,6533,2,0,P|239:133|236:98,2,70,2|2|2,0:0|0:0|0:0,0:0:0:0:
379,223,7631,2,0,L|442:225,1,35,2|2,0:0|0:0,0:0:0:0:
282,253,7997,6,0,L|205:256,1,70,0|2,0:0|0:0,0:0:0:0:
60,212,8728,2,0,L|137:215,1,70,2|2,0:0|0:0,0:0:0:0:
203,16,9460,6,0,P|221:59|220:128,1,105,2|2,0:0|0:0,0:0:0:0:
209,157,10192,1,2,0:0:0:0:
112,91,10558,1,0,0:0:0:0:
313,37,10923,1,0,0:0:0:0:
272,344,11655,5,2,0:0:0:0:
272,344,12387,2,0,P|265:306|265:271,1,70,2|2,0:0|0:0,0:0:0:0:
290,144,13119,1,2,0:0:0:0:
144,206,13484,2,0,L|187:204,1,35,2|2,0:0|0:0,0:0:0:0:
368,243,13850,5,0,0:0:0:0:
349,71,14948,5,2,0:0:0:0:
349,71,15314,2,0,P|344:113|349:159,1,70,2|2,0:0|0:0,0:0:0:0:
368,243,16045,1,2,0:0:0:0:
256,343,16411,2,0,L|254:308,1,35,2|2,0:0|0:0,0:0:0:0:
144,206,16777,6,0,P|186:197|226:201,2,70
58,277,17875,1,0,0:0:0:0:
53,76,18240,6,0,L|55:163,1,70,2|2,0:0|0:0,0:0:0:0:
58,277,18972,1,2,0:0:0:0:
58,277,19338,1,2,0:0:0:0:
245,223,19704,2,0,P|202:206|136:207,2,105,2|2|2,0:0|0:0|0:0,0:0:0:0:
386,354,21167,5,2,0:0:0:0:
386,354,22631,5,0,3:0:0:0:
386,354,23728,6,0,L|389:302,1,35,2|2,0:0|0:0,0:0:0:0:
328,173,24094,2,0,P|325:218|332:256,1,70,2|2,0:0|0:0,0:0:0:0:
495,296,24826,2,0,P|498:261|494:226,1,70,2|2,0:0|0:0,0:0:0:0:
483,185,25375,1,2,0:0:0:0:
483,185,25558,6,0,L|481:98,2,70,0|2|2,0:0|0:0|0:0,0:0:0:0:
362,11,26655,2,0,L|361:67,1,35,2|2,0:0|0:0,0:0:0:0:
358,152,27021,5,2,0:0:0:0:
169,191,27387,1,0,0:0:0:0:
345,270,27753,1,2,0:0:0:0:
249,104,28119,1,0,0:0:0:0:
229,294,28484,1,2,0:0:0:0:
229,294,29582,6,0,L|230:336,1,35,2|2,0:0|0:0,0:0:0:0:
183,209,29948,2,0,P|218:197|250:198,1,70,2|2,0:0|0:0,0:0:0:0:
422,336,30680,1,2,0:0:0:0:
422,336,31045,2,0,L|420:292,1,35,2|2,0:0|0:0,0:0:0:0:
414,190,31411,5,0,0:0:0:0:
346,66,31777,1,2,0:0:0:0:
472,154,32143,2,0,P|446:177|413:189,1,70,2|2,0:0|0:0,0:0:0:0:
188,133,32875,5,2,0:0:0:0:
413,188,33423,1,2,0:0:0:0:
413,188,33606,2,0,P|423:227|422:266,2,70,2|0|0,0:0|0:0|0:0,0:0:0:0:
480,50,35070,5,2,0:0:0:0:
480,50,35801,1,2,0:0:0:0:
468,225,36167,1,2,0:0:0:0:
299,39,36533,1,2,0:0:0:0:
287,214,36899,1,2,0:0:0:0:
480,50,37265,5,2,0:0:0:0:
299,39,37631,1,2,0:0:0:0:
457,293,38362,5,2,0:0:0:0:
457,293,38728,2,0,P|466:259|467:224,1,70,2|2,0:0|0:0,0:0:0:0:
188,133,39460,2,0,P|188:168|197:202,1,70,2|2,0:0|0:0,0:0:0:0:
460,70,40192,1,2,0:0:0:0:
212,11,40558,1,2,0:0:0:0:
212,11,41289,6,0,L|268:8,1,35,2|2,0:0|0:0,0:0:0:0:
355,41,41655,2,0,P|349:77|376:156,1,105,2|2,0:0|0:0,0:0:0:0:
397,170,42387,1,2,0:0:0:0:
217,216,42753,2,0,L|287:214,2,70,2|2|0,0:0|0:0|0:0,0:0:0:0:
175,224,43667,1,2,0:0:0:0:
175,224,43850,1,2,0:0:0:0:
246,101,44216,1,2,0:0:0:0:
191,357,44582,6,0,P|168:301|176:220,1,140,2|0,0:0|0:0,0:0:0:0:
366,142,46045,1,0,0:0:0:0:
191,89,46777,1,0,0:0:0:0:
400,141,47143,2,0,L|335:142,1,35,2|2,0:0|0:0,0:0:0:0:
218,94,47509,5,2,0:0:0:0:
218,94,50801,6,0,P|212:137|216:166,1,70,2|2,0:0|0:0,0:0:0:0:
262,271,51533,1,2,0:0:0:0:
262,271,51899,2,0,L|151:267,2,105,2|2|2,0:0|0:0|0:0,0:0:0:0:
401,200,53362,6,0,P|419:243|413:341,1,140,2|0,0:0|0:0,0:0:0:0:
262,271,54460,2,0,L|306:270,2,35,2|2|2,0:0|0:0|0:0,0:0:0:0:
401,200,55192,2,0,L|357:199,2,35,2|2|2,0:0|0:0|0:0,0:0:0:0:
177,330,55923,1,2,0:0:0:0:
177,330,56289,6,0,B|166:264|166:264|183:181,2,140,2|0|0,0:0|0:0|0:0,0:0:0:0:
399,266,58301,2,0,P|355:258|287:275,1,105,2|2,0:0|0:0,0:0:0:0:
74,325,59216,6,0,P|124:337|176:329,1,105,2|2,0:0|0:0,0:0:0:0:
212,308,59948,1,0,0:0:0:0:
351,351,60314,1,2,0:0:0:0:
278,149,60680,2,0,P|270:192|277:236,2,70,2|0|0,0:0|0:0|0:0,0:0:0:0:
278,149,62143,5,0,3:0:0:0:
169,84,62509,1,2,0:0:0:0:
382,58,62875,1,2,0:0:0:0:
310,290,63240,1,2,0:0:0:0:
169,84,63606,2,0,B|121:79|121:79|47:88,2,105,2|2|2,0:0|0:0|0:0,0:0:0:0:
310,290,65070,6,0,P|317:231|286:145,1,140,2|0,0:0|0:0,0:0:0:0:
468,213,66167,2,0,L|433:214,2,35,2|2|2,0:0|0:0|0:0,0:0:0:0:
275,289,66899,2,0,L|310:290,2,35,2|2|2,0:0|0:0|0:0,0:0:0:0:
397,82,67631,1,2,0:0:0:0:
397,82,67997,6,0,P|426:134|430:227,2,140,2|0|2,0:0|0:0|0:0,0:0:0:0:
155,64,70009,2,0,L|265:61,1,105,0|2,0:0|0:0,0:0:0:0:
432,213,70923,6,0,L|322:210,1,105,2|2,0:0|0:0,0:0:0:0:
284,209,71655,1,0,0:0:0:0:
131,252,72021,2,0,L|168:251,2,35,2|2|2,0:0|0:0|0:0,0:0:0:0:
49,175,72753,1,0,0:0:0:0:
80,67,73119,1,2,0:0:0:0:
353,210,73850,6,0,L|277:208,2,70
80,67,74948,1,0,0:0:0:0:
80,67,75314,6,0,P|127:46|196:44,2,105,2|2|2,0:0|0:0|0:0,0:0:0:0:
353,210,76777,2,0,P|300:205|253:184,2,105,2|2|2,0:0|0:0|0:0,0:0:0:0:
512,107,78240,1,2,0:0:0:0:
191,11,79704,5,0,0:0:0:0:
67,179,80436,2,0,B|55:246|55:246|70:332,2,140,2|2|2,0:0|0:0|0:0,0:0:0:0:
191,11,82631,5,2,0:0:0:0:
191,11,83728,2,0,L|189:52,2,35,2|2|2,0:0|0:0|0:0,0:0:0:0:
512,107,85558,5,0,0:0:0:0:
512,107,87021,2,0,P|468:116|399:107,2,105,0|2|2,0:0|0:0|0:0,0:0:0:0:
330,246,88484,6,0,L|326:174,2,70,2|0|0,0:0|0:0|0:0,0:0:0:0:
134,84,89948,2,0,P|185:77|237:87,2,105,2|2|2,0:0|0:0|0:0,0:0:0:0:
344,281,91411,6,0,L|348:209,2,70,2|0|0,0:0|0:0|0:0,0:0:0:0:
138,364,92875,5,2,0:0:0:0:
113,111,93423,1,2,0:0:0:0:
347,211,93972,1,2,0:0:0:0:
204,234,94338,5,2,0:0:0:0:
393,319,94704,1,0,0:0:0:0:
387,112,95070,1,0,0:0:0:0:
387,112,97265,5,2,0:0:0:0:
387,112,99826,6,0,L|345:114,1,35,2|2,0:0|0:0,0:0:0:0:
256,161,100192,2,0,P|244:118|246:78,2,70,2|2|2,0:0|0:0|0:0,0:0:0:0:
104,92,101289,2,0,L|146:90,1,35,2|2,0:0|0:0,0:0:0:0:
16,71,101655,6,0,P|17:111|35:151,1,70,0|2,0:0|0:0,0:0:0:0:
129,297,102387,1,2,0:0:0:0:
129,297,102753,2,0,L|133:250,1,35,2|2,0:0|0:0,0:0:0:0:
207,69,103119,5,0,0:0:0:0:
383,116,103484,1,0,0:0:0:0:
214,182,103850,1,0,0:0:0:0:
313,28,104216,1,0,0:0:0:0:
321,210,104582,1,0,0:0:0:0:
321,210,105680,6,0,L|275:207,1,26.2500010013581,2|2,0:0|0:0,0:0:0:0:
235,125,106045,2,0,P|260:114|293:111,2,52.5000020027161,2|2|2,0:0|0:0|0:0,0:0:0:0:
170,279,107143,2,0,L|168:248,1,26.2500010013581,2|2,0:0|0:0,0:0:0:0:
131,156,107509,5,0,0:0:0:0:
256,192,107692,12,0,110436,0:0:0:0:
