osu file format v14

[General]
AudioFilename: audio.mp3
AudioLeadIn: 0
PreviewTime: 131
Countdown: 0
SampleSet: Soft
StackLeniency: 0.6
Mode: 0
LetterboxInBreaks: 0
WidescreenStoryboard: 1

[Editor]
DistanceSpacing: 1
BeatDivisor: 4
GridSize: 4
TimelineZoom: 1

[Metadata]
Title:Partner no Thema Orgel
TitleUnicode:パートナーのテーマ オルゴール
Artist:Keisuke Ito, Yasuhiro Kawagoe, Noriko Murakami
ArtistUnicode:いとうけいすけ、川越康弘、村上徳子
Creator:fieryrage
Version:polka's normal
Source:ポケモン超不思議のダンジョン
Tags:pokemon pokémon super mystery dungeon partner's theme music box pocket monsters nintendo the company game freak 3ds hobbes2 polkamocha
BeatmapID:1301543
BeatmapSetID:566584

[Difficulty]
HPDrainRate:4
CircleSize:3
OverallDifficulty:5
ApproachRate:5.6
SliderMultiplier:2
SliderTickRate:1

[Events]
//Background and Video events
0,0,"dasffdss.png",0,0
//Break Periods
2,47708,49691
2,97647,98716
//Storyboard Layer 0 (Background)
//Storyboard Layer 1 (Fail)
//Storyboard Layer 2 (Pass)
//Storyboard Layer 3 (Foreground)
//Storyboard Sound Samples

[TimingPoints]
680,731.707317073171,4,2,1,25,1,0
3606,-100,4,2,1,15,0,0
6167,-100,4,2,1,25,0,0
10558,-100,4,2,1,15,0,0
11655,-100,4,2,1,25,0,0
17143,-100,4,2,1,15,0,0
17875,-100,4,2,1,25,0,0
19887,-100,4,2,1,5,0,0
20253,-100,4,2,1,25,0,0
20436,-100,4,2,1,5,0,0
20801,-100,4,2,1,25,0,0
22631,-100,4,2,1,5,0,0
23728,-100,4,2,1,25,0,0
33972,-100,4,2,1,15,0,0
35070,-100,4,2,1,25,0,0
53362,-100,4,2,1,25,0,0
56472,-100,4,2,1,5,0,0
57021,-100,4,2,1,15,0,0
57204,-100,4,2,1,5,0,0
57753,-100,4,2,1,20,0,0
58484,-100,4,2,1,5,0,0
58850,-100,4,2,1,15,0,0
59216,-100,4,2,1,25,0,0
61045,-100,4,2,1,15,0,0
62509,-100,4,2,1,25,0,0
65070,-100,4,2,1,25,0,0
68180,-100,4,2,1,5,0,0
68728,-100,4,2,1,15,0,0
68911,-100,4,2,1,5,0,0
69460,-100,4,2,1,20,0,0
70192,-100,4,2,1,5,0,0
70558,-100,4,2,1,25,0,0
72753,-100,4,2,1,15,0,0
75314,-100,4,2,1,25,0,0
76777,-100,4,2,1,25,0,0
76960,-100,4,2,1,5,0,0
77326,-100,4,2,1,25,0,0
77509,-100,4,2,1,5,0,0
77875,-100,4,2,1,25,0,0
79704,-100,4,2,1,15,0,0
80619,-100,4,2,1,5,0,0
81167,-100,4,2,1,25,0,0
81350,-100,4,2,1,5,0,0
81899,-100,4,2,1,25,0,0
83728,-100,4,2,1,20,0,0
85558,-100,4,2,1,15,0,0
87204,-100,4,2,1,5,0,0
87570,-100,4,2,1,25,0,0
87753,-100,4,2,1,5,0,0
88119,-100,4,2,1,25,0,0
88850,-100,4,2,1,15,0,0
89948,-100,4,2,1,25,0,0
90131,-100,4,2,1,5,0,0
90497,-100,4,2,1,25,0,0
90680,-100,4,2,1,5,0,0
91045,-100,4,2,1,25,0,0
91777,-100,4,2,1,15,0,0
92875,-100,4,2,1,25,0,0
93058,-100,4,2,1,5,0,0
93423,-100,4,2,1,25,0,0
93606,-100,4,2,1,5,0,0
93972,-100,4,2,1,25,0,0
94704,-100,4,2,1,15,0,0
97265,-100,4,2,1,25,0,0
97448,-100,4,2,1,25,0,0
99826,-100,4,2,1,25,0,0
102021,-100,4,2,1,25,0,0
102387,-100,4,2,1,15,0,0
103119,-100,4,2,1,10,0,0
103850,-100,4,2,1,10,0,0
106045,-100,4,2,1,8,0,0
107509,-100,4,2,1,5,0,0
108240,-100,4,2,1,5,0,0

[Colours]
Combo1 : 220,86,86
Combo2 : 218,223,111
Combo3 : 153,153,153
Combo4 : 230,180,77

[HitObjects]
452,224,314,6,0,L|444:296,1,50,2|2,0:0|0:0,0:0:0:0:
416,316,680,2,0,P|368:328|316:316,1,100,2|2,0:0|0:0,0:0:0:0:
364,228,1411,2,0,P|315:217|267:229,1,100,2|2,0:0|0:0,0:0:0:0:
224,256,1960,2,0,P|145:285|80:256,1,150,2|2,0:0|0:0,0:0:0:0:
152,184,2875,2,0,P|140:144|160:76,1,100,2|2,0:0|0:0,0:0:0:0:
188,52,3423,1,2,0:0:0:0:
424,136,4338,5,0,0:0:0:0:
484,216,4704,1,0,0:0:0:0:
424,296,5070,1,0,0:0:0:0:
136,208,6167,6,0,P|168:205|229:229,1,50,2|2,0:0|0:0,0:0:0:0:
228,236,6533,2,0,L|244:344,1,100,2|2,0:0|0:0,0:0:0:0:
324,272,7265,2,0,L|304:156,1,100,2|2,0:0|0:0,0:0:0:0:
296,124,7814,2,0,B|232:92|208:152|144:120,1,150,2|2,0:0|0:0,0:0:0:0:
64,72,8728,2,0,P|49:124|72:184,1,100,2|2,0:0|0:0,0:0:0:0:
148,220,9460,2,0,B|212:188|236:248|300:216,1,150,2|2,0:0|0:0,0:0:0:0:
340,196,10192,5,2,0:0:0:0:
416,264,10558,1,0,0:0:0:0:
488,196,10923,1,0,0:0:0:0:
416,8,11655,1,2,0:0:0:0:
244,108,12387,6,0,P|232:160|256:224,1,100,2|2,0:0|0:0,0:0:0:0:
332,156,13119,2,0,P|343:204|331:252,1,100,2|2,0:0|0:0,0:0:0:0:
304,296,13667,1,2,0:0:0:0:
28,80,14948,1,2,0:0:0:0:
112,24,15314,2,0,L|224:36,1,100,2|2,0:0|0:0,0:0:0:0:
216,136,16045,2,0,L|340:116,1,100,2|2,0:0|0:0,0:0:0:0:
364,112,16594,1,2,0:0:0:0:
260,340,17509,5,0,0:0:0:0:
196,264,17875,1,0,0:0:0:0:
292,244,18240,2,0,P|344:232|412:260,2,100,2|2|2,0:0|0:0|0:0,0:0:0:0:
224,168,19338,1,2,0:0:0:0:
160,92,19704,2,0,P|84:112|8:88,2,150,2|2|2,0:0|0:0|0:0,0:0:0:0:
244,40,21167,1,2,0:0:0:0:
244,40,23728,6,0,P|248:80|228:120,1,50,2|2,0:0|0:0,0:0:0:0:
224,132,24094,2,0,L|96:120,1,100,2|2,0:0|0:0,0:0:0:0:
140,220,24826,2,0,L|255:232,1,100,2|2,0:0|0:0,0:0:0:0:
276,264,25375,2,0,P|345:292|435:235,1,150,2|2,0:0|0:0,0:0:0:0:
346,192,26289,2,0,P|358:152|334:76,1,100,2|2,0:0|0:0,0:0:0:0:
320,52,26838,1,2,0:0:0:0:
132,216,27753,5,2,0:0:0:0:
48,160,28119,1,0,0:0:0:0:
132,108,28484,1,2,0:0:0:0:
416,208,29582,6,0,L|400:276,1,50,2|2,0:0|0:0,0:0:0:0:
388,304,29948,2,0,B|440:296|440:328|504:304,2,100,2|2|2,0:0|0:0|0:0,0:0:0:0:
296,344,31045,1,2,0:0:0:0:
260,308,31228,2,0,P|204:288|100:328,1,150,2|2,0:0|0:0,0:0:0:0:
20,332,32143,2,0,L|40:232,1,100,2|2,0:0|0:0,0:0:0:0:
16,136,32875,2,0,P|52:180|176:172,1,150,2|2,0:0|0:0,0:0:0:0:
180,160,33606,5,2,0:0:0:0:
256,88,33972,1,0,0:0:0:0:
324,160,34338,1,0,0:0:0:0:
256,348,35070,1,2,0:0:0:0:
128,192,35801,6,0,L|144:84,2,100,2|2|2,0:0|0:0|0:0,0:0:0:0:
200,260,36899,1,2,0:0:0:0:
272,192,37265,2,0,L|257:93,1,100,2|2,0:0|0:0,0:0:0:0:
444,16,38362,1,2,0:0:0:0:
512,92,38728,2,0,L|497:190,2,100,2|2|2,0:0|0:0|0:0,0:0:0:0:
444,16,39826,1,2,0:0:0:0:
380,92,40192,2,0,L|394:190,1,100,2|2,0:0|0:0,0:0:0:0:
284,356,41289,6,0,P|255:359|218:351,1,50,2|2,0:0|0:0,0:0:0:0:
200,320,41655,2,0,B|132:304|132:352|44:328,2,150,2|2|2,0:0|0:0|0:0,0:0:0:0:
260,240,43119,2,0,B|328:224|328:272|416:248,2,150,2|2|2,0:0|0:0|0:0,0:0:0:0:
180,300,44582,1,2,0:0:0:0:
76,168,45314,5,0,0:0:0:0:
112,76,45680,1,0,0:0:0:0:
204,36,46045,1,0,0:0:0:0:
304,36,46411,1,0,0:0:0:0:
396,76,46777,1,0,0:0:0:0:
436,168,47143,2,0,L|416:248,2,50,2|2|2,0:0|0:0|0:0,0:0:0:0:
256,64,50801,6,0,L|144:52,2,100,2|2|2,0:0|0:0|0:0,0:0:0:0:
336,124,51899,2,0,L|496:100,2,150,2|2|2,0:0|0:0|0:0,0:0:0:0:
244,168,53362,6,0,P|236:232|248:272,1,100,2|0,0:0|0:0,0:0:0:0:
324,328,54094,1,0,0:0:0:0:
400,264,54460,2,0,L|480:272,2,50,2|2|2,0:0|0:0|0:0,0:0:0:0:
400,164,55192,2,0,L|488:148,2,50,2|2|2,0:0|0:0|0:0,0:0:0:0:
312,212,55923,1,2,0:0:0:0:
224,164,56289,6,0,B|120:128|120:200|24:164,2,200,2|0|0,0:0|0:0|0:0,0:0:0:0:
360,232,58301,2,0,P|435:260|510:225,1,150,2|2,0:0|0:0,0:0:0:0:
432,156,59216,2,0,L|496:0,2,150,2|2|2,0:0|0:0|0:0,0:0:0:0:
384,244,60680,1,2,0:0:0:0:
256,92,61411,1,0,0:0:0:0:
128,244,62143,1,0,3:0:0:0:
40,288,62509,6,0,B|28:240|28:240|44:192,2,100,2|2|2,0:0|0:0|0:0,0:0:0:0:
124,344,63606,2,0,P|192:364|272:340,2,150,2|2|2,0:0|0:0|0:0,0:0:0:0:
40,288,65070,1,2,0:0:0:0:
120,104,65801,5,0,0:0:0:0:
204,160,66167,2,0,L|296:140,2,50,2|2|2,0:0|0:0|0:0,0:0:0:0:
144,240,66899,2,0,L|84:232,2,50,2|2|2,0:0|0:0|0:0,0:0:0:0:
208,316,67631,1,2,0:0:0:0:
272,240,67997,5,2,0:0:0:0:
380,72,68728,1,0,0:0:0:0:
464,128,69094,1,0,0:0:0:0:
376,176,69460,2,0,B|352:244|408:244|376:328,2,150,2|0|2,0:0|0:0|0:0,0:0:0:0:
292,120,70923,2,0,L|472:96,2,150,2|2|2,0:0|0:0|0:0,0:0:0:0:
284,168,72204,6,0,L|204:176,1,50,2|2,0:0|0:0,0:0:0:0:
120,8,73119,1,2,0:0:0:0:
28,188,73850,1,0,0:0:0:0:
144,352,74582,1,0,0:0:0:0:
236,172,75314,2,0,B|308:200|308:144|408:176,2,150,2|2|2,0:0|0:0|0:0,0:0:0:0:
220,72,76777,6,0,B|144:52|144:104|64:72,2,150,2|2|2,0:0|0:0|0:0,0:0:0:0:
300,128,78240,1,2,0:0:0:0:
300,128,79704,1,0,0:0:0:0:
204,304,80436,2,0,B|256:304|296:332|296:332|340:304|400:304,2,200,2|2|2,0:0|0:0|0:0,0:0:0:0:
12,356,82631,5,2,0:0:0:0:
184,108,83728,2,0,L|168:20,2,50,2|2|2,0:0|0:0|0:0,0:0:0:0:
240,356,85558,1,0,0:0:0:0:
240,356,87021,2,0,B|336:376|292:328|392:352,2,150,0|2|2,0:0|0:0|0:0,0:0:0:0:
168,288,88484,5,2,0:0:0:0:
104,212,88850,1,0,0:0:0:0:
168,132,89216,1,0,0:0:0:0:
356,68,89948,2,0,P|380:134|331:218,2,150,2|2|2,0:0|0:0|0:0,0:0:0:0:
280,132,91411,5,2,0:0:0:0:
224,216,91777,1,0,0:0:0:0:
168,132,92143,1,0,0:0:0:0:
280,296,92875,2,0,L|108:252,2,150,2|2|2,0:0|0:0|0:0,0:0:0:0:
352,364,94338,5,2,0:0:0:0:
424,296,94704,1,0,0:0:0:0:
352,228,95070,1,0,0:0:0:0:
152,188,97265,6,2,L|240:200,1,50,2|0,0:0|0:0,0:0:0:0:
496,344,99826,6,0,L|408:328,1,50,2|2,0:0|0:0,0:0:0:0:
396,324,100192,2,0,P|340:336|272:308,1,100,2|2,0:0|0:0,0:0:0:0:
346,237,100923,2,0,P|297:226|249:238,1,100,2|2,0:0|0:0,0:0:0:0:
208,268,101472,1,2,0:0:0:0:
76,340,102021,2,0,L|56:220,1,100,2|2,0:0|0:0,0:0:0:0:
124,164,102753,2,0,L|108:80,1,50,2|2,0:0|0:0,0:0:0:0:
356,56,103850,5,0,0:0:0:0:
424,132,104216,1,0,0:0:0:0:
324,152,104582,1,0,0:0:0:0:
32,88,105680,6,0,P|28:120|36:152,1,50,2|2,0:0|0:0,0:0:0:0:
60,176,106045,2,0,P|68:220|52:292,1,100,2|2,0:0|0:0,0:0:0:0:
24,368,106777,2,0,L|156:352,1,100,2|2,0:0|0:0,0:0:0:0:
160,320,107326,2,0,L|328:340,1,150,2|0,0:0|0:0,0:0:0:0:
408,352,108240,1,0,0:0:0:0:
464,272,108606,1,0,0:0:0:0:
416,184,108972,6,0,P|392:120|424:40,1,150,0|0,0:0|0:0,0:0:0:0:
464,20,109704,1,0,0:0:0:0:
