osu file format v14

[General]
AudioFilename: audio.mp3
AudioLeadIn: 0
PreviewTime: 21060
Countdown: 0
SampleSet: Soft
StackLeniency: 0.7
Mode: 0
LetterboxInBreaks: 0
WidescreenStoryboard: 0

[Editor]
DistanceSpacing: 1.3
BeatDivisor: 4
GridSize: 4
TimelineZoom: 1

[Metadata]
Title:Partner no Thema
TitleUnicode:パートナーのテーマ
Artist:Keisuke Ito, Yasuhiro Kawagoe, Noriko Murakami
ArtistUnicode:いとうけいすけ、川越康弘、村上徳子
Creator:leo16834
Version:Normal!
Source:ポケモン超不思議のダンジョン
Tags:pokemon super mystery dungeon partner's theme music box pocket monsters pokémon CookieBite gary00737 pikachu
BeatmapID:1544436
BeatmapSetID:671647

[Difficulty]
HPDrainRate:3
CircleSize:3.2
OverallDifficulty:3
ApproachRate:4
SliderMultiplier:1.2
SliderTickRate:1

[Events]
//Background and Video events
0,0,"My partner.jpg",0,0
//Break Periods
2,17926,19740
2,66926,68406
2,149393,150406
//Storyboard Layer 0 (Background)
//Storyboard Layer 1 (Fail)
//Storyboard Layer 2 (Pass)
//Storyboard Layer 3 (Foreground)
//Storyboard Sound Samples

[TimingPoints]
60,666.666666666667,4,2,1,40,1,0
16060,-100,4,2,2,40,0,0
16726,-100,4,2,1,40,0,0
33393,-100,4,2,2,40,0,0
33560,-100,4,2,1,40,0,0
34393,-100,4,2,2,40,0,0
34560,-100,4,2,1,40,0,0
38726,-100,4,2,2,40,0,0
40060,-100,4,2,1,40,0,0
54726,-100,4,2,2,40,0,0
55060,-100,4,2,1,40,0,0
60060,-100,4,2,2,40,0,0
60393,-100,4,2,1,40,0,0
72060,-100,4,2,1,50,0,0
93393,-100,4,2,2,40,0,0
93560,-100,4,2,1,40,0,0
94726,-100,4,2,1,75,0,0
96060,-100,4,2,1,40,0,0
97393,-100,4,2,2,40,0,0
97726,-100,4,2,1,40,0,0
100060,-100,4,2,1,75,0,0
101393,-100,4,2,1,40,0,0
102560,-100,4,2,2,40,0,0
103060,-100,4,2,1,40,0,0
114726,-100,4,2,1,50,0,0
125393,-100,4,2,2,50,0,0
125560,-100,4,2,1,50,0,0
151726,-100,4,2,1,40,0,0
157060,-100,4,2,1,25,0,0
158060,-100,4,2,1,20,0,0
158726,-100,4,2,1,15,0,0
160726,-100,4,2,1,5,0,0

[Colours]
Combo1 : 255,51,51
Combo2 : 255,255,128
Combo3 : 128,255,128
Combo4 : 0,255,255
Combo5 : 255,128,64
Combo6 : 255,128,192
Combo7 : 128,0,255
Combo8 : 0,0,255

[HitObjects]
70,329,60,5,2,0:0:0:0:
70,329,2726,6,0,P|55:275|50:244,2,60,2|0|2,0:0|0:0|0:0,0:0:0:0:
140,362,3726,1,0,0:0:0:0:
210,328,4060,2,0,P|269:314|340:341,1,120,2|0,0:0|0:0,0:0:0:0:
429,233,5393,6,0,P|466:235|504:224,2,60,2|0|2,0:0|0:0|0:0,0:0:0:0:
360,194,6393,1,0,0:0:0:0:
147,95,7393,1,2,0:0:0:0:
298,58,8060,6,0,P|357:55|435:62,1,120,2|2,0:0|0:0,0:0:0:0:
469,118,9060,2,0,P|473:152|469:178,1,60,0|2,0:0|0:0,0:0:0:0:
437,330,10060,1,2,0:0:0:0:
294,267,10726,6,0,P|296:231|303:191,2,60,2|0|2,0:0|0:0|0:0,0:0:0:0:
318,341,11726,1,2,0:0:0:0:
317,341,13393,2,0,P|377:335|389:335,2,60,2|0|2,0:0|0:0|0:0,0:0:0:0:
245,373,14393,1,2,0:0:0:0:
92,341,15060,1,2,0:0:0:0:
37,285,15393,2,0,P|29:246|37:204,1,60,2|0,0:0|0:0,0:0:0:0:
80,165,16060,6,0,B|134:159|134:159|216:170,2,120,2|2|2,0:0|0:0|0:0,0:0:0:0:
29,224,17726,1,0,0:0:0:0:
77,57,21060,5,0,0:0:0:0:
141,101,21393,2,0,P|183:99|212:96,2,60,2|0|8,0:0|0:0|0:0,0:0:0:0:
81,151,22393,1,0,0:0:0:0:
124,215,22726,2,0,B|112:247|121:280|121:279,2,60,2|0|8,0:0|0:0|0:0,0:0:0:0:
197,189,23726,1,0,0:0:0:0:
258,237,24060,2,0,P|321:239|364:199,1,120,2|8,0:0|0:0,0:0:0:0:
471,62,26393,5,0,0:0:0:0:
446,136,26726,2,0,P|452:166|453:201,2,60,2|0|8,0:0|0:0|0:0,0:0:0:0:
388,83,27726,1,0,0:0:0:0:
315,112,28060,2,0,L|250:117,2,60,2|0|8,0:0|0:0|0:0,0:0:0:0:
360,175,29060,1,0,0:0:0:0:
390,246,29393,2,0,P|401:329|391:373,1,120,2|8,0:0|0:0,0:0:0:0:
82,340,31393,5,2,0:0:0:0:
29,198,32060,2,0,P|69:199|94:194,1,60,2|0,0:0|0:0,0:0:0:0:
156,157,32726,2,0,P|202:156|275:186,1,120,8|2,0:0|0:0,0:0:0:0:
472,64,34393,1,2,0:0:0:0:
401,31,34726,2,0,P|357:40|326:55,1,60,2|0,0:0|0:0,0:0:0:0:
297,109,35393,2,0,P|253:100|222:85,1,60,8|0,0:0|0:0,0:0:0:0:
177,44,36060,2,0,P|133:53|102:68,2,60,2|0|8,0:0|0:0|0:0,0:0:0:0:
172,200,37393,6,0,P|205:192|249:194,1,60,2|0,0:0|0:0,0:0:0:0:
306,210,38060,2,0,L|313:139,1,60,8|0,0:0|0:0,0:0:0:0:
373,102,38726,2,0,P|415:90|472:95,2,90,2|0|2,0:0|0:0|0:0,0:0:0:0:
299,75,40060,6,0,P|227:66|165:65,1,120,2|8,0:0|0:0,0:0:0:0:
127,123,41060,1,0,0:0:0:0:
171,187,41393,2,0,P|242:195|305:197,1,120,2|8,0:0|0:0,0:0:0:0:
366,178,42393,1,0,0:0:0:0:
344,254,42726,6,0,P|355:288|359:328,2,60,2|0|8,0:0|0:0|0:0,0:0:0:0:
290,197,43726,1,0,0:0:0:0:
223,156,44060,2,0,P|182:151|147:158,2,60,2|0|8,0:0|0:0|0:0,0:0:0:0:
292,119,45060,1,0,0:0:0:0:
228,76,45393,6,0,P|165:73|95:89,1,120,2|8,0:0|0:0,0:0:0:0:
81,156,46393,1,0,0:0:0:0:
117,224,46726,2,0,P|180:227|250:211,1,120,2|0,0:0|0:0,0:0:0:0:
283,277,47726,1,0,0:0:0:0:
314,206,48060,6,0,P|321:152|317:124,2,60,2|0|8,0:0|0:0|0:0,0:0:0:0:
283,277,49060,1,0,0:0:0:0:
347,320,49393,2,0,P|398:318|431:331,2,60,2|0|8,0:0|0:0|0:0,0:0:0:0:
283,365,50393,1,0,0:0:0:0:
214,325,50726,2,0,P|145:322|86:329,1,120,2|8,0:0|0:0,0:0:0:0:
29,284,51726,1,0,0:0:0:0:
98,243,52060,1,2,0:0:0:0:
172,25,53060,5,0,0:0:0:0:
225,85,53393,2,0,P|280:75|300:78,1,60,2|0,0:0|0:0,0:0:0:0:
345,123,54060,2,0,P|374:121|403:113,1,60,8|0,0:0|0:0,0:0:0:0:
473,77,54726,2,0,L|467:159,1,60,2|8,0:0|0:0,0:0:0:0:
474,292,55726,5,0,0:0:0:0:
400,318,56060,2,0,L|328:311,1,60,2|0,0:0|0:0,0:0:0:0:
283,259,56726,2,0,L|223:264,1,60,8|0,0:0|0:0,0:0:0:0:
157,305,57393,2,0,P|173:264|161:177,1,120,2|8,0:0|0:0,0:0:0:0:
75,62,58726,6,0,P|79:105|86:144,1,60,2|0,0:0|0:0,0:0:0:0:
30,180,59393,2,0,P|29:224|23:252,1,60,8|0,0:0|0:0,0:0:0:0:
95,274,60060,2,0,P|142:266|162:266,1,60,2|8,0:0|0:0,0:0:0:0:
301,317,61060,1,0,0:0:0:0:
335,247,61393,6,0,P|348:179|350:149,2,90,2|2|8,0:0|0:0|0:0,0:0:0:0:
379,311,62726,2,0,P|441:324|486:343,2,90,2|2|8,0:0|0:0|0:0,0:0:0:0:
300,316,64060,2,0,P|236:325|176:276,1,120,2|8,0:0|0:0,0:0:0:0:
123,337,65060,1,0,0:0:0:0:
122,261,65393,2,0,P|128:215|126:184,2,60,2|0|8,0:0|0:0|0:0,0:0:0:0:
45,279,66393,1,0,0:0:0:0:
28,355,66726,5,2,0:0:0:0:
163,159,69726,6,0,P|129:146|87:148,2,60,2|2|2,0:0|0:0|0:0,0:0:0:0:
231,195,70726,2,0,L|341:182,2,90,2|2|2,0:0|0:0|0:0,0:0:0:0:
161,231,72060,6,0,P|157:276|179:354,1,120,4|8,0:0|0:0,0:0:0:0:
250,371,73060,1,0,0:0:0:0:
323,344,73393,2,0,P|352:343|401:349,2,60,2|0|2,0:0|0:0|0:0,0:0:0:0:
260,296,74393,1,0,0:0:0:0:
332,267,74726,2,0,L|344:127,1,120,2|8,0:0|0:0,0:0:0:0:
255,17,76060,2,0,P|299:7|351:-1,2,90,2|2|8,0:0|0:0|0:0,0:0:0:0:
184,49,77393,6,0,P|140:39|88:31,2,90,2|2|8,0:0|0:0|0:0,0:0:0:0:
254,81,78726,2,0,L|7:118,1,240,2|2,0:0|0:0,0:0:0:0:
88,255,80726,2,0,P|74:314|80:379,2,120,2|8|2,0:0|0:0|0:0,0:0:0:0:
118,182,82393,1,0,0:0:0:0:
167,246,82726,6,0,P|222:256|292:221,1,120,4|8,0:0|0:0,0:0:0:0:
276,154,83726,1,0,0:0:0:0:
346,188,84060,2,0,P|358:219|356:255,2,60,2|0|2,0:0|0:0|0:0,0:0:0:0:
276,154,85060,1,0,0:0:0:0:
328,96,85393,2,0,P|277:105|211:67,1,120,2|8,0:0|0:0,0:0:0:0:
100,178,86726,2,0,L|6:192,2,90,2|2|8,0:0|0:0|0:0,0:0:0:0:
167,142,88060,6,0,L|261:156,2,90,2|2|8,0:0|0:0|0:0,0:0:0:0:
100,178,89393,2,0,P|50:208|157:245,1,240,2|2,0:0|0:0,0:0:0:0:
270,363,91393,1,8,0:0:0:0:
294,208,92060,2,0,P|346:203|399:230,2,90,2|2|8,0:0|0:0|0:0,0:0:0:0:
219,189,93393,6,0,L|228:52,1,120,2|8,0:0|0:0,0:0:0:0:
288,21,94393,1,0,0:0:0:0:
315,93,94726,2,0,L|321:163,2,60
365,33,95726,1,0,0:0:0:0:
395,104,96060,1,2,0:0:0:0:
422,249,96726,6,0,P|441:322|442:367,2,120,2|2|2,0:0|0:0|0:0,0:0:0:0:
330,123,98726,2,0,L|188:135,1,120,2|8,0:0|0:0,0:0:0:0:
139,99,99726,1,0,0:0:0:0:
142,177,100060,2,0,P|146:221|134:252,2,60
72,145,101060,1,0,0:0:0:0:
4,183,101393,1,2,0:0:0:0:
141,235,102060,6,0,P|180:236|255:265,2,120,2|2|2,0:0|0:0|0:0,0:0:0:0:
229,106,104060,2,0,P|284:108|361:89,1,120,2|8,0:0|0:0,0:0:0:0:
212,26,105393,2,0,P|154:15|109:18,2,90,2|2|8,0:0|0:0|0:0,0:0:0:0:
271,76,106726,2,0,L|266:207,1,120,2|8,0:0|0:0,0:0:0:0:
222,345,108060,2,0,P|168:335|117:313,2,90,2|2|8,0:0|0:0|0:0,0:0:0:0:
298,331,109393,6,0,P|353:337|418:309,1,120,2|8,0:0|0:0,0:0:0:0:
434,238,110393,1,0,0:0:0:0:
442,160,110726,2,0,L|436:81,2,60,2|0|8,0:0|0:0|0:0,0:0:0:0:
304,219,112060,2,0,L|238:213,1,60,2|0,0:0|0:0,0:0:0:0:
182,165,112726,2,0,L|116:171,1,60,8|0,0:0|0:0,0:0:0:0:
72,231,113393,2,0,P|84:176|67:109,1,120,2|8,0:0|0:0,0:0:0:0:
190,28,114726,6,0,P|244:27|285:77,1,120,6|8,0:0|0:0,0:0:0:0:
309,148,115726,1,0,0:0:0:0:
327,224,116060,2,0,P|335:271|336:297,1,60,2|0,0:0|0:0,0:0:0:0:
323,360,116726,2,0,L|242:356,1,60,8|0,0:0|0:0,0:0:0:0:
218,292,117393,2,0,P|154:283|102:306,1,120,2|8,0:0|0:0,0:0:0:0:
38,345,118393,1,0,0:0:0:0:
29,267,118726,2,0,L|34:137,1,120,2|8,0:0|0:0,0:0:0:0:
122,23,120060,6,0,P|201:38|257:29,1,120,2|8,0:0|0:0,0:0:0:0:
313,7,121060,1,0,0:0:0:0:
383,40,121393,2,0,L|461:51,1,60,2|0,0:0|0:0,0:0:0:0:
495,105,122060,2,0,L|417:116,1,60,8|0,0:0|0:0,0:0:0:0:
357,114,122726,2,0,P|350:157|392:236,1,120,2|8,0:0|0:0,0:0:0:0:
441,273,123726,1,0,0:0:0:0:
373,309,124060,2,0,L|238:318,1,120,2|8,0:0|0:0,0:0:0:0:
136,232,125393,6,0,P|194:236|243:199,1,120,2|8,0:0|0:0,0:0:0:0:
279,132,126393,1,0,0:0:0:0:
201,132,126726,2,0,L|114:134,1,60,2|0,0:0|0:0,0:0:0:0:
70,99,127393,2,0,P|64:55|64:27,1,60,8|0,0:0|0:0,0:0:0:0:
139,13,128060,2,0,P|198:12|263:31,1,120,2|8,0:0|0:0,0:0:0:0:
313,81,129060,1,0,0:0:0:0:
241,112,129393,2,0,L|253:238,1,120,2|8,0:0|0:0,0:0:0:0:
359,322,130726,6,0,B|384:310|412:304|412:304|419:233,1,120,2|8,0:0|0:0,0:0:0:0:
426,162,131726,1,0,0:0:0:0:
438,84,132060,2,0,P|393:77|368:73,1,60,2|0,0:0|0:0,0:0:0:0:
306,45,132726,2,0,P|261:51|236:56,1,60,8|0,0:0|0:0,0:0:0:0:
180,98,133393,2,0,P|116:93|67:50,1,120,2|8,0:0|0:0,0:0:0:0:
5,98,134393,1,0,0:0:0:0:
36,169,134726,1,2,0:0:0:0:
253,343,136060,5,6,0:0:0:0:
320,303,136393,2,0,L|387:310,1,60,0|8,0:0|0:0,0:0:0:0:
440,260,137060,1,0,0:0:0:0:
385,203,137393,2,0,P|326:194|299:187,1,60,2|0,0:0|0:0,0:0:0:0:
251,168,138060,2,0,P|221:162|191:158,1,60,8|0,0:0|0:0,0:0:0:0:
114,148,138726,5,2,0:0:0:0:
59,203,139060,1,2,0:0:0:0:
133,225,139393,1,2,0:0:0:0:
259,343,141393,5,2,0:0:0:0:
192,303,141726,2,0,L|125:310,1,60,0|8,0:0|0:0,0:0:0:0:
72,260,142393,1,0,0:0:0:0:
127,203,142726,2,0,P|186:194|213:187,1,60,2|0,0:0|0:0,0:0:0:0:
261,168,143393,2,0,P|291:162|321:158,1,60,8|0,0:0|0:0,0:0:0:0:
398,148,144059,5,2,0:0:0:0:
453,203,144393,1,2,0:0:0:0:
379,225,144726,1,2,0:0:0:0:
114,148,146726,5,2,0:0:0:0:
59,203,147060,1,2,0:0:0:0:
133,225,147393,1,2,0:0:0:0:
43,46,151726,5,0,0:0:0:0:
123,35,152060,2,0,L|209:21,2,60,2|0|8,0:0|0:0|0:0,0:0:0:0:
96,108,153060,1,0,0:0:0:0:
125,179,153393,2,0,P|141:229|140:256,2,60,2|0|8,0:0|0:0|0:0,0:0:0:0:
96,108,154393,1,0,0:0:0:0:
173,104,154726,2,0,P|227:112|313:88,1,120,2|8,0:0|0:0,0:0:0:0:
82,308,157060,5,0,0:0:0:0:
154,335,157393,2,0,L|222:328,2,60,2|0|8,0:0|0:0|0:0,0:0:0:0:
82,308,158393,1,0,0:0:0:0:
57,233,158726,2,0,P|63:190|74:154,2,60,2|0|8,0:0|0:0|0:0,0:0:0:0:
133,249,159726,1,0,0:0:0:0:
192,198,160060,2,0,P|240:210|288:279,1,120,2|8,0:0|0:0,0:0:0:0:
