osu file format v14

[General]
AudioFilename: Post.mp3
AudioLeadIn: 2000
PreviewTime: 6003
Countdown: 0
SampleSet: Soft
StackLeniency: 0.6
Mode: 0
LetterboxInBreaks: 0
WidescreenStoryboard: 0

[Editor]
Bookmarks: 116717
DistanceSpacing: 1
BeatDivisor: 3
GridSize: 4
TimelineZoom: 1

[Metadata]
Title:Yotteoide! Shukubamachi!
TitleUnicode:よっておいで! 宿場町!
Artist:Keisuke Ito, Yasuhiro Kawagoe
ArtistUnicode:いとうけいすけ、川越康弘
Creator:CrystilonZ
Version:Normal
Source:ポケモン不思議のダンジョン マグナゲートと∞迷宮
Tags:Pokémon Pokemon Mystery Dungeon Fushigi Magnagate to Mugendai Meikyu Gates to Infinity and the Infinite Labyrinth Come on in to Post Town
BeatmapID:704095
BeatmapSetID:315899

[Difficulty]
HPDrainRate:4.2
CircleSize:3.5
OverallDifficulty:3.5
ApproachRate:5
SliderMultiplier:1
SliderTickRate:1

[Events]
//Background and Video events
0,0,"PMD.jpg",0,0
//Break Periods
//Storyboard Layer 0 (Background)
//Storyboard Layer 1 (Fail)
//Storyboard Layer 2 (Pass)
//Storyboard Layer 3 (Foreground)
//Storyboard Sound Samples

[TimingPoints]
146,428.571428571429,4,2,1,40,1,0
574,-100,4,2,1,62,0,0
860,-100,4,2,1,52,0,0
1288,-100,4,2,1,40,0,0
1860,-100,4,2,1,52,0,0
2146,-100,4,2,1,40,0,0
2288,-100,4,2,1,62,0,0
2717,-100,4,2,1,52,0,0
3146,-100,4,2,1,52,0,0
3574,-100,4,2,1,40,0,0
4003,-100,4,2,1,70,0,0
4288,-100,4,2,1,52,0,0
4717,-100,4,2,1,40,0,0
5288,-100,4,2,1,52,0,0
5574,-100,4,2,1,40,0,0
5717,-100,4,2,1,55,0,0
6146,-100,4,2,1,55,0,0
6431,-100,4,2,1,50,0,0
6574,-100,4,2,1,55,0,0
6860,-100,4,2,1,50,0,0
7003,-100,4,2,1,55,0,0
7288,-100,4,2,1,55,0,0
7431,-100,4,2,1,65,0,0
7717,-100,4,2,1,55,0,0
7860,-100,4,2,1,55,0,0
8146,-100,4,2,1,50,0,0
8288,-100,4,2,1,65,0,0
8574,-100,4,2,1,50,0,0
8717,-100,4,2,1,55,0,0
9003,-100,4,2,1,55,0,0
9146,-100,4,2,1,65,0,0
9431,-100,4,2,1,55,0,0
10003,-100,4,2,1,57,0,0
10431,-100,4,2,1,55,0,0
10717,-100,4,2,1,55,0,0
10860,-100,4,2,1,65,0,0
11146,-100,4,2,1,55,0,0
11288,-100,4,2,1,50,0,0
11717,-100,4,2,1,65,0,0
12146,-100,4,2,1,50,0,0
12431,-100,4,2,1,55,0,0
12574,-100,4,2,1,65,0,0
12860,-100,4,2,1,55,0,0
13003,-100,4,2,1,55,0,0
13288,-100,4,2,1,45,0,0
13431,-100,4,2,1,65,0,0
13717,-100,4,2,1,45,0,0
13860,-100,4,2,1,55,0,0
14288,-100,4,2,1,65,0,0
14574,-100,4,2,1,55,0,0
14717,-100,4,2,1,55,0,0
15003,-100,4,2,1,45,0,0
15146,-100,4,2,1,65,0,0
15431,-100,4,2,1,45,0,0
15574,-100,4,2,1,55,0,0
15860,-100,4,2,1,45,0,0
16003,-100,4,2,1,65,0,0
16288,-100,4,2,1,55,0,0
16860,-100,4,2,1,45,0,0
17288,-100,4,2,1,55,0,0
17574,-100,4,2,1,45,0,0
17717,-100,4,2,1,65,0,0
18003,-100,4,2,1,55,0,0
18574,-100,4,2,1,65,0,0
19003,-100,4,2,1,55,0,0
19288,-100,4,2,1,45,0,0
19431,-100,4,2,1,65,0,0
19717,-100,4,2,1,55,0,0
20288,-100,4,2,1,55,0,0
20717,-100,4,2,1,65,0,0
21003,-100,4,2,1,35,0,0
21146,-100,4,2,1,65,0,0
21431,-100,4,2,1,57,0,0
21574,-100,4,2,1,65,0,0
21860,-100,4,2,1,45,0,0
22003,-100,4,2,1,65,0,0
22288,-100,4,2,1,45,0,0
22431,-100,4,2,1,65,0,0
22717,-100,4,2,1,35,0,0
22860,-100,4,2,1,65,0,0
23146,-100,4,2,1,57,0,0
23288,-100,4,2,1,65,0,0
23574,-100,4,2,1,45,0,0
23717,-100,4,2,1,65,0,0
24431,-100,4,2,1,35,0,0
24574,-100,4,2,1,65,0,0
24860,-100,4,2,1,57,0,0
25003,-100,4,2,1,65,0,0
25288,-100,4,2,1,45,0,0
25431,-100,4,2,1,65,0,0
25717,-100,4,2,1,45,0,0
25860,-100,4,2,1,65,0,0
26146,-100,4,2,1,35,0,0
26288,-100,4,2,1,65,0,0
26574,-100,4,2,1,57,0,0
26717,-100,4,2,1,45,0,0
27146,-100,4,2,1,65,0,0
27431,-100,4,2,1,45,0,0
27574,-100,4,2,1,65,0,0
27860,-100,4,2,1,35,0,0
28003,-100,4,2,1,65,0,0
28288,-100,4,2,1,57,0,0
28431,-100,4,2,1,65,0,0
28717,-100,4,2,1,45,0,0
28860,-100,4,2,1,65,0,0
29146,-100,4,2,1,45,0,0
29288,-100,4,2,1,65,0,0
29574,-100,4,2,1,35,0,0
29717,-100,4,2,1,65,0,0
30003,-100,4,2,1,55,0,0
30146,-100,4,2,1,45,0,0
31003,-100,4,2,1,75,0,0
31288,-100,4,2,1,45,0,0
31431,-100,4,2,1,65,0,0
31717,-100,4,2,1,45,0,0
31860,-100,4,2,1,65,0,0
32146,-100,4,2,1,45,0,0
32288,-100,4,2,1,65,0,0
32574,-100,4,2,1,45,0,0
32717,-100,4,2,1,65,0,0
33003,-100,4,2,1,57,0,0
33146,-100,4,2,1,65,0,0
33574,-100,4,2,1,55,0,0
33860,-100,4,2,1,45,0,0
34003,-100,4,2,1,55,0,0
34288,-100,4,2,1,45,0,0
34431,-100,4,2,1,55,0,0
34717,-100,4,2,1,55,0,0
34860,-100,4,2,1,65,0,0
35146,-100,4,2,1,55,0,0
35574,-100,4,2,1,45,0,0
35717,-100,4,2,1,65,0,0
36003,-100,4,2,1,45,0,0
36146,-100,4,2,1,55,0,0
36431,-100,4,2,1,55,0,0
36574,-100,4,2,1,65,0,0
36860,-100,4,2,1,55,0,0
37431,-100,4,2,1,65,0,0
37860,-100,4,2,1,55,0,0
38146,-100,4,2,1,55,0,0
38288,-100,4,2,1,65,0,0
38574,-100,4,2,1,55,0,0
39003,-100,4,2,1,45,0,0
39146,-100,4,2,1,55,0,0
39431,-100,4,2,1,45,0,0
39574,-100,4,2,1,55,0,0
39860,-100,4,2,1,45,0,0
40003,-100,4,2,1,65,0,0
40288,-100,4,2,1,55,0,0
40431,-100,4,2,1,65,0,0
40717,-100,4,2,1,45,0,0
40860,-100,4,2,1,65,0,0
41146,-100,4,2,1,45,0,0
41288,-100,4,2,1,55,0,0
41717,-100,4,2,1,65,0,0
42003,-100,4,2,1,55,0,0
42431,-100,4,2,1,45,0,0
42574,-100,4,2,1,65,0,0
42860,-100,4,2,1,45,0,0
43003,-100,4,2,1,55,0,0
43431,-100,4,2,1,65,0,0
43717,-100,4,2,1,55,0,0
44288,-100,4,2,1,65,0,0
44717,-100,4,2,1,55,0,0
45146,-100,4,2,1,65,0,0
45431,-100,4,2,1,55,0,0
45860,-100,4,2,1,45,0,0
46003,-100,4,2,1,65,0,0
46288,-100,4,2,1,45,0,0
46431,-100,4,2,1,55,0,0
46860,-100,4,2,1,65,0,0
47146,-100,4,2,1,45,0,0
47288,-100,4,2,1,55,0,0
48146,-100,4,2,1,65,0,0
48431,-100,4,2,1,35,0,0
48574,-100,4,2,1,65,0,0
48860,-100,4,2,1,55,0,0
49003,-100,4,2,1,65,0,0
49288,-100,4,2,1,45,0,0
49431,-100,4,2,1,65,0,0
49717,-100,4,2,1,45,0,0
49860,-100,4,2,1,65,0,0
50146,-100,4,2,1,35,0,0
50288,-100,4,2,1,65,0,0
50574,-100,4,2,1,55,0,0
50717,-100,4,2,1,65,0,0
51003,-100,4,2,1,45,0,0
51146,-100,4,2,1,65,0,0
51574,-100,4,2,1,65,0,0
51860,-100,4,2,1,35,0,0
52003,-100,4,2,1,65,0,0
52288,-100,4,2,1,55,0,0
52431,-100,4,2,1,65,0,0
52717,-100,4,2,1,45,0,0
52860,-100,4,2,1,65,0,0
53146,-100,4,2,1,45,0,0
53288,-100,4,2,1,65,0,0
53574,-100,4,2,1,35,0,0
53717,-100,4,2,1,65,0,0
54003,-100,4,2,1,55,0,0
54146,-100,4,2,1,65,0,0
54574,-100,4,2,1,65,0,0
54860,-100,4,2,1,45,0,0
55003,-100,4,2,1,65,0,0
55288,-100,4,2,1,35,0,0
55431,-100,4,2,1,65,0,0
55717,-100,4,2,1,55,0,0
55860,-100,4,2,1,65,0,0
56146,-100,4,2,1,45,0,0
56288,-100,4,2,1,65,0,0
56574,-100,4,2,1,45,0,0
56717,-100,4,2,1,65,0,0
57003,-100,4,2,1,35,0,0
57146,-100,4,2,1,65,0,0
57431,-100,4,2,1,55,0,0
57574,-100,4,2,1,45,0,0
58431,-100,4,2,1,70,0,0
58574,-100,4,2,1,65,0,0
58717,-100,4,2,1,50,0,0
58860,-100,4,2,1,70,0,0
59003,-100,4,2,1,65,0,0
59146,-100,4,2,1,50,0,0
59288,-100,4,2,1,70,0,0
59431,-100,4,2,1,65,0,0
59574,-100,4,2,1,50,0,0
59717,-100,4,2,1,70,0,0
59860,-100,4,2,1,65,0,0
60003,-100,4,2,1,50,0,0
60146,-100,4,2,1,65,0,0
60431,-100,4,2,1,45,0,0
60574,-100,4,2,1,65,0,0
61003,-100,4,2,1,65,0,0
61288,-100,4,2,1,45,0,0
61431,-100,4,2,1,65,0,0
61860,-100,4,2,1,45,0,0
62146,-100,4,2,1,25,0,0
62574,-100,4,2,1,35,0,0
63574,-100,4,2,1,40,0,0
63860,-100,4,2,1,25,0,0
64288,-100,4,2,1,35,0,0
65288,-100,4,2,1,40,0,0
65717,-100,4,2,1,35,0,0
67003,-100,4,2,1,40,0,0
67431,-100,4,2,1,35,0,0
68717,-100,4,2,1,40,0,0
69003,-100,4,2,1,25,0,0
69431,-100,4,2,1,35,0,0
70431,-100,4,2,1,40,0,0
70717,-100,4,2,1,25,0,0
71146,-100,4,2,1,35,0,0
72146,-100,4,2,1,40,0,0
72574,-100,4,2,1,35,0,0
73860,-100,4,2,1,40,0,0
74288,-100,4,2,1,35,0,0
75574,-100,4,2,1,55,0,0
75860,-100,4,2,1,55,0,0
76003,-100,4,2,1,65,0,0
76288,-100,4,2,1,55,0,0
76431,-100,4,2,1,60,0,0
76717,-100,4,2,1,50,0,0
76860,-100,4,2,1,40,0,0
77146,-100,4,2,1,45,0,0
77288,-100,4,2,1,55,0,0
77717,-100,4,2,1,65,0,0
78003,-100,4,2,1,55,0,0
78146,-100,4,2,1,60,0,0
78431,-100,4,2,1,60,0,0
78574,-100,4,2,1,45,0,0
78860,-100,4,2,1,40,0,0
79003,-100,4,2,1,55,0,0
79431,-100,4,2,1,65,0,0
79717,-100,4,2,1,55,0,0
79860,-100,4,2,1,60,0,0
80146,-100,4,2,1,45,0,0
80288,-100,4,2,1,40,0,0
80574,-100,4,2,1,60,0,0
80717,-100,4,2,1,55,0,0
81003,-100,4,2,1,65,0,0
81146,-100,4,2,1,60,0,0
81431,-100,4,2,1,55,0,0
81574,-100,4,2,1,45,0,0
81860,-100,4,2,1,55,0,0
82003,-100,4,2,1,45,0,0
82431,-100,4,2,1,55,0,0
82860,-100,4,2,1,65,0,0
83146,-100,4,2,1,45,0,0
83288,-100,4,2,1,50,0,0
83574,-100,4,2,1,55,0,0
83717,-100,4,2,1,45,0,0
84003,-100,4,2,1,45,0,0
84146,-100,4,2,1,55,0,0
84574,-100,4,2,1,65,0,0
84860,-100,4,2,1,55,0,0
85003,-100,4,2,1,55,0,0
85431,-100,4,2,1,45,0,0
85717,-100,4,2,1,35,0,0
85860,-100,4,2,1,55,0,0
86146,-100,4,2,1,45,0,0
86288,-100,4,2,1,65,0,0
86431,-100,4,2,1,45,0,0
86717,-100,4,2,1,55,0,0
87003,-100,4,2,1,45,0,0
87146,-100,4,2,1,65,0,0
87431,-100,4,2,1,45,0,0
87574,-100,4,2,1,55,0,0
87860,-100,4,2,1,55,0,0
88003,-100,4,2,1,65,0,0
88288,-100,4,2,1,55,0,0
88431,-100,4,2,1,45,0,0
88717,-100,4,2,1,55,0,0
88860,-100,4,2,1,65,0,0
89146,-100,4,2,1,55,0,0
89288,-100,4,2,1,55,0,0
89717,-100,4,2,1,65,0,0
90003,-100,4,2,1,55,0,0
90146,-100,4,2,1,50,0,0
90574,-100,4,2,1,65,0,0
90860,-100,4,2,1,45,0,0
91003,-100,4,2,1,55,0,0
91288,-100,4,2,1,55,0,0
91431,-100,4,2,1,65,0,0
91860,-100,4,2,1,50,0,0
92288,-100,4,2,1,65,0,0
92574,-100,4,2,1,45,0,0
92717,-100,4,2,1,55,0,0
93146,-100,4,2,1,65,0,0
93431,-100,4,2,1,55,0,0
93574,-100,4,2,1,55,0,0
94003,-100,4,2,1,65,0,0
94288,-100,4,2,1,45,0,0
94431,-100,4,2,1,55,0,0
94860,-100,4,2,1,65,0,0
95288,-100,4,2,1,55,0,0
95574,-100,4,2,1,45,0,0
95717,-100,4,2,1,65,0,0
96146,-100,4,2,1,55,0,0
96574,-100,4,2,1,65,0,0
96860,-100,4,2,1,55,0,0
97003,-100,4,2,1,55,0,0
97431,-100,4,2,1,65,0,0
97717,-100,4,2,1,45,0,0
97860,-100,4,2,1,55,0,0
98288,-100,4,2,1,65,0,0
98717,-100,4,2,1,55,0,0
99146,-100,4,2,1,65,0,0
99431,-100,4,2,1,45,0,0
99574,-100,4,2,1,55,0,0
100003,-100,4,2,1,65,0,0
100288,-100,4,2,1,55,0,0
100431,-100,4,2,1,55,0,0
100860,-100,4,2,1,65,0,0
101146,-100,4,2,1,45,0,0
101288,-100,4,2,1,55,0,0
101717,-100,4,2,1,65,0,0
102146,-100,4,2,1,55,0,0
102431,-100,4,2,1,45,0,0
102574,-100,4,2,1,65,0,0
103003,-100,4,2,1,55,0,0
103431,-100,4,2,1,65,0,0
103717,-100,4,2,1,55,0,0
103860,-100,4,2,1,55,0,0
104288,-100,4,2,1,65,0,0
104574,-100,4,2,1,45,0,0
104717,-100,4,2,1,55,0,0
105146,-100,4,2,1,65,0,0
105431,-100,4,2,1,55,0,0
105574,-100,4,2,1,55,0,0
105860,-100,4,2,1,45,0,0
106003,-100,4,2,1,65,0,0
106288,-100,4,2,1,45,0,0
106431,-100,4,2,1,55,0,0
106860,-100,4,2,1,65,0,0
107146,-100,4,2,1,55,0,0
107288,-100,4,2,1,55,0,0
107717,-100,4,2,1,65,0,0
108003,-100,4,2,1,45,0,0
108146,-100,4,2,1,55,0,0
108431,-100,4,2,1,55,0,0
108574,-100,4,2,1,65,0,0
108860,-100,4,2,1,55,0,0
109003,-100,4,2,1,55,0,0
109288,-100,4,2,1,45,0,0
109431,-100,4,2,1,55,0,0
109860,-100,4,2,1,65,0,0
110717,-100,4,2,1,50,0,0
111003,-100,4,2,1,65,0,0
111574,-100,4,2,1,45,0,0
111860,-100,4,2,1,65,0,0
112431,-100,4,2,1,35,0,0
115288,-100,4,2,1,45,0,0
115431,-100,4,2,1,55,0,0
115574,-100,4,2,1,65,0,0
115717,-100,4,2,1,55,0,0
115860,-100,4,2,1,55,0,0
116003,-100,4,2,1,55,0,0
116146,-100,4,2,1,65,0,0
116288,-100,4,2,1,55,0,0
116431,-100,4,2,1,55,0,0
116574,-100,4,2,1,65,0,0
116717,-100,4,2,1,60,0,0

[Colours]
Combo1 : 179,149,255
Combo2 : 255,244,108
Combo3 : 62,173,255
Combo4 : 70,255,135
Combo5 : 244,117,255
Combo6 : 224,224,224
Combo7 : 255,138,138

[HitObjects]
72,144,146,5,2,1:2:0:0:
116,56,574,2,0,P|152:84|164:124,1,66.6666666666667,2|10,0:2|1:2,0:2:0:0:
168,136,1003,2,0,L|280:140,1,100,2|2,0:2|0:2,0:2:0:0:
320,56,1860,1,2,0:2:0:0:
368,144,2288,2,0,P|355:195|303:231,1,100,2|2,0:2|0:2,0:2:0:0:
220,224,3146,1,2,1:2:0:0:
272,312,3574,5,2,1:2:0:0:
372,316,4003,2,0,P|408:292|428:256,1,66.6666666666667,2|10,0:2|1:2,0:2:0:0:
452,280,4431,2,0,L|460:172,1,100,2|2,0:2|0:2,0:2:0:0:
368,144,5288,2,0,L|375:44,1,100,2|2,0:2|0:2,0:2:0:0:
284,88,6146,6,0,P|232:112|184:104,2,100,2|2|2,0:2|1:2|1:2,0:2:0:0:
220,12,7431,2,0,P|180:8|136:28,1,66.6666666666667,2|10,0:2|1:2,0:2:0:0:
128,32,7860,2,0,P|96:68|92:120,1,100,2|2,0:2|0:2,0:2:0:0:
160,192,8717,1,2,1:2:0:0:
112,280,9146,2,0,P|156:296|188:288,1,66.6666666666667,2|10,0:2|1:2,0:2:0:0:
208,284,9574,2,0,B|260:284|260:284|320:308,1,100,2|2,0:2|1:2,0:2:0:0:
396,344,10431,5,2,1:2:0:0:
416,244,10860,2,0,L|355:216,1,66.6666666666667,2|10,0:2|1:2,0:2:0:0:
320,220,11288,2,0,P|328:176|296:120,1,100,2|2,0:2|0:2,0:2:0:0:
224,188,12146,1,2,1:2:0:0:
216,88,12574,2,0,P|248:48|284:36,1,66.6666666666667,2|10,0:2|1:2,0:2:0:0:
292,32,13003,6,0,P|340:40|412:24,2,100,2|2|2,0:2|0:2|1:2,0:2:0:0:
216,88,14288,2,0,P|176:92|144:88,1,66.6666666666667,2|10,0:2|1:2,0:2:0:0:
120,76,14717,2,0,L|84:172,2,100,2|2|2,0:2|0:2|1:2,0:2:0:0:
24,96,16003,2,0,L|-8:176,1,66.6666666666667,2|10,0:2|1:2,0:2:0:0:
0,192,16431,2,0,P|20:228|84:252,1,100,2|2,0:2|1:2,0:2:0:0:
176,246,17288,5,2,1:2:0:0:
248,176,17717,2,0,P|272:216|268:264,1,66.6666666666667,2|10,0:2|1:2,0:2:0:0:
272,268,18146,2,0,P|320:260|372:280,2,100,2|2|2,0:2|0:2|1:2,0:2:0:0:
312,360,19431,2,0,P|344:376|388:372,1,66.6666666666667,2|10,0:2|1:2,0:2:0:0:
408,368,19860,2,0,P|452:328|456:264,1,100,2|2,0:2|1:2,0:2:0:0:
428,196,20717,6,0,B|405:163|431:118|431:118|451:72|424:32,1,166.666666666667,2|10,1:2|1:2,0:2:0:0:
402,17,21574,1,2,0:2:0:0:
320,72,22003,1,2,0:2:0:0:
232,24,22431,6,0,B|211:75|228:112|228:112|144:136,1,166.666666666667,2|10,0:2|1:2,0:2:0:0:
124,140,23288,1,2,0:2:0:0:
176,224,23717,1,2,0:2:0:0:
76,228,24146,6,0,P|100:288|196:324,1,166.666666666667,2|10,0:2|1:2,0:2:0:0:
224,316,25003,1,2,0:2:0:0:
176,224,25431,1,2,0:2:0:0:
276,228,25860,5,2,0:2:0:0:
332,148,26288,2,0,P|360:176|368:208,1,66.6666666666667,10|10,0:2|1:2,0:2:0:0:
372,236,26717,1,2,0:2:0:0:
320,320,27146,5,2,0:2:0:0:
276,228,27574,2,0,P|240:188|264:80,1,166.666666666667,2|10,0:2|1:2,0:2:0:0:
240,56,28431,2,0,L|348:44,1,100,2|2,0:2|0:2,0:2:0:0:
332,148,29288,6,0,L|156:168,1,166.666666666667,2|10,0:2|1:2,0:2:0:0:
132,172,30146,1,2,1:2:0:0:
88,264,30574,1,2,1:2:0:0:
188,260,31003,5,10,0:2:0:0:
144,348,31431,2,0,P|96:364|32:348,2,100,10|10|10,0:2|0:2|0:2,0:2:0:0:
244,344,32717,1,10,0:2:0:0:
292,256,33146,1,2,1:2:0:0:
244,168,33574,6,0,P|284:156|344:168,2,100,2|2|2,0:2|0:2|1:2,0:2:0:0:
164,228,34860,2,0,P|144:176|152:140,1,66.6666666666667,2|10,0:2|1:2,0:2:0:0:
152,132,35288,2,0,L|204:36,2,100,2|2|2,0:2|0:2|1:2,0:2:0:0:
244,168,36574,2,0,L|288:228,1,66.6666666666667,2|10,0:2|1:2,0:2:0:0:
304,248,37003,2,0,P|364:236|408:248,1,100,2|2,0:2|0:2,0:2:0:0:
356,336,37860,5,2,1:2:0:0:
256,332,38288,2,0,P|220:328|184:332,1,66.6666666666667,2|10,0:2|1:2,0:2:0:0:
156,340,38717,2,0,B|144:324|156:292|156:292|168:256|152:232,1,100,2|2,0:2|0:2,0:2:0:0:
108,156,39574,1,2,0:2:0:0:
44,80,40003,2,0,P|76:64|120:60,1,66.6666666666667,2|10,0:2|1:2,0:2:0:0:
140,64,40431,6,0,L|252:68,2,100,2|2|2,0:2|0:2|1:2,0:2:0:0:
196,148,41717,2,0,L|284:152,1,66.6666666666667,2|10,0:2|1:2,0:2:0:0:
292,172,42146,2,0,P|344:164|400:192,2,100,2|2|2,0:2|0:2|1:2,0:2:0:0:
332,264,43431,2,0,P|359:278|400:280,1,66.6666666666667,2|10,0:2|1:2,0:2:0:0:
428,276,43860,2,0,P|471:239|483:190,1,100,2|2,0:2|0:2,0:2:0:0:
387,180,44717,5,2,1:2:0:0:
432,92,45146,2,0,P|392:80|348:92,1,66.6666666666667,2|10,0:2|1:2,0:2:0:0:
336,76,45574,2,0,P|296:88|236:76,1,100,2|2,0:2|0:2,0:2:0:0:
152,32,46431,1,2,0:2:0:0:
104,120,46860,2,0,P|55:109|20:120,1,66.6666666666667,2|10,0:2|1:2,0:2:0:0:
8,124,47288,2,0,L|4:232,1,100,2|2,0:2|1:2,0:2:0:0:
104,212,48146,6,0,B|160:208|186:161|186:161|256:180,1,166.666666666667,2|10,0:2|1:2,0:2:0:0:
280,188,49003,1,2,0:2:0:0:
364,244,49431,1,2,0:2:0:0:
388,340,49860,2,0,P|428:320|456:204,1,166.666666666667,2|10,0:2|1:2,0:2:0:0:
440,180,50717,2,0,B|424:156|392:148|392:148|364:104,1,100,2|2,0:2|0:2,0:2:0:0:
308,36,51574,5,2,0:2:0:0:
208,20,52003,2,0,P|208:56|224:92,1,66.6666666666667,2|10,0:2|1:2,0:2:0:0:
236,112,52431,2,0,L|152:176,2,100,2|2|2,0:2|0:2|0:2,0:2:0:0:
252,212,53717,2,0,L|184:264,1,66.6666666666667,10|10,0:2|1:2,0:2:0:0:
172,272,54146,1,10,0:2:0:0:
264,312,54574,1,2,0:2:0:0:
344,252,55003,6,0,B|360:204|336:160|336:160|400:124,1,166.666666666667,2|10,0:2|1:2,0:2:0:0:
428,112,55860,1,2,0:2:0:0:
460,208,56288,1,2,0:2:0:0:
432,304,56717,2,0,P|388:344|276:324,1,166.666666666667,2|10,0:2|1:2,0:2:0:0:
264,312,57574,1,2,1:2:0:0:
252,212,58003,1,2,1:2:0:0:
172,272,58431,5,10,0:2:0:0:
80,308,58860,1,10,0:2:0:0:
96,208,59288,1,10,0:2:0:0:
172,144,59717,1,10,0:2:0:0:
220,56,60146,6,0,P|176:44|128:56,1,66.6666666666667,2|10,1:2|0:2,0:2:0:0:
124,57,60574,1,2,1:2:0:0:
172,144,61003,1,2,0:2:0:0:
272,144,61431,1,2,0:2:0:0:
320,57,61860,5,2,1:2:0:0:
220,228,62717,1,2,0:2:0:0:
428,224,63574,1,2,1:2:0:0:
320,57,64431,1,2,0:2:0:0:
320,156,64860,1,2,0:2:0:0:
320,256,65288,5,2,1:2:0:0:
232,204,65717,1,2,0:2:0:0:
144,160,66146,1,2,0:2:0:0:
144,260,66574,1,2,0:2:0:0:
232,304,67003,5,2,1:2:0:0:
232,204,67431,1,2,0:2:0:0:
232,104,67860,1,2,0:2:0:0:
60,208,68717,5,2,1:2:0:0:
232,304,69574,1,2,0:2:0:0:
408,208,70431,1,2,1:2:0:0:
232,104,71288,1,2,0:2:0:0:
184,192,71717,1,2,0:2:0:0:
284,192,72146,5,2,1:2:0:0:
328,104,72574,1,2,0:2:0:0:
284,16,73003,1,2,0:2:0:0:
184,16,73431,1,2,0:2:0:0:
136,104,73860,5,2,1:2:0:0:
232,104,74288,1,2,0:2:0:0:
328,104,74717,1,2,0:2:0:0:
328,104,75574,5,2,1:2:0:0:
420,68,76003,2,0,P|428:108|420:132,1,66.6666666666667,2|10,0:2|1:2,0:2:0:0:
404,160,76431,2,0,P|392:212|404:264,1,100,2|2,0:2|1:2,0:2:0:0:
324,320,77288,1,2,1:2:0:0:
232,356,77717,2,0,P|224:320|232:288,1,66.6666666666667,2|10,0:2|1:2,0:2:0:0:
248,264,78146,2,0,P|260:212|248:160,1,100,2|0,0:2|1:2,0:2:0:0:
164,216,79003,5,2,1:2:0:0:
76,264,79431,2,0,P|67:215|76:184,1,66.6666666666667,2|10,0:2|1:2,0:2:0:0:
80,168,79860,2,0,B|99:137|136:124|136:124|148:76,1,100,2|2,0:2|1:2,0:2:0:0:
216,28,80717,1,2,1:2:0:0:
276,108,81146,2,0,P|292:144|328:168,1,66.6666666666667,2|10,0:2|1:2,0:2:0:0:
344,172,81574,1,2,0:2:0:0:
368,76,82003,1,2,1:2:0:0:
440,144,82431,5,2,1:2:0:0:
424,244,82860,2,0,P|392:272|364:280,1,66.6666666666667,2|10,0:2|1:2,0:2:0:0:
380,312,83288,2,0,L|272:308,1,100,2|2,0:2|1:2,0:2:0:0:
200,248,84146,1,2,1:2:0:0:
124,184,84574,2,0,L|40:188,1,66.6666666666667,2|10,0:2|1:2,0:2:0:0:
24,188,85003,1,2,0:2:0:0:
68,100,85431,1,2,1:2:0:0:
168,92,85860,5,2,1:2:0:0:
256,44,86288,2,0,P|268:92|252:144,1,100,10|2,0:2|1:2,0:2:0:0:
352,108,87146,2,0,P|338:155|350:203,1,100,10|2,0:2|1:2,0:2:0:0:
440,156,88003,1,10,0:2:0:0:
352,108,88431,1,2,1:2:0:0:
257,140,88860,1,10,0:2:0:0:
240,240,89288,6,0,P|196:224|164:168,1,100,2|2,1:2|0:2,0:2:0:0:
172,80,90146,1,2,1:2:0:0:
257,140,90574,1,2,0:2:0:0:
336,204,91003,6,0,P|344:248|308:312,1,100,2|2,1:2|0:2,0:2:0:0:
232,336,91860,2,0,L|112:320,1,100,2|2,1:2|0:2,0:2:0:0:
140,226,92717,6,0,L|239:239,1,100,2|2,1:2|0:2,0:2:0:0:
336,204,93574,1,2,1:2:0:0:
352,104,94003,2,0,P|392:120|432:168,1,100,2|2,0:2|1:2,0:2:0:0:
420,260,94860,5,2,0:2:0:0:
408,360,95288,2,0,P|347:331|324:288,1,100,2|2,1:2|0:2,0:2:0:0:
336,204,96146,5,2,1:2:0:0:
257,140,96574,2,0,P|249:96|277:36,1,100,2|2,0:2|1:2,0:2:0:0:
172,68,97431,2,0,B|140:64|140:64|100:72|100:72|72:68,1,100,2|2,0:2|1:2,0:2:0:0:
16,152,98288,6,0,L|122:167,1,100,2|2,0:2|1:2,0:2:0:0:
200,220,99146,1,2,0:2:0:0:
257,140,99574,6,0,P|288:176|296:232,1,100,2|2,1:2|0:2,0:2:0:0:
240,308,100431,2,0,L|141:293,1,100,2|2,1:2|0:2,0:2:0:0:
56,244,101288,5,2,1:2:0:0:
114,166,101717,1,2,0:2:0:0:
200,220,102146,1,2,1:2:0:0:
257,140,102574,1,2,0:2:0:0:
340,196,103003,6,0,P|356:140|340:84,1,100,2|2,1:2|0:2,0:2:0:0:
424,32,103860,2,0,L|472:120,1,100,2|2,1:2|0:2,0:2:0:0:
440,216,104717,1,2,1:2:0:0:
340,196,105146,1,2,0:2:0:0:
257,140,105574,2,0,P|240:192|256:248,1,100,2|2,1:2|0:2,0:2:0:0:
328,296,106431,6,0,P|292:328|236:332,2,100,2|2|2,1:2|0:2|1:2,0:2:0:0:
340,196,107717,1,2,0:2:0:0:
257,140,108146,1,2,1:2:0:0:
208,52,108574,2,0,P|260:40|308:52,1,100,2|2,0:2|1:2,0:2:0:0:
388,108,109431,1,2,0:2:0:0:
435,194,109860,6,0,P|387:206|339:195,1,100,6|2,1:2|0:2,0:2:0:0:
280,228,110574,6,0,B|248:216|212:228|212:228|180:244|132:228,1,133.333333333333,6|2,1:2|0:2,0:2:0:0:
108,284,111431,6,0,P|59:271|11:282,1,100,6|2,1:2|0:2,0:2:0:0:
8,248,112003,2,0,L|21:182,1,66.6666666666667,2|6,0:2|1:2,0:2:0:0:
256,192,112574,12,0,114574,0:2:0:0:
228,124,115431,5,2,1:2:0:0:
322,159,115860,1,2,1:2:0:0:
286,254,116288,1,2,1:2:0:0:
191,217,116717,1,6,1:2:0:0:
