osu file format v14

[General]
AudioFilename: Post.mp3
AudioLeadIn: 2000
PreviewTime: 6003
Countdown: 0
SampleSet: Soft
StackLeniency: 0.6
Mode: 0
LetterboxInBreaks: 0
WidescreenStoryboard: 0

[Editor]
Bookmarks: 116717
DistanceSpacing: 1.2
BeatDivisor: 3
GridSize: 4
TimelineZoom: 1

[Metadata]
Title:Yotteoide! Shukubamachi!
TitleUnicode:よっておいで! 宿場町!
Artist:Keisuke Ito, Yasuhiro Kawagoe
ArtistUnicode:いとうけいすけ、川越康弘
Creator:CrystilonZ
Version:Insane
Source:ポケモン不思議のダンジョン マグナゲートと∞迷宮
Tags:Pokémon Pokemon Mystery Dungeon Fushigi Magnagate to Mugendai Meikyu Gates to Infinity and the Infinite Labyrinth Come on in to Post Town
BeatmapID:704094
BeatmapSetID:315899

[Difficulty]
HPDrainRate:7
CircleSize:4
OverallDifficulty:6
ApproachRate:7.5
SliderMultiplier:1.5
SliderTickRate:1

[Events]
//Background and Video events
0,0,"PMD.jpg",0,0
//Break Periods
//Storyboard Layer 0 (Background)
//Storyboard Layer 1 (Fail)
//Storyboard Layer 2 (Pass)
//Storyboard Layer 3 (Foreground)
//Storyboard Sound Samples

[TimingPoints]
146,428.571428571429,4,2,1,40,1,0
574,-100,4,2,1,62,0,0
860,-100,4,2,1,52,0,0
1288,-100,4,2,1,40,0,0
1431,-100,4,2,1,30,0,0
1717,-100,4,2,1,40,0,0
1860,-100,4,2,1,52,0,0
2146,-100,4,2,1,40,0,0
2288,-100,4,2,1,62,0,0
2717,-100,4,2,1,52,0,0
3146,-100,4,2,1,52,0,0
3574,-100,4,2,1,40,0,0
4003,-100,4,2,1,70,0,0
4288,-100,4,2,1,52,0,0
4717,-100,4,2,1,40,0,0
4860,-100,4,2,1,30,0,0
5146,-100,4,2,1,40,0,0
5288,-100,4,2,1,52,0,0
5574,-100,4,2,1,40,0,0
5717,-100,4,2,1,55,0,0
6146,-100,4,2,1,55,0,0
6431,-100,4,2,1,50,0,0
6574,-100,4,2,1,55,0,0
6860,-100,4,2,1,50,0,0
7003,-100,4,2,1,55,0,0
7288,-100,4,2,1,55,0,0
7431,-100,4,2,1,65,0,0
7717,-100,4,2,1,55,0,0
7860,-100,4,2,1,55,0,0
8146,-100,4,2,1,50,0,0
8288,-100,4,2,1,65,0,0
8574,-100,4,2,1,50,0,0
8717,-100,4,2,1,55,0,0
9003,-100,4,2,1,55,0,0
9146,-100,4,2,1,65,0,0
9431,-100,4,2,1,55,0,0
10003,-100,4,2,1,57,0,0
10431,-100,4,2,1,55,0,0
10717,-100,4,2,1,55,0,0
10860,-100,4,2,1,65,0,0
11146,-100,4,2,1,55,0,0
11288,-100,4,2,1,50,0,0
11717,-100,4,2,1,65,0,0
12146,-100,4,2,1,50,0,0
12431,-100,4,2,1,55,0,0
12574,-100,4,2,1,65,0,0
12860,-100,4,2,1,55,0,0
13003,-100,4,2,1,55,0,0
13288,-100,4,2,1,45,0,0
13431,-100,4,2,1,65,0,0
13717,-100,4,2,1,45,0,0
13860,-100,4,2,1,55,0,0
14288,-100,4,2,1,65,0,0
14574,-100,4,2,1,55,0,0
14717,-100,4,2,1,55,0,0
15003,-100,4,2,1,45,0,0
15146,-100,4,2,1,65,0,0
15431,-100,4,2,1,45,0,0
15574,-100,4,2,1,55,0,0
15860,-100,4,2,1,45,0,0
16003,-100,4,2,1,65,0,0
16288,-100,4,2,1,55,0,0
16860,-100,4,2,1,45,0,0
17288,-100,4,2,1,55,0,0
17574,-100,4,2,1,45,0,0
17717,-100,4,2,1,65,0,0
18003,-100,4,2,1,55,0,0
18574,-100,4,2,1,65,0,0
19003,-100,4,2,1,55,0,0
19288,-100,4,2,1,45,0,0
19431,-100,4,2,1,65,0,0
19717,-100,4,2,1,55,0,0
20288,-100,4,2,1,55,0,0
20717,-100,4,2,1,65,0,0
21003,-100,4,2,1,35,0,0
21146,-100,4,2,1,65,0,0
21431,-100,4,2,1,57,0,0
21574,-100,4,2,1,65,0,0
21860,-100,4,2,1,45,0,0
22003,-100,4,2,1,65,0,0
22288,-100,4,2,1,45,0,0
22431,-100,4,2,1,65,0,0
22717,-100,4,2,1,35,0,0
22860,-100,4,2,1,65,0,0
23146,-100,4,2,1,57,0,0
23288,-100,4,2,1,65,0,0
23574,-100,4,2,1,45,0,0
23717,-100,4,2,1,65,0,0
24431,-100,4,2,1,35,0,0
24574,-100,4,2,1,65,0,0
24860,-100,4,2,1,57,0,0
25003,-100,4,2,1,65,0,0
25288,-100,4,2,1,45,0,0
25431,-100,4,2,1,65,0,0
25717,-100,4,2,1,45,0,0
25860,-100,4,2,1,65,0,0
26146,-100,4,2,1,35,0,0
26288,-100,4,2,1,65,0,0
26574,-100,4,2,1,57,0,0
26717,-100,4,2,1,45,0,0
27146,-100,4,2,1,65,0,0
27431,-100,4,2,1,45,0,0
27574,-100,4,2,1,65,0,0
27860,-100,4,2,1,35,0,0
28003,-100,4,2,1,65,0,0
28288,-100,4,2,1,57,0,0
28431,-100,4,2,1,65,0,0
28717,-100,4,2,1,45,0,0
28860,-100,4,2,1,65,0,0
29146,-100,4,2,1,45,0,0
29288,-100,4,2,1,65,0,0
29574,-100,4,2,1,35,0,0
29717,-100,4,2,1,65,0,0
30003,-100,4,2,1,55,0,0
30146,-100,4,2,1,45,0,0
31003,-100,4,2,1,75,0,0
31288,-100,4,2,1,45,0,0
31431,-100,4,2,1,65,0,0
31717,-100,4,2,1,45,0,0
31860,-100,4,2,1,65,0,0
32146,-100,4,2,1,45,0,0
32288,-100,4,2,1,65,0,0
32574,-100,4,2,1,45,0,0
32717,-100,4,2,1,65,0,0
33003,-100,4,2,1,57,0,0
33146,-100,4,2,1,65,0,0
33574,-100,4,2,1,55,0,0
33860,-100,4,2,1,45,0,0
34003,-100,4,2,1,55,0,0
34288,-100,4,2,1,45,0,0
34431,-100,4,2,1,55,0,0
34717,-100,4,2,1,55,0,0
34860,-100,4,2,1,65,0,0
35146,-100,4,2,1,55,0,0
35574,-100,4,2,1,45,0,0
35717,-100,4,2,1,65,0,0
36003,-100,4,2,1,45,0,0
36146,-100,4,2,1,55,0,0
36431,-100,4,2,1,55,0,0
36574,-100,4,2,1,65,0,0
36860,-100,4,2,1,55,0,0
37431,-100,4,2,1,65,0,0
37860,-100,4,2,1,55,0,0
38146,-100,4,2,1,55,0,0
38288,-100,4,2,1,65,0,0
38574,-100,4,2,1,55,0,0
39003,-100,4,2,1,45,0,0
39146,-100,4,2,1,65,0,0
39431,-100,4,2,1,45,0,0
39574,-100,4,2,1,55,0,0
39860,-100,4,2,1,45,0,0
40003,-100,4,2,1,65,0,0
40288,-100,4,2,1,55,0,0
40431,-100,4,2,1,65,0,0
40717,-100,4,2,1,45,0,0
40860,-100,4,2,1,65,0,0
41146,-100,4,2,1,45,0,0
41288,-100,4,2,1,55,0,0
41717,-100,4,2,1,65,0,0
42003,-100,4,2,1,55,0,0
42431,-100,4,2,1,45,0,0
42574,-100,4,2,1,65,0,0
42860,-100,4,2,1,45,0,0
43003,-100,4,2,1,55,0,0
43431,-100,4,2,1,65,0,0
43717,-100,4,2,1,55,0,0
44288,-100,4,2,1,65,0,0
44717,-100,4,2,1,55,0,0
45146,-100,4,2,1,65,0,0
45431,-100,4,2,1,55,0,0
45860,-100,4,2,1,45,0,0
46003,-100,4,2,1,65,0,0
46288,-100,4,2,1,45,0,0
46431,-100,4,2,1,55,0,0
46860,-100,4,2,1,65,0,0
47146,-100,4,2,1,45,0,0
47288,-100,4,2,1,55,0,0
48146,-100,4,2,1,65,0,0
48431,-100,4,2,1,35,0,0
48574,-100,4,2,1,65,0,0
48860,-100,4,2,1,55,0,0
49003,-100,4,2,1,65,0,0
49288,-100,4,2,1,45,0,0
49431,-100,4,2,1,65,0,0
49717,-100,4,2,1,45,0,0
49860,-100,4,2,1,65,0,0
50146,-100,4,2,1,35,0,0
50288,-100,4,2,1,65,0,0
50574,-100,4,2,1,55,0,0
50717,-100,4,2,1,65,0,0
51003,-100,4,2,1,45,0,0
51146,-100,4,2,1,65,0,0
51574,-100,4,2,1,65,0,0
51860,-100,4,2,1,35,0,0
52003,-100,4,2,1,65,0,0
52288,-100,4,2,1,55,0,0
52431,-100,4,2,1,65,0,0
52717,-100,4,2,1,45,0,0
52860,-100,4,2,1,65,0,0
53146,-100,4,2,1,45,0,0
53288,-100,4,2,1,65,0,0
53574,-100,4,2,1,35,0,0
53717,-100,4,2,1,65,0,0
54003,-100,4,2,1,55,0,0
54146,-100,4,2,1,65,0,0
54574,-100,4,2,1,65,0,0
54860,-100,4,2,1,45,0,0
55003,-100,4,2,1,65,0,0
55288,-100,4,2,1,35,0,0
55431,-100,4,2,1,65,0,0
55717,-100,4,2,1,55,0,0
55860,-100,4,2,1,65,0,0
56146,-100,4,2,1,45,0,0
56288,-100,4,2,1,65,0,0
56574,-100,4,2,1,45,0,0
56717,-100,4,2,1,65,0,0
57003,-100,4,2,1,35,0,0
57146,-100,4,2,1,65,0,0
57431,-100,4,2,1,55,0,0
57574,-100,4,2,1,45,0,0
58431,-100,4,2,1,70,0,0
58574,-100,4,2,1,65,0,0
58717,-100,4,2,1,50,0,0
58860,-100,4,2,1,70,0,0
59003,-100,4,2,1,65,0,0
59146,-100,4,2,1,50,0,0
59288,-100,4,2,1,70,0,0
59431,-100,4,2,1,65,0,0
59574,-100,4,2,1,50,0,0
59717,-100,4,2,1,70,0,0
59860,-100,4,2,1,65,0,0
60003,-100,4,2,1,50,0,0
60146,-100,4,2,1,65,0,0
60431,-100,4,2,1,45,0,0
60574,-100,4,2,1,65,0,0
61003,-100,4,2,1,65,0,0
61288,-100,4,2,1,45,0,0
61431,-100,4,2,1,65,0,0
61860,-133.333333333333,4,2,1,45,0,0
62146,-133.333333333333,4,2,1,25,0,0
62574,-133.333333333333,4,2,1,35,0,0
63574,-133.333333333333,4,2,1,40,0,0
63860,-133.333333333333,4,2,1,25,0,0
64288,-133.333333333333,4,2,1,35,0,0
65288,-133.333333333333,4,2,1,40,0,0
65717,-133.333333333333,4,2,1,35,0,0
67003,-133.333333333333,4,2,1,40,0,0
67431,-133.333333333333,4,2,1,35,0,0
68717,-133.333333333333,4,2,1,40,0,0
69003,-133.333333333333,4,2,1,25,0,0
69431,-133.333333333333,4,2,1,35,0,0
70431,-133.333333333333,4,2,1,40,0,0
70717,-133.333333333333,4,2,1,25,0,0
71146,-133.333333333333,4,2,1,35,0,0
72146,-133.333333333333,4,2,1,40,0,0
72574,-133.333333333333,4,2,1,35,0,0
73860,-133.333333333333,4,2,1,40,0,0
74288,-133.333333333333,4,2,1,35,0,0
75574,-100,4,2,1,55,0,0
75860,-100,4,2,1,55,0,0
76003,-100,4,2,1,65,0,0
76288,-100,4,2,1,55,0,0
76431,-100,4,2,1,60,0,0
76717,-100,4,2,1,50,0,0
76860,-100,4,2,1,40,0,0
77146,-100,4,2,1,45,0,0
77288,-100,4,2,1,55,0,0
77717,-100,4,2,1,65,0,0
78003,-100,4,2,1,55,0,0
78146,-100,4,2,1,60,0,0
78431,-100,4,2,1,60,0,0
78574,-100,4,2,1,45,0,0
78860,-100,4,2,1,40,0,0
79003,-100,4,2,1,55,0,0
79431,-100,4,2,1,65,0,0
79717,-100,4,2,1,55,0,0
79860,-100,4,2,1,60,0,0
80146,-100,4,2,1,45,0,0
80288,-100,4,2,1,40,0,0
80574,-100,4,2,1,60,0,0
80717,-100,4,2,1,55,0,0
81003,-100,4,2,1,65,0,0
81146,-100,4,2,1,60,0,0
81431,-100,4,2,1,55,0,0
81574,-100,4,2,1,45,0,0
81860,-100,4,2,1,55,0,0
82003,-100,4,2,1,45,0,0
82431,-100,4,2,1,55,0,0
82860,-100,4,2,1,65,0,0
83146,-100,4,2,1,45,0,0
83288,-100,4,2,1,50,0,0
83574,-100,4,2,1,55,0,0
83717,-100,4,2,1,45,0,0
84003,-100,4,2,1,45,0,0
84146,-100,4,2,1,55,0,0
84574,-100,4,2,1,65,0,0
84860,-100,4,2,1,55,0,0
85003,-100,4,2,1,55,0,0
85431,-100,4,2,1,45,0,0
85717,-100,4,2,1,35,0,0
85860,-100,4,2,1,55,0,0
86146,-100,4,2,1,45,0,0
86288,-100,4,2,1,65,0,0
86431,-100,4,2,1,45,0,0
86717,-100,4,2,1,55,0,0
87003,-100,4,2,1,45,0,0
87146,-100,4,2,1,65,0,0
87431,-100,4,2,1,45,0,0
87574,-100,4,2,1,55,0,0
87860,-100,4,2,1,55,0,0
88003,-100,4,2,1,65,0,0
88288,-100,4,2,1,55,0,0
88431,-100,4,2,1,45,0,0
88717,-100,4,2,1,55,0,0
88860,-100,4,2,1,65,0,0
89146,-100,4,2,1,55,0,0
89288,-100,4,2,1,55,0,0
89717,-100,4,2,1,65,0,0
90003,-100,4,2,1,55,0,0
90146,-100,4,2,1,50,0,0
90574,-100,4,2,1,65,0,0
90860,-100,4,2,1,45,0,0
91003,-100,4,2,1,55,0,0
91288,-100,4,2,1,55,0,0
91431,-100,4,2,1,65,0,0
91860,-100,4,2,1,50,0,0
92288,-100,4,2,1,65,0,0
92574,-100,4,2,1,45,0,0
92717,-100,4,2,1,55,0,0
93146,-100,4,2,1,65,0,0
93431,-100,4,2,1,55,0,0
93574,-100,4,2,1,55,0,0
94003,-100,4,2,1,65,0,0
94288,-100,4,2,1,45,0,0
94431,-100,4,2,1,55,0,0
94860,-100,4,2,1,65,0,0
95288,-100,4,2,1,55,0,0
95574,-100,4,2,1,45,0,0
95717,-100,4,2,1,65,0,0
96146,-100,4,2,1,55,0,0
96574,-100,4,2,1,65,0,0
96860,-100,4,2,1,55,0,0
97003,-100,4,2,1,55,0,0
97431,-100,4,2,1,65,0,0
97717,-100,4,2,1,45,0,0
97860,-100,4,2,1,55,0,0
98288,-100,4,2,1,65,0,0
98717,-100,4,2,1,55,0,0
99146,-100,4,2,1,65,0,0
99431,-100,4,2,1,45,0,0
99574,-100,4,2,1,55,0,0
100003,-100,4,2,1,65,0,0
100288,-100,4,2,1,55,0,0
100431,-100,4,2,1,55,0,0
100860,-100,4,2,1,65,0,0
101146,-100,4,2,1,45,0,0
101288,-100,4,2,1,55,0,0
101717,-100,4,2,1,65,0,0
102146,-100,4,2,1,55,0,0
102431,-100,4,2,1,45,0,0
102574,-100,4,2,1,65,0,0
103003,-100,4,2,1,55,0,0
103431,-100,4,2,1,65,0,0
103717,-100,4,2,1,55,0,0
103860,-100,4,2,1,55,0,0
104288,-100,4,2,1,65,0,0
104574,-100,4,2,1,45,0,0
104717,-100,4,2,1,55,0,0
105146,-100,4,2,1,65,0,0
105431,-100,4,2,1,55,0,0
105574,-100,4,2,1,55,0,0
105860,-100,4,2,1,45,0,0
106003,-100,4,2,1,65,0,0
106288,-100,4,2,1,45,0,0
106431,-100,4,2,1,55,0,0
106860,-100,4,2,1,65,0,0
107146,-100,4,2,1,55,0,0
107288,-100,4,2,1,55,0,0
107717,-100,4,2,1,65,0,0
108003,-100,4,2,1,45,0,0
108146,-100,4,2,1,55,0,0
108431,-100,4,2,1,55,0,0
108574,-100,4,2,1,65,0,0
108860,-100,4,2,1,55,0,0
109003,-100,4,2,1,55,0,0
109288,-100,4,2,1,45,0,0
109431,-100,4,2,1,55,0,0
109860,-100,4,2,1,65,0,0
110717,-100,4,2,1,50,0,0
111003,-100,4,2,1,65,0,0
111574,-100,4,2,1,45,0,0
111860,-100,4,2,1,65,0,0
112431,-100,4,2,1,35,0,0
115288,-100,4,2,1,45,0,0
115431,-100,4,2,1,55,0,0
115574,-100,4,2,1,65,0,0
115717,-100,4,2,1,55,0,0
115860,-100,4,2,1,55,0,0
116003,-100,4,2,1,55,0,0
116146,-100,4,2,1,65,0,0
116288,-100,4,2,1,55,0,0
116431,-100,4,2,1,55,0,0
116574,-100,4,2,1,65,0,0
116717,-100,4,2,1,60,0,0

[Colours]
Combo1 : 179,149,255
Combo2 : 255,244,108
Combo3 : 62,173,255
Combo4 : 70,255,135
Combo5 : 244,117,255
Combo6 : 224,224,224
Combo7 : 255,138,138

[HitObjects]
92,60,146,6,0,P|116:112|108:160,1,100,2|2,1:2|0:2,0:2:0:0:
212,136,574,2,0,P|204:192|168:236,1,100,2|10,0:2|1:2,0:2:0:0:
84,240,1003,1,2,0:2:0:0:
188,32,1288,1,2,0:2:0:0:
222,30,1431,1,2,0:2:0:0:
256,39,1574,1,0,0:2:0:0:
285,58,1717,1,2,0:2:0:0:
307,85,1860,6,0,P|308:164|292:204,1,100,2|2,0:2|0:2,0:2:0:0:
384,216,2288,2,0,P|400:144|384:48,1,150,2|2,0:2|0:2,0:2:0:0:
188,32,3003,1,10,0:2:0:0:
188,32,3146,1,2,1:2:0:0:
476,252,3574,6,0,P|440:296|400:312,1,100,2|2,1:2|0:2,0:2:0:0:
316,276,4003,1,2,0:2:0:0:
392,72,4288,1,10,1:2:0:0:
392,72,4431,1,2,0:2:0:0:
300,184,4717,1,2,0:2:0:0:
267,196,4860,1,2,0:2:0:0:
241,219,5003,1,0,0:2:0:0:
226,250,5146,1,2,0:2:0:0:
223,285,5288,6,0,P|200:336|152:360,1,100,2|2,0:2|0:2,0:2:0:0:
136,276,5717,1,2,0:2:0:0:
136,276,6146,2,0,L|116:176,1,100,2|10,0:2|0:2,0:2:0:0:
20,156,6574,2,0,L|39:254,1,100,2|2,1:2|0:2,0:2:0:0:
129,96,7003,6,0,B|108:88|84:100|84:100|68:80|40:72,1,100,2|2,1:2|0:2,0:2:0:0:
104,16,7431,1,2,0:2:0:0:
368,64,7717,1,10,1:2:0:0:
396,40,7860,2,0,L|360:148,1,100,2|2,0:2|0:2,0:2:0:0:
452,188,8288,2,0,L|483:93,1,100,2|2,0:2|0:2,0:2:0:0:
368,224,8717,6,0,P|400:264|460:276,1,100,2|2,1:2|0:2,0:2:0:0:
352,328,9146,1,2,0:2:0:0:
288,180,9431,1,2,1:2:0:0:
288,180,9574,2,0,B|264:228|288:268|288:268|264:292|268:328,1,150,2|2,0:2|1:2,0:2:0:0:
267,320,10431,6,0,B|268:288|288:268|288:268|244:244,1,100,2|2,1:2|0:2,0:2:0:0:
288,180,10860,2,0,L|200:132,1,100,2|2,0:2|1:2,0:2:0:0:
176,208,11288,1,0,0:2:0:0:
176,208,11717,2,0,P|128:164|152:68,1,150,2|2,0:2|1:2,0:2:0:0:
352,328,12431,5,0,0:0:0:0:
352,328,12574,1,2,0:0:0:0:
200,132,12860,1,2,1:2:0:0:
200,132,13003,2,0,L|288:180,1,100,2|2,0:2|0:2,0:2:0:0:
264,256,13431,2,0,L|176:208,1,100,2|2,0:2|0:2,0:2:0:0:
224,52,13860,6,0,L|312:100,1,100,2|2,1:2|0:2,0:2:0:0:
372,164,14288,1,2,0:0:0:0:
120,148,14574,1,10,1:2:0:0:
120,148,14717,2,0,P|96:200|108:256,1,100,2|2,0:0|0:0,0:0:0:0:
200,132,15146,2,0,P|168:84|112:67,1,100,2|2,0:0|0:0,0:0:0:0:
176,208,15574,6,0,P|232:204|275:164,1,100,2|2,1:2|0:0,0:0:0:0:
120,148,16003,1,2,0:0:0:0:
272,316,16288,1,2,1:2:0:0:
272,316,16431,2,0,P|340:276|388:196,1,150,2|2,0:2|1:2,0:2:0:0:
380,218,17288,6,0,B|369:244|352:264|352:264|368:312,1,100,2|2,1:2|0:2,0:2:0:0:
452,280,17717,2,0,P|476:228|464:176,1,100,2|10,0:2|1:2,0:2:0:0:
392,132,18146,1,2,0:2:0:0:
440,360,18574,1,2,0:2:0:0:
472,88,19003,6,0,P|437:52|389:40,1,100,2|2,1:2|0:2,0:2:0:0:
288,48,19431,2,0,B|292:76|304:96|304:96|292:124|300:152,1,100,2|2,0:2|1:2,0:2:0:0:
208,107,19860,2,0,P|202:180|254:232,1,150,2|2,0:2|1:2,0:2:0:0:
252,231,20717,6,0,B|230:224|214:202|214:202|162:244,1,100,2|8,0:2|0:2,0:2:0:0:
108,292,21146,1,10,0:2:0:0:
208,108,21431,1,10,1:2:0:0:
208,108,21574,2,0,L|288:48,1,100,2|2,0:2|0:2,0:2:0:0:
136,64,22003,2,0,P|119:110|136:156,1,100,2|2,0:2|0:2,0:2:0:0:
36,232,22431,6,0,P|52:185|35:139,1,100,2|8,0:2|0:2,0:2:0:0:
36,48,22860,1,10,0:2:0:0:
33,328,23146,1,10,1:2:0:0:
33,328,23288,2,0,P|81:319|116:284,1,100,2|2,0:2|0:2,0:2:0:0:
36,232,23717,1,2,0:2:0:0:
36,232,24146,6,0,P|80:196|132:192,1,100,2|8,0:2|0:2,0:2:0:0:
200,240,24574,2,0,B|220:252|248:240|248:240|276:228|296:240,1,100,10|2,0:2|1:2,0:2:0:0:
368,304,25003,2,0,P|392:252|384:200,1,100,2|2,0:2|0:2,0:2:0:0:
320,152,25431,1,2,0:2:0:0:
468,35,25717,5,2,0:2:0:0:
467,34,25860,2,0,P|444:77|446:127,1,100,2|10,0:2|0:2,0:2:0:0:
368,84,26288,2,0,P|316:68|264:88,1,100,10|2,0:2|1:2,0:2:0:0:
196,132,26717,1,10,0:2:0:0:
196,132,27146,6,0,P|198:82|175:38,1,100,2|0,0:2|0:2,0:2:0:0:
112,100,27574,2,0,P|64:112|12:100,1,100,2|10,0:0|0:0,0:0:0:0:
64,24,28003,1,10,0:0:0:0:
124,192,28288,1,10,1:2:0:0:
124,192,28431,2,0,P|168:224|224:220,1,100,2|2,0:0|0:0,0:0:0:0:
244,312,28860,2,0,P|296:268|304:212,1,100,2|2,0:0|0:0,0:0:0:0:
396,260,29288,6,0,P|388:200|352:160,1,100,2|8,0:0|0:0,0:0:0:0:
419,91,29717,2,0,P|363:75|311:91,1,100,10|2,0:0|1:2,0:0:0:0:
272,156,30146,1,2,1:2:0:0:
156,308,30574,1,2,1:2:0:0:
464,168,31003,5,10,0:2:0:0:
323,84,31288,1,2,0:0:0:0:
323,84,31431,1,10,0:0:0:0:
304,236,31717,1,2,0:0:0:0:
304,236,31860,1,10,0:0:0:0:
128,188,32146,1,2,0:0:0:0:
128,188,32288,1,10,0:0:0:0:
248,312,32574,1,2,0:0:0:0:
248,312,32717,1,10,0:0:0:0:
364,169,33003,1,2,0:2:0:0:
364,169,33146,1,2,1:2:0:0:
364,169,33574,6,0,P|392:210|396:260,1,100,2|2,1:2|0:2,0:2:0:0:
323,84,34003,2,0,P|372:75|419:91,1,100,2|0,0:0|0:2,0:0:0:0:
236,92,34431,2,0,P|240:48|280:4,1,100,2|2,1:2|0:2,0:2:0:0:
360,0,34860,1,2,0:2:0:0:
284,160,35146,1,10,1:2:0:0:
284,160,35288,2,0,P|232:176|180:156,1,100,2|2,0:2|0:2,0:2:0:0:
144,80,35717,2,0,P|96:67|49:83,1,100,2|2,0:2|0:2,0:2:0:0:
99,159,36146,6,0,P|115:215|159:247,1,100,2|2,1:2|0:2,0:2:0:0:
80,356,36574,2,0,P|64:300|20:268,1,100,2|10,0:2|1:2,0:2:0:0:
175,327,37003,2,0,P|236:288|307:304,1,150,2|2,0:2|0:2,0:2:0:0:
307,304,37860,6,0,B|285:289|260:287|260:287|251:235,1,100,2|2,1:2|0:2,0:2:0:0:
340,216,38288,2,0,L|320:117,1,100,2|10,0:2|1:2,0:2:0:0:
392,64,38717,2,0,L|411:162,1,100,2|2,0:2|0:2,0:2:0:0:
432,248,39146,2,0,P|480:216|496:164,1,100,2|0,0:2|0:2,0:2:0:0:
484,100,39574,6,0,L|464:1,1,100,2|2,1:2|0:2,0:2:0:0:
392,64,40003,2,0,P|348:32|288:36,1,100,2|10,0:2|1:2,0:2:0:0:
231,83,40431,2,0,P|270:113|320:117,1,100,2|2,0:2|0:2,0:2:0:0:
140,52,40860,2,0,L|159:150,1,100,2|2,0:2|0:2,0:2:0:0:
60,96,41288,6,0,L|79:194,1,100,2|2,1:2|0:2,0:2:0:0:
156,236,41717,1,2,0:2:0:0:
288,376,42003,1,10,1:2:0:0:
288,376,42146,1,2,0:2:0:0:
184,320,42431,1,2,0:2:0:0:
184,320,42574,2,0,P|228:288|244:244,1,100,2|2,0:2|0:2,0:2:0:0:
332,246,43003,6,0,P|351:292|392:320,1,100,2|2,1:2|0:2,0:2:0:0:
420,236,43431,1,2,0:2:0:0:
288,144,43717,1,10,1:2:0:0:
220,80,43860,2,0,P|284:56|360:80,1,150,2|2,0:0|0:0,0:0:0:0:
359,79,44717,6,0,B|340:64|308:56|308:56|316:8,1,100,2|2,1:2|0:2,0:2:0:0:
220,80,45146,2,0,L|200:186,1,100,2|10,0:2|1:2,0:2:0:0:
270,242,45574,2,0,L|287:143,1,100,2|2,0:2|0:2,0:2:0:0:
156,12,46003,2,0,P|128:56|128:108,1,100,2|0,0:2|0:2,0:2:0:0:
40,128,46431,6,0,L|22:226,1,100,2|2,1:2|0:2,0:2:0:0:
100,292,46860,2,0,L|117:193,1,100,2|10,0:2|1:2,0:2:0:0:
16,308,47288,2,0,P|44:360|140:368,1,150,2|2,0:2|1:2,0:2:0:0:
128,373,48146,6,0,P|176:353|236:365,1,100,2|8,0:2|0:2,0:2:0:0:
296,248,48574,2,0,P|248:268|188:256,1,100,10|10,0:2|1:2,0:2:0:0:
237,173,49003,2,0,P|243:121|284:75,1,100,2|2,0:2|0:2,0:2:0:0:
335,158,49431,2,0,P|376:189|395:247,1,100,2|2,0:2|0:2,0:2:0:0:
296,248,49860,5,2,0:2:0:0:
152,188,50146,1,8,0:2:0:0:
152,188,50288,1,10,0:2:0:0:
372,72,50574,1,10,1:2:0:0:
372,72,50717,1,2,0:2:0:0:
356,324,51003,1,2,0:2:0:0:
356,324,51146,1,2,0:2:0:0:
356,324,51574,6,0,B|388:320|388:320|428:328|428:328|464:324,1,100,2|8,0:2|0:2,0:2:0:0:
492,244,52003,2,0,P|508:196|492:144,1,100,10|10,0:2|1:2,0:2:0:0:
466,64,52431,2,0,P|420:81|372:72,1,100,2|2,0:2|0:2,0:2:0:0:
252,160,52860,2,0,P|298:143|346:152,1,100,2|2,0:2|0:2,0:2:0:0:
420,192,53288,5,2,0:2:0:0:
272,48,53574,1,10,0:2:0:0:
272,48,53717,1,10,0:2:0:0:
308,236,54003,1,10,1:2:0:0:
308,236,54146,1,10,0:2:0:0:
308,236,54574,6,0,P|262:253|214:244,1,100,2|2,0:2|0:2,0:2:0:0:
128,280,55003,2,0,B|132:248|132:248|120:208|120:208|128:176,1,100,2|8,0:2|0:2,0:2:0:0:
4,156,55431,2,0,L|32:251,1,100,10|10,0:2|1:2,0:2:0:0:
76,116,55860,6,0,L|108:16,1,100,2|2,0:2|0:2,0:2:0:0:
204,48,56288,2,0,B|197:73|197:73|209:113|209:113|205:145,1,100,2|2,0:2|0:2,0:2:0:0:
296,64,56717,2,0,P|348:88|408:72,1,100,2|8,0:2|0:2,0:2:0:0:
480,32,57146,2,0,P|492:88|476:136,1,100,10|2,0:2|1:2,0:2:0:0:
396,184,57574,5,2,1:2:0:0:
396,184,58003,1,2,1:2:0:0:
396,184,58431,6,0,L|412:240,1,50,10|2,0:2|0:2,0:2:0:0:
436,320,58717,1,2,0:2:0:0:
336,296,58860,2,0,L|322:247,1,50,10|2,0:2|0:2,0:2:0:0:
300,160,59146,1,2,0:2:0:0:
232,232,59288,5,10,0:2:0:0:
191,259,59430,1,2,0:2:0:0:
141,262,59573,1,2,0:2:0:0:
160,172,59717,5,10,0:2:0:0:
115,150,59859,1,2,0:2:0:0:
88,109,60002,1,2,0:2:0:0:
172,76,60146,5,2,1:2:0:0:
56,228,60431,1,10,0:2:0:0:
56,228,60574,1,2,1:2:0:0:
336,296,61003,5,10,0:2:0:0:
224,136,61288,1,0,0:2:0:0:
224,136,61431,1,2,0:2:0:0:
500,236,61860,5,2,1:2:0:0:
496,256,62146,1,0,0:2:0:0:
480,240,62431,1,0,0:2:0:0:
476,164,62574,6,0,L|460:116,1,37.5000014305115,10|2,0:2|0:2,0:2:0:0:
396,56,63431,1,2,0:2:0:0:
376,132,63574,5,2,1:2:0:0:
356,148,63860,1,0,0:2:0:0:
332,152,64146,1,0,0:2:0:0:
320,76,64288,6,0,L|296:36,1,37.5000014305115,2|2,0:2|0:2,0:2:0:0:
248,128,64860,1,2,0:2:0:0:
272,220,65288,5,2,1:2:0:0:
180,196,65717,1,2,0:2:0:0:
212,268,66003,1,10,0:0:0:0:
212,268,66146,1,2,0:2:0:0:
136,260,66431,1,2,0:2:0:0:
136,260,66574,1,2,0:2:0:0:
284,300,67003,5,2,1:2:0:0:
248,128,67431,1,2,0:2:0:0:
136,260,67860,1,2,0:2:0:0:
211,233,68718,5,2,1:2:0:0:
225,216,69003,1,0,0:2:0:0:
230,238,69288,1,0,0:2:0:0:
280,296,69431,6,0,L|308:328,1,37.5000014305115,10|2,0:2|0:2,0:2:0:0:
352,256,70288,1,2,0:2:0:0:
420,300,70431,5,2,1:2:0:0:
444,308,70717,1,0,0:2:0:0:
468,300,71003,1,0,0:2:0:0:
440,228,71146,6,0,L|440:180,1,37.5000014305115,2|2,0:2|0:2,0:2:0:0:
444,88,71717,1,2,0:2:0:0:
356,128,72146,1,2,1:2:0:0:
256,128,72574,1,2,0:2:0:0:
304,72,72860,1,10,0:2:0:0:
304,72,73003,2,0,P|264:56|212:72,1,75.000002861023,2|2,0:2|0:2,0:2:0:0:
204,72,73431,5,2,0:2:0:0:
304,188,73860,1,2,1:2:0:0:
204,188,74288,1,2,0:2:0:0:
124,128,74717,1,2,0:2:0:0:
124,128,75574,6,0,P|104:176|112:232,1,100,2|2,1:2|0:2,0:2:0:0:
184,276,76003,1,2,0:2:0:0:
116,44,76288,1,10,1:2:0:0:
116,44,76431,2,0,P|64:68|36:120,1,100,2|2,0:2|0:2,0:2:0:0:
20,184,76860,2,0,P|24:240|56:292,1,100,2|2,1:2|0:2,0:2:0:0:
92,348,77288,6,0,B|120:356|120:356|164:344|164:344|196:352,1,100,2|2,1:2|0:2,0:2:0:0:
272,372,77717,1,2,0:2:0:0:
460,300,78003,1,10,1:2:0:0:
460,300,78146,1,2,0:2:0:0:
300,184,78431,1,2,0:2:0:0:
300,184,78574,1,2,1:2:0:0:
488,112,78860,5,0,0:2:0:0:
488,112,79003,2,0,P|440:96|412:48,1,100,2|2,1:2|0:2,0:2:0:0:
496,28,79431,1,2,0:2:0:0:
400,172,79717,1,10,1:2:0:0:
400,172,79860,2,0,P|392:228|352:264,1,100,2|10,0:2|0:2,0:2:0:0:
272,264,80288,1,2,1:2:0:0:
460,300,80574,5,2,0:2:0:0:
460,300,80717,2,0,P|423:339|371:359,1,100,2|2,1:2|0:2,0:2:0:0:
272,372,81146,1,2,0:2:0:0:
300,184,81431,1,10,1:2:0:0:
300,184,81574,1,2,0:2:0:0:
128,252,81860,1,2,1:2:0:0:
128,252,82003,1,2,1:2:0:0:
128,252,82431,6,0,B|120:224|128:200|128:200|136:172|128:148,1,100,2|2,1:2|0:2,0:2:0:0:
48,88,82860,2,0,P|90:54|143:50,1,100,2|10,0:2|0:2,0:2:0:0:
212,96,83288,1,2,0:2:0:0:
40,172,83574,1,2,0:2:0:0:
40,172,83717,1,2,1:2:0:0:
208,232,84003,5,2,0:2:0:0:
208,232,84146,1,2,1:2:0:0:
32,260,84431,1,2,0:2:0:0:
32,260,84574,2,0,P|51:315|107:347,1,100,2|2,0:2|1:2,0:2:0:0:
128,252,85003,2,0,P|173:266|208:232,1,100,2|2,0:2|0:2,0:2:0:0:
292,192,85431,2,0,P|302:249|270:305,1,100,2|0,1:2|0:2,0:2:0:0:
388,212,85860,6,0,L|352:108,1,100,2|0,1:2|0:2,0:2:0:0:
376,16,86288,1,10,0:2:0:0:
416,32,86431,1,2,0:2:0:0:
444,64,86574,1,2,0:2:0:0:
460,104,86717,2,0,L|492:198,1,100,2|2,1:2|0:2,0:2:0:0:
456,288,87146,2,0,B|424:312|392:312|392:312|388:348,1,100,10|0,0:2|0:2,0:2:0:0:
292,360,87574,5,2,1:2:0:0:
388,212,87860,1,2,0:2:0:0:
388,212,88003,1,10,0:2:0:0:
216,328,88288,1,2,0:2:0:0:
216,328,88431,1,2,1:2:0:0:
456,288,88717,1,2,0:2:0:0:
456,288,88860,1,10,0:2:0:0:
128,364,89146,5,2,0:2:0:0:
128,364,89288,2,0,P|120:304|148:264,1,100,2|2,1:2|0:2,0:2:0:0:
229,226,89717,2,0,P|189:186|121:174,1,100,2|10,0:2|0:2,0:2:0:0:
60,220,90146,2,0,P|48:168|104:88,1,150,2|2,1:2|0:2,0:2:0:0:
216,328,90860,5,0,0:2:0:0:
216,328,91003,1,2,1:2:0:0:
147,175,91288,1,2,0:2:0:0:
147,175,91431,1,2,0:2:0:0:
380,292,91860,1,2,1:2:0:0:
444,36,92288,1,2,0:2:0:0:
320,156,92574,5,0,0:2:0:0:
320,156,92717,1,2,1:2:0:0:
380,292,93003,1,2,0:2:0:0:
380,292,93146,2,0,P|424:260|452:208,1,100,2|10,0:2|0:2,0:2:0:0:
408,136,93574,2,0,P|376:88|283:72,1,150,2|2,1:2|0:2,0:2:0:0:
304,240,94288,5,0,0:2:0:0:
304,240,94431,2,0,P|288:296|304:344,1,100,2|2,1:2|0:2,0:2:0:0:
204,360,94860,2,0,P|136:332|60:372,1,150,2|2,0:2|1:2,0:2:0:0:
136,184,95574,1,0,0:2:0:0:
136,184,95717,1,2,0:2:0:0:
380,292,96146,5,2,1:2:0:0:
304,124,96431,1,2,0:2:0:0:
303,124,96574,2,0,P|348:112|400:124,1,100,2|10,0:2|0:2,0:2:0:0:
479,184,97003,2,0,P|499:113|465:48,1,150,2|2,1:2|0:2,0:2:0:0:
352,208,97717,5,0,0:2:0:0:
352,208,97860,1,2,1:2:0:0:
228,52,98146,1,2,0:2:0:0:
228,52,98288,2,0,P|194:116|213:187,2,150,2|2|2,0:2|1:2|0:2,0:2:0:0:
104,200,99431,5,0,0:2:0:0:
104,200,99574,1,2,1:2:0:0:
56,320,99860,1,2,0:2:0:0:
56,320,100003,2,0,P|102:336|148:319,1,100,2|10,0:2|0:2,0:2:0:0:
232,356,100431,2,0,B|304:332|304:332|373:356,1,150,2|2,1:2|0:2,0:2:0:0:
504,228,101146,5,0,0:2:0:0:
504,228,101288,2,0,L|402:191,1,100,2|2,1:2|0:2,0:2:0:0:
484,136,101717,2,0,B|416:112|416:112|372:108|344:148,1,150,2|2,0:2|1:2,0:2:0:0:
484,312,102431,1,0,0:2:0:0:
484,312,102574,1,2,0:2:0:0:
404,28,103003,6,0,P|344:40|304:68,1,100,2|2,1:2|0:2,0:2:0:0:
208,60,103431,2,0,P|165:35|115:27,1,100,2|10,0:2|0:2,0:2:0:0:
132,124,103860,2,0,B|112:152|128:196|128:196|148:240|132:272,1,150,2|2,1:2|0:2,0:2:0:0:
288,264,104574,5,2,0:2:0:0:
288,264,104717,2,0,P|294:227|262:167,1,100,2|2,1:2|0:2,0:2:0:0:
240,336,105146,2,0,P|292:352|340:328,1,100,2|10,0:2|0:2,0:2:0:0:
424,276,105574,2,0,P|419:325|444:367,1,100,2|2,1:2|0:2,0:2:0:0:
468,203,106003,2,0,P|421:187|376:204,1,100,2|2,0:2|0:2,0:2:0:0:
344,88,106431,6,0,P|391:104|436:87,1,100,2|2,1:2|0:2,0:2:0:0:
281,26,106860,2,0,P|255:68|260:117,1,100,2|10,0:2|0:2,0:2:0:0:
168,80,107288,2,0,P|116:104|20:76,1,150,2|2,1:2|0:2,0:2:0:0:
56,272,108003,5,2,0:2:0:0:
55,272,108146,2,0,P|104:261|153:268,1,100,2|2,1:2|0:2,0:2:0:0:
236,332,108574,2,0,P|260:284|252:240,1,100,2|10,0:2|0:2,0:2:0:0:
184,176,109003,1,2,1:2:0:0:
360,296,109288,1,0,0:2:0:0:
360,296,109431,1,2,1:2:0:0:
360,296,109860,6,0,P|412:308|460:288,1,100,6|2,1:2|0:2,0:2:0:0:
404,224,110288,1,2,0:2:0:0:
400,92,110574,5,6,1:2:0:0:
448,148,110717,2,0,P|396:136|348:156,1,100,0|2,0:2|0:2,0:2:0:0:
292,224,111146,1,2,0:2:0:0:
136,224,111431,5,6,1:2:0:0:
196,268,111574,2,0,P|180:220|196:176,1,100,2|2,0:0|0:0,0:0:0:0:
260,96,112003,1,2,0:0:0:0:
260,96,112288,5,6,1:2:0:0:
260,96,112431,1,0,0:0:0:0:
112,80,112860,1,0,0:0:0:0:
184,136,113146,1,0,0:0:0:0:
184,136,113288,1,0,0:0:0:0:
324,148,113717,1,0,0:0:0:0:
192,32,114146,1,0,0:0:0:0:
48,140,114574,1,0,0:0:0:0:
120,204,114860,1,0,0:0:0:0:
120,204,115003,1,0,0:0:0:0:
32,244,115288,5,2,1:2:0:0:
32,244,115431,1,2,1:2:0:0:
53,288,115573,1,2,0:2:0:0:
96,313,115717,1,2,0:2:0:0:
144,310,115860,2,0,P|168:300|191:280,1,50,2|2,1:2|0:2,0:2:0:0:
304,276,116146,2,0,P|308:252|301:220,1,50,2|0,0:2|1:2,0:2:0:0:
372,132,116431,2,0,P|348:112|322:105,1,50,2|2,0:2|0:2,0:2:0:0:
184,136,116717,1,6,1:2:0:0:
