osu file format v14

[General]
AudioFilename: Post.mp3
AudioLeadIn: 2000
PreviewTime: 6003
Countdown: 0
SampleSet: Soft
StackLeniency: 0.6
Mode: 0
LetterboxInBreaks: 0
WidescreenStoryboard: 0

[Editor]
Bookmarks: 116717
DistanceSpacing: 1
BeatDivisor: 3
GridSize: 4
TimelineZoom: 1

[Metadata]
Title:Yotteoide! Shukubamachi!
TitleUnicode:よっておいで! 宿場町!
Artist:Keisuke Ito, Yasuhiro Kawagoe
ArtistUnicode:いとうけいすけ、川越康弘
Creator:CrystilonZ
Version:Hard
Source:ポケモン不思議のダンジョン マグナゲートと∞迷宮
Tags:Pokémon Pokemon Mystery Dungeon Fushigi Magnagate to Mugendai Meikyu Gates to Infinity and the Infinite Labyrinth Come on in to Post Town
BeatmapID:704093
BeatmapSetID:315899

[Difficulty]
HPDrainRate:5
CircleSize:4
OverallDifficulty:5
ApproachRate:6.3
SliderMultiplier:1.3
SliderTickRate:1

[Events]
//Background and Video events
0,0,"PMD.jpg",0,0
//Break Periods
//Storyboard Layer 0 (Background)
//Storyboard Layer 1 (Fail)
//Storyboard Layer 2 (Pass)
//Storyboard Layer 3 (Foreground)
//Storyboard Sound Samples

[TimingPoints]
146,428.571428571429,4,2,1,40,1,0
574,-100,4,2,1,62,0,0
860,-100,4,2,1,52,0,0
1288,-100,4,2,1,40,0,0
1860,-100,4,2,1,52,0,0
2146,-100,4,2,1,40,0,0
2288,-100,4,2,1,62,0,0
2717,-100,4,2,1,52,0,0
3146,-100,4,2,1,52,0,0
3574,-100,4,2,1,40,0,0
4003,-100,4,2,1,70,0,0
4288,-100,4,2,1,52,0,0
4717,-100,4,2,1,40,0,0
5288,-100,4,2,1,52,0,0
5574,-100,4,2,1,40,0,0
5717,-100,4,2,1,55,0,0
6146,-100,4,2,1,55,0,0
6431,-100,4,2,1,50,0,0
6574,-100,4,2,1,55,0,0
6860,-100,4,2,1,50,0,0
7003,-100,4,2,1,55,0,0
7288,-100,4,2,1,55,0,0
7431,-100,4,2,1,65,0,0
7717,-100,4,2,1,55,0,0
7860,-100,4,2,1,55,0,0
8146,-100,4,2,1,50,0,0
8288,-100,4,2,1,65,0,0
8574,-100,4,2,1,50,0,0
8717,-100,4,2,1,55,0,0
9003,-100,4,2,1,55,0,0
9146,-100,4,2,1,65,0,0
9431,-100,4,2,1,55,0,0
10003,-100,4,2,1,57,0,0
10431,-100,4,2,1,55,0,0
10717,-100,4,2,1,55,0,0
10860,-100,4,2,1,65,0,0
11146,-100,4,2,1,55,0,0
11288,-100,4,2,1,50,0,0
11717,-100,4,2,1,65,0,0
12146,-100,4,2,1,50,0,0
12431,-100,4,2,1,55,0,0
12574,-100,4,2,1,65,0,0
12860,-100,4,2,1,55,0,0
13003,-100,4,2,1,55,0,0
13288,-100,4,2,1,45,0,0
13431,-100,4,2,1,65,0,0
13717,-100,4,2,1,45,0,0
13860,-100,4,2,1,55,0,0
14288,-100,4,2,1,65,0,0
14574,-100,4,2,1,55,0,0
14717,-100,4,2,1,55,0,0
15003,-100,4,2,1,45,0,0
15146,-100,4,2,1,65,0,0
15431,-100,4,2,1,45,0,0
15574,-100,4,2,1,55,0,0
15860,-100,4,2,1,45,0,0
16003,-100,4,2,1,65,0,0
16288,-100,4,2,1,55,0,0
16860,-100,4,2,1,45,0,0
17288,-100,4,2,1,55,0,0
17574,-100,4,2,1,45,0,0
17717,-100,4,2,1,65,0,0
18003,-100,4,2,1,55,0,0
18574,-100,4,2,1,65,0,0
19003,-100,4,2,1,55,0,0
19288,-100,4,2,1,45,0,0
19431,-100,4,2,1,65,0,0
19717,-100,4,2,1,55,0,0
20288,-100,4,2,1,55,0,0
20717,-100,4,2,1,65,0,0
21003,-100,4,2,1,35,0,0
21146,-100,4,2,1,65,0,0
21431,-100,4,2,1,57,0,0
21574,-100,4,2,1,65,0,0
21860,-100,4,2,1,45,0,0
22003,-100,4,2,1,65,0,0
22288,-100,4,2,1,45,0,0
22431,-100,4,2,1,65,0,0
22717,-100,4,2,1,35,0,0
22860,-100,4,2,1,65,0,0
23146,-100,4,2,1,57,0,0
23288,-100,4,2,1,65,0,0
23574,-100,4,2,1,45,0,0
23717,-100,4,2,1,65,0,0
24431,-100,4,2,1,35,0,0
24574,-100,4,2,1,65,0,0
24860,-100,4,2,1,57,0,0
25003,-100,4,2,1,65,0,0
25288,-100,4,2,1,45,0,0
25431,-100,4,2,1,65,0,0
25717,-100,4,2,1,45,0,0
25860,-100,4,2,1,65,0,0
26146,-100,4,2,1,35,0,0
26288,-100,4,2,1,65,0,0
26574,-100,4,2,1,57,0,0
26717,-100,4,2,1,45,0,0
27146,-100,4,2,1,65,0,0
27431,-100,4,2,1,45,0,0
27574,-100,4,2,1,65,0,0
27860,-100,4,2,1,35,0,0
28003,-100,4,2,1,65,0,0
28288,-100,4,2,1,57,0,0
28431,-100,4,2,1,65,0,0
28717,-100,4,2,1,45,0,0
28860,-100,4,2,1,65,0,0
29146,-100,4,2,1,45,0,0
29288,-100,4,2,1,65,0,0
29574,-100,4,2,1,35,0,0
29717,-100,4,2,1,65,0,0
30003,-100,4,2,1,55,0,0
30146,-100,4,2,1,45,0,0
31003,-100,4,2,1,75,0,0
31288,-100,4,2,1,45,0,0
31431,-100,4,2,1,65,0,0
31717,-100,4,2,1,45,0,0
31860,-100,4,2,1,65,0,0
32146,-100,4,2,1,45,0,0
32288,-100,4,2,1,65,0,0
32574,-100,4,2,1,45,0,0
32717,-100,4,2,1,65,0,0
33003,-100,4,2,1,57,0,0
33146,-100,4,2,1,65,0,0
33574,-100,4,2,1,55,0,0
33860,-100,4,2,1,45,0,0
34003,-100,4,2,1,55,0,0
34288,-100,4,2,1,45,0,0
34431,-100,4,2,1,55,0,0
34717,-100,4,2,1,55,0,0
34860,-100,4,2,1,65,0,0
35146,-100,4,2,1,55,0,0
35574,-100,4,2,1,45,0,0
35717,-100,4,2,1,65,0,0
36003,-100,4,2,1,45,0,0
36146,-100,4,2,1,55,0,0
36431,-100,4,2,1,55,0,0
36574,-100,4,2,1,65,0,0
36860,-100,4,2,1,55,0,0
37431,-100,4,2,1,65,0,0
37860,-100,4,2,1,55,0,0
38146,-100,4,2,1,55,0,0
38288,-100,4,2,1,65,0,0
38574,-100,4,2,1,55,0,0
39003,-100,4,2,1,45,0,0
39146,-100,4,2,1,55,0,0
39431,-100,4,2,1,45,0,0
39574,-100,4,2,1,55,0,0
39860,-100,4,2,1,45,0,0
40003,-100,4,2,1,65,0,0
40288,-100,4,2,1,55,0,0
40431,-100,4,2,1,65,0,0
40717,-100,4,2,1,45,0,0
40860,-100,4,2,1,65,0,0
41146,-100,4,2,1,45,0,0
41288,-100,4,2,1,55,0,0
41717,-100,4,2,1,65,0,0
42003,-100,4,2,1,55,0,0
42431,-100,4,2,1,45,0,0
42574,-100,4,2,1,65,0,0
42860,-100,4,2,1,45,0,0
43003,-100,4,2,1,55,0,0
43431,-100,4,2,1,65,0,0
43717,-100,4,2,1,55,0,0
44288,-100,4,2,1,65,0,0
44717,-100,4,2,1,55,0,0
45146,-100,4,2,1,65,0,0
45431,-100,4,2,1,55,0,0
45860,-100,4,2,1,45,0,0
46003,-100,4,2,1,65,0,0
46288,-100,4,2,1,45,0,0
46431,-100,4,2,1,55,0,0
46860,-100,4,2,1,65,0,0
47146,-100,4,2,1,45,0,0
47288,-100,4,2,1,55,0,0
48146,-100,4,2,1,65,0,0
48431,-100,4,2,1,35,0,0
48574,-100,4,2,1,65,0,0
48860,-100,4,2,1,55,0,0
49003,-100,4,2,1,65,0,0
49288,-100,4,2,1,45,0,0
49431,-100,4,2,1,65,0,0
49717,-100,4,2,1,45,0,0
49860,-100,4,2,1,65,0,0
50146,-100,4,2,1,35,0,0
50288,-100,4,2,1,65,0,0
50574,-100,4,2,1,55,0,0
50717,-100,4,2,1,65,0,0
51003,-100,4,2,1,45,0,0
51146,-100,4,2,1,65,0,0
51574,-100,4,2,1,65,0,0
51860,-100,4,2,1,35,0,0
52003,-100,4,2,1,65,0,0
52288,-100,4,2,1,55,0,0
52431,-100,4,2,1,65,0,0
52717,-100,4,2,1,45,0,0
52860,-100,4,2,1,65,0,0
53146,-100,4,2,1,45,0,0
53288,-100,4,2,1,65,0,0
53574,-100,4,2,1,35,0,0
53717,-100,4,2,1,65,0,0
54003,-100,4,2,1,55,0,0
54146,-100,4,2,1,65,0,0
54574,-100,4,2,1,65,0,0
54860,-100,4,2,1,45,0,0
55003,-100,4,2,1,65,0,0
55288,-100,4,2,1,35,0,0
55431,-100,4,2,1,65,0,0
55717,-100,4,2,1,55,0,0
55860,-100,4,2,1,65,0,0
56146,-100,4,2,1,45,0,0
56288,-100,4,2,1,65,0,0
56574,-100,4,2,1,45,0,0
56717,-100,4,2,1,65,0,0
57003,-100,4,2,1,35,0,0
57146,-100,4,2,1,65,0,0
57431,-100,4,2,1,55,0,0
57574,-100,4,2,1,45,0,0
58431,-100,4,2,1,70,0,0
58574,-100,4,2,1,65,0,0
58717,-100,4,2,1,50,0,0
58860,-100,4,2,1,70,0,0
59003,-100,4,2,1,65,0,0
59146,-100,4,2,1,50,0,0
59288,-100,4,2,1,70,0,0
59431,-100,4,2,1,65,0,0
59574,-100,4,2,1,50,0,0
59717,-100,4,2,1,70,0,0
59860,-100,4,2,1,65,0,0
60003,-100,4,2,1,50,0,0
60146,-100,4,2,1,65,0,0
60431,-100,4,2,1,45,0,0
60574,-100,4,2,1,65,0,0
61003,-100,4,2,1,65,0,0
61288,-100,4,2,1,45,0,0
61431,-100,4,2,1,65,0,0
61860,-133.333333333333,4,2,1,45,0,0
62146,-133.333333333333,4,2,1,25,0,0
62574,-133.333333333333,4,2,1,35,0,0
63574,-133.333333333333,4,2,1,40,0,0
63860,-133.333333333333,4,2,1,25,0,0
64288,-133.333333333333,4,2,1,35,0,0
65288,-133.333333333333,4,2,1,40,0,0
65717,-133.333333333333,4,2,1,35,0,0
67003,-133.333333333333,4,2,1,40,0,0
67431,-133.333333333333,4,2,1,35,0,0
68717,-133.333333333333,4,2,1,40,0,0
69003,-133.333333333333,4,2,1,25,0,0
69431,-133.333333333333,4,2,1,35,0,0
70431,-133.333333333333,4,2,1,40,0,0
70717,-133.333333333333,4,2,1,25,0,0
71146,-133.333333333333,4,2,1,35,0,0
72146,-133.333333333333,4,2,1,40,0,0
72574,-133.333333333333,4,2,1,35,0,0
73860,-133.333333333333,4,2,1,40,0,0
74288,-133.333333333333,4,2,1,35,0,0
75574,-100,4,2,1,55,0,0
75860,-100,4,2,1,55,0,0
76003,-100,4,2,1,65,0,0
76288,-100,4,2,1,55,0,0
76431,-100,4,2,1,60,0,0
76717,-100,4,2,1,50,0,0
76860,-100,4,2,1,40,0,0
77146,-100,4,2,1,45,0,0
77288,-100,4,2,1,55,0,0
77717,-100,4,2,1,65,0,0
78003,-100,4,2,1,55,0,0
78146,-100,4,2,1,60,0,0
78431,-100,4,2,1,60,0,0
78574,-100,4,2,1,45,0,0
78860,-100,4,2,1,40,0,0
79003,-100,4,2,1,55,0,0
79431,-100,4,2,1,65,0,0
79717,-100,4,2,1,55,0,0
79860,-100,4,2,1,60,0,0
80146,-100,4,2,1,45,0,0
80288,-100,4,2,1,40,0,0
80574,-100,4,2,1,60,0,0
80717,-100,4,2,1,55,0,0
81003,-100,4,2,1,65,0,0
81146,-100,4,2,1,60,0,0
81431,-100,4,2,1,55,0,0
81574,-100,4,2,1,45,0,0
81860,-100,4,2,1,55,0,0
82003,-100,4,2,1,45,0,0
82431,-100,4,2,1,55,0,0
82860,-100,4,2,1,65,0,0
83146,-100,4,2,1,45,0,0
83288,-100,4,2,1,50,0,0
83574,-100,4,2,1,55,0,0
83717,-100,4,2,1,45,0,0
84003,-100,4,2,1,45,0,0
84146,-100,4,2,1,55,0,0
84574,-100,4,2,1,65,0,0
84860,-100,4,2,1,55,0,0
85003,-100,4,2,1,55,0,0
85431,-100,4,2,1,45,0,0
85717,-100,4,2,1,35,0,0
85860,-100,4,2,1,55,0,0
86146,-100,4,2,1,45,0,0
86288,-100,4,2,1,65,0,0
86431,-100,4,2,1,45,0,0
86717,-100,4,2,1,55,0,0
87003,-100,4,2,1,45,0,0
87146,-100,4,2,1,65,0,0
87431,-100,4,2,1,45,0,0
87574,-100,4,2,1,55,0,0
87860,-100,4,2,1,55,0,0
88003,-100,4,2,1,65,0,0
88288,-100,4,2,1,55,0,0
88431,-100,4,2,1,45,0,0
88717,-100,4,2,1,55,0,0
88860,-100,4,2,1,65,0,0
89146,-100,4,2,1,55,0,0
89288,-100,4,2,1,55,0,0
89717,-100,4,2,1,65,0,0
90003,-100,4,2,1,55,0,0
90146,-100,4,2,1,50,0,0
90574,-100,4,2,1,65,0,0
90860,-100,4,2,1,45,0,0
91003,-100,4,2,1,55,0,0
91288,-100,4,2,1,55,0,0
91431,-100,4,2,1,65,0,0
91860,-100,4,2,1,50,0,0
92288,-100,4,2,1,65,0,0
92574,-100,4,2,1,45,0,0
92717,-100,4,2,1,55,0,0
93146,-100,4,2,1,65,0,0
93431,-100,4,2,1,55,0,0
93574,-100,4,2,1,55,0,0
94003,-100,4,2,1,65,0,0
94288,-100,4,2,1,45,0,0
94431,-100,4,2,1,55,0,0
94860,-100,4,2,1,65,0,0
95288,-100,4,2,1,55,0,0
95574,-100,4,2,1,45,0,0
95717,-100,4,2,1,65,0,0
96146,-100,4,2,1,55,0,0
96574,-100,4,2,1,65,0,0
96860,-100,4,2,1,55,0,0
97003,-100,4,2,1,55,0,0
97431,-100,4,2,1,65,0,0
97717,-100,4,2,1,45,0,0
97860,-100,4,2,1,55,0,0
98288,-100,4,2,1,65,0,0
98717,-100,4,2,1,55,0,0
99146,-100,4,2,1,65,0,0
99431,-100,4,2,1,45,0,0
99574,-100,4,2,1,55,0,0
100003,-100,4,2,1,65,0,0
100288,-100,4,2,1,55,0,0
100431,-100,4,2,1,55,0,0
100860,-100,4,2,1,65,0,0
101146,-100,4,2,1,45,0,0
101288,-100,4,2,1,55,0,0
101717,-100,4,2,1,65,0,0
102146,-100,4,2,1,55,0,0
102431,-100,4,2,1,45,0,0
102574,-100,4,2,1,65,0,0
103003,-100,4,2,1,55,0,0
103431,-100,4,2,1,65,0,0
103717,-100,4,2,1,55,0,0
103860,-100,4,2,1,55,0,0
104288,-100,4,2,1,65,0,0
104574,-100,4,2,1,45,0,0
104717,-100,4,2,1,55,0,0
105146,-100,4,2,1,65,0,0
105431,-100,4,2,1,55,0,0
105574,-100,4,2,1,55,0,0
105860,-100,4,2,1,45,0,0
106003,-100,4,2,1,65,0,0
106288,-100,4,2,1,45,0,0
106431,-100,4,2,1,55,0,0
106860,-100,4,2,1,65,0,0
107146,-100,4,2,1,55,0,0
107288,-100,4,2,1,55,0,0
107717,-100,4,2,1,65,0,0
108003,-100,4,2,1,45,0,0
108146,-100,4,2,1,55,0,0
108431,-100,4,2,1,55,0,0
108574,-100,4,2,1,65,0,0
108860,-100,4,2,1,55,0,0
109003,-100,4,2,1,55,0,0
109288,-100,4,2,1,45,0,0
109431,-100,4,2,1,55,0,0
109860,-100,4,2,1,65,0,0
110717,-100,4,2,1,50,0,0
111003,-100,4,2,1,65,0,0
111574,-100,4,2,1,45,0,0
111860,-100,4,2,1,65,0,0
112431,-100,4,2,1,35,0,0
115288,-100,4,2,1,45,0,0
115431,-100,4,2,1,55,0,0
115574,-100,4,2,1,65,0,0
115717,-100,4,2,1,55,0,0
115860,-100,4,2,1,55,0,0
116003,-100,4,2,1,55,0,0
116146,-100,4,2,1,65,0,0
116288,-100,4,2,1,55,0,0
116431,-100,4,2,1,55,0,0
116574,-100,4,2,1,65,0,0
116717,-100,4,2,1,60,0,0

[Colours]
Combo1 : 179,149,255
Combo2 : 255,244,108
Combo3 : 62,173,255
Combo4 : 70,255,135
Combo5 : 244,117,255
Combo6 : 224,224,224
Combo7 : 255,138,138

[HitObjects]
220,84,146,6,0,P|272:52|344:72,1,130,2|2,1:2|0:2,0:2:0:0:
288,140,860,1,10,1:2:0:0:
288,140,1003,1,2,0:2:0:0:
356,196,1288,1,2,0:2:0:0:
356,196,1431,2,0,P|304:228|232:208,1,130,2|2,0:2|0:2,0:2:0:0:
220,84,2288,5,2,0:2:0:0:
116,164,2717,1,2,0:2:0:0:
132,80,3003,1,10,0:2:0:0:
132,80,3146,1,2,1:2:0:0:
28,156,3574,6,0,P|36:208|100:252,1,130,2|2,1:2|0:2,0:2:0:0:
176,228,4288,1,10,1:2:0:0:
176,228,4431,1,2,0:2:0:0:
252,272,4717,1,2,0:2:0:0:
252,272,4860,2,0,B|222:314|180:316|180:316|192:360,1,130,2|2,0:2|0:2,0:2:0:0:
320,348,5717,6,0,P|348:296|336:208,1,130,2|2,0:2|0:2,0:2:0:0:
268,188,6431,1,10,0:2:0:0:
268,188,6574,2,0,P|296:156|344:140,1,86.6666666666667,2|2,1:2|0:2,0:2:0:0:
380,148,7003,6,0,L|360:16,1,130,2|2,1:2|0:2,0:2:0:0:
444,36,7717,1,10,1:2:0:0:
444,36,7860,2,0,L|463:164,2,130,2|2|2,0:2|0:2|1:2,0:2:0:0:
380,148,9146,5,2,0:2:0:0:
368,64,9431,1,10,1:2:0:0:
367,64,9574,2,0,P|313:95|295:156,1,130,2|2,0:2|1:2,0:2:0:0:
296,157,10431,6,0,B|270:172|234:160|234:160|194:148|166:160,1,130,2|2,1:2|0:2,0:2:0:0:
201,239,11146,1,10,1:2:0:0:
201,239,11288,2,0,P|265:255|341:227,2,130,2|2|2,0:2|0:2|1:2,0:2:0:0:
120,224,12431,5,0,0:2:0:0:
120,224,12574,1,2,0:2:0:0:
84,144,12860,1,2,1:2:0:0:
84,144,13003,2,0,P|40:184|36:232,1,86.6666666666667,2|2,0:2|0:2,0:2:0:0:
32,252,13431,2,0,L|32:348,1,86.6666666666667,2|2,0:2|0:2,0:2:0:0:
72,356,13860,6,0,P|140:336|196:356,1,130,2|2,1:2|0:2,0:2:0:0:
260,296,14574,1,10,1:2:0:0:
260,296,14717,2,0,P|321:314|381:294,2,130,2|2|2,0:2|0:2|1:2,0:2:0:0:
320,180,16003,5,2,0:2:0:0:
381,114,16288,1,10,1:2:0:0:
381,114,16431,2,0,P|313:94|257:114,1,130,2|2,0:2|1:2,0:2:0:0:
259,113,17288,6,0,B|233:123|193:115|193:115|161:107|129:115,1,130,2|2,1:2|0:2,0:2:0:0:
88,40,18003,1,10,1:2:0:0:
88,40,18146,2,0,P|140:28|224:40,2,130,0|2|2,0:2|0:2|1:2,0:2:0:0:
40,116,19288,5,2,0:2:0:0:
40,116,19431,1,2,0:2:0:0:
84,192,19717,1,10,1:2:0:0:
84,192,19860,2,0,B|58:210|24:204|24:204|24:280,1,130,2|2,0:2|1:2,0:2:0:0:
24,271,20717,6,0,P|32:313|88:345,1,86.6666666666667,2|8,0:2|0:2,0:2:0:0:
104,356,21146,2,0,P|148:344|188:356,1,86.6666666666667,10|10,0:2|1:2,0:2:0:0:
224,336,21574,2,0,P|284:352|356:328,1,130,2|2,0:2|0:2,0:2:0:0:
408,272,22288,5,2,0:2:0:0:
408,272,22431,2,0,P|368:248|324:248,1,86.6666666666667,2|8,0:2|0:2,0:2:0:0:
284,252,22860,2,0,L|288:156,1,86.6666666666667,10|10,0:2|1:2,0:2:0:0:
316,132,23288,2,0,P|256:148|216:136,1,86.6666666666667,2|2,0:2|0:2,0:2:0:0:
192,128,23717,1,2,0:2:0:0:
192,128,24146,6,0,B|176:116|128:132|128:132|80:148|40:128,1,130,2|10,0:2|0:2,0:2:0:0:
88,52,24860,1,10,1:2:0:0:
88,52,25003,2,0,P|144:36|180:36,1,86.6666666666667,2|2,0:2|0:2,0:2:0:0:
216,40,25431,1,2,0:2:0:0:
192,128,25717,5,2,0:2:0:0:
192,128,25860,1,2,0:2:0:0:
172,212,26146,1,8,0:2:0:0:
172,212,26288,2,0,P|120:228|68:224,1,86.6666666666667,10|2,0:2|1:2,0:2:0:0:
44,220,26717,1,2,0:2:0:0:
144,304,27146,2,0,P|200:288|240:256,1,86.6666666666667,2|2,0:2|0:2,0:2:0:0:
254,242,27574,5,2,0:0:0:0:
280,160,27860,1,8,0:2:0:0:
280,160,28003,2,0,P|328:200|340:228,1,86.6666666666667,10|10,0:2|1:2,0:2:0:0:
376,244,28431,2,0,P|424:286|486:305,1,130,2|2,0:2|0:2,0:2:0:0:
472,220,29146,5,2,0:2:0:0:
472,220,29288,2,0,B|468:192|468:192|476:160|476:160|472:132,1,86.6666666666667,2|8,0:2|0:2,0:2:0:0:
488,96,29717,2,0,P|436:104|400:88,1,86.6666666666667,10|10,0:2|1:2,0:2:0:0:
368,68,30146,1,2,1:2:0:0:
256,136,30574,1,2,1:2:0:0:
144,68,31003,5,10,0:2:0:0:
168,152,31288,1,2,0:2:0:0:
168,152,31431,2,0,P|188:192|232:220,1,86.6666666666667,10|2,0:2|0:2,0:2:0:0:
264,220,31860,2,0,P|239:257|237:309,1,86.6666666666667,10|2,0:2|0:2,0:2:0:0:
236,340,32288,2,0,P|191:337|145:361,1,86.6666666666667,10|2,0:2|0:2,0:2:0:0:
116,376,32717,5,10,0:2:0:0:
72,300,33003,1,2,0:2:0:0:
72,300,33146,1,2,1:2:0:0:
8,188,33574,2,0,P|68:168|132:188,1,130,2|2,0:2|0:2,0:2:0:0:
128,100,34288,5,2,0:2:0:0:
128,100,34431,2,0,P|180:124|208:156,1,86.6666666666667,2|2,1:2|0:2,0:2:0:0:
212,188,34860,1,2,0:2:0:0:
224,276,35146,1,10,1:2:0:0:
224,276,35288,2,0,P|272:260|296:176,2,130,2|2|2,0:2|0:2|1:2,0:2:0:0:
96,244,36574,5,2,0:2:0:0:
28,192,36860,1,10,1:2:0:0:
28,192,37003,2,0,P|8:252|36:308,1,130,2|2,0:2|0:2,0:2:0:0:
36,308,37860,6,0,P|84:338|132:334,1,86.6666666666667,2|2,1:2|0:2,0:2:0:0:
156,328,38288,2,0,P|204:298|252:302,1,86.6666666666667,2|10,0:2|1:2,0:2:0:0:
268,324,38717,2,0,P|328:348|392:320,2,130,2|2|2,0:2|0:2|1:2,0:2:0:0:
328,256,39860,5,2,0:2:0:0:
328,256,40003,1,2,0:2:0:0:
387,188,40288,1,10,1:2:0:0:
387,188,40431,2,0,P|327:164|263:192,2,130,2|2|2,0:2|0:2|1:2,0:2:0:0:
439,256,41574,5,2,0:2:0:0:
439,256,41717,2,0,P|467:220|471:180,1,86.6666666666667,2|10,0:2|1:2,0:2:0:0:
459,140,42146,2,0,P|423:104|327:80,2,130,2|2|2,0:2|0:2|1:2,0:2:0:0:
387,188,43288,5,2,0:2:0:0:
387,188,43431,1,2,0:2:0:0:
328,256,43717,1,10,1:2:0:0:
328,256,43860,2,0,B|292:228|296:176|296:176|256:176,1,130,2|2,0:2|0:2,0:2:0:0:
256,176,44717,6,0,P|212:184|168:176,1,86.6666666666667,2|2,1:2|0:2,0:2:0:0:
132,158,45146,1,2,0:2:0:0:
68,100,45431,1,10,1:2:0:0:
68,100,45574,2,0,P|44:144|52:192,1,86.6666666666667,2|2,0:2|0:2,0:2:0:0:
60,220,46003,2,0,P|60:262|38:299,1,86.6666666666667,2|2,0:2|0:2,0:2:0:0:
12,332,46431,6,0,P|48:356|112:356,1,86.6666666666667,2|2,1:2|0:2,0:2:0:0:
132,356,46860,2,0,P|167:332|210:326,1,86.6666666666667,2|10,0:2|1:2,0:2:0:0:
252,336,47288,2,0,P|312:360|372:332,1,130,2|2,0:2|1:2,0:2:0:0:
368,336,48146,6,0,L|368:237,1,86.6666666666667,2|8,0:2|0:2,0:2:0:0:
408,236,48574,2,0,P|396:192|404:152,1,86.6666666666667,10|10,0:2|1:2,0:2:0:0:
424,112,49003,2,0,P|376:136|296:108,1,130,2|2,0:2|0:2,0:2:0:0:
236,64,49717,5,2,0:2:0:0:
236,64,49860,2,0,P|220:108|228:156,1,86.6666666666667,2|8,0:2|0:2,0:2:0:0:
248,184,50288,2,0,P|251:226|236:266,1,86.6666666666667,10|10,0:2|1:2,0:2:0:0:
232,312,50717,2,0,P|171:291|113:316,1,130,2|2,0:2|0:2,0:2:0:0:
113,315,51574,6,0,P|97:274|101:232,1,86.6666666666667,2|8,0:2|0:2,0:2:0:0:
128,200,52003,2,0,P|131:157|116:117,1,86.6666666666667,10|10,0:2|1:2,0:2:0:0:
92,80,52431,2,0,P|152:100|210:75,2,130,2|2|2,0:2|0:2|0:2,0:2:0:0:
148,16,53574,5,10,0:2:0:0:
148,16,53717,1,10,0:2:0:0:
210,74,54003,1,10,1:2:0:0:
210,74,54146,1,10,0:2:0:0:
328,16,54574,2,0,P|340:60|316:152,1,130,2|2,0:2|0:2,0:2:0:0:
272,212,55288,5,8,0:2:0:0:
272,212,55431,2,0,P|316:228|368:216,1,86.6666666666667,10|10,0:2|1:2,0:2:0:0:
396,208,55860,2,0,L|396:308,1,86.6666666666667,2|2,0:2|0:2,0:2:0:0:
384,336,56288,2,0,B|356:324|324:336|324:336|288:348|256:336,1,130,2|2,0:2|0:2,0:2:0:0:
208,272,57003,5,8,0:2:0:0:
208,272,57146,1,10,0:2:0:0:
272,212,57431,1,10,1:2:0:0:
272,212,57574,2,0,P|224:188|140:216,1,130,0|2,1:2|1:2,0:2:0:0:
152,204,58431,6,0,P|112:228|64:232,1,86.6666666666667,10|2,0:2|0:2,0:2:0:0:
28,232,58860,2,0,P|44:184|36:144,1,86.6666666666667,10|2,0:2|0:2,0:2:0:0:
16,112,59288,2,0,P|10:69|26:29,1,86.6666666666667,10|2,0:2|0:2,0:2:0:0:
68,24,59717,2,0,L|164:24,1,86.6666666666667,10|2,0:2|0:2,0:2:0:0:
184,56,60146,5,2,1:2:0:0:
108,100,60431,1,10,0:2:0:0:
108,100,60574,1,2,1:2:0:0:
232,132,61003,5,10,0:2:0:0:
156,176,61288,1,0,0:2:0:0:
156,176,61431,1,2,0:2:0:0:
284,208,61860,5,2,1:2:0:0:
312,132,62574,2,0,L|356:148,1,32.5000012397767,10|2,0:2|0:2,0:2:0:0:
368,220,63431,2,0,L|412:204,1,32.5000012397767,2|2,0:2|1:2,0:2:0:0:
424,132,64288,2,0,L|468:148,1,32.5000012397767,2|2,0:2|0:2,0:2:0:0:
480,220,64860,1,2,0:2:0:0:
432,284,65288,5,2,1:2:0:0:
480,348,65717,1,2,0:2:0:0:
411,352,66003,1,10,0:2:0:0:
411,352,66146,2,0,P|372:328|360:300,1,65.0000024795533,2|2,0:2|0:2,0:2:0:0:
360,296,66574,1,2,0:2:0:0:
320,220,67003,1,2,1:2:0:0:
276,292,67431,1,2,0:2:0:0:
312,372,67860,1,2,0:2:0:0:
312,372,68717,5,2,1:2:0:0:
253,314,69431,2,0,L|275:291,1,32.5000012397767,10|2,0:2|0:2,0:2:0:0:
204,248,70288,2,0,L|172:239,1,32.5000012397767,2|2,0:2|1:2,0:2:0:0:
164,324,71146,2,0,L|172:355,1,32.5000012397767,2|2,0:2|0:2,0:2:0:0:
80,356,71717,1,2,0:2:0:0:
92,272,72146,6,0,P|84:232|120:172,1,97.50000371933,2|2,1:2|0:2,0:2:0:0:
184,160,72860,1,10,0:2:0:0:
184,160,73003,2,0,P|160:120|132:104,1,65.0000024795533,2|2,0:2|0:2,0:2:0:0:
132,104,73431,1,2,0:2:0:0:
124,12,73860,1,2,1:2:0:0:
236,64,74288,1,2,0:2:0:0:
280,180,74717,1,2,0:2:0:0:
280,180,75574,6,0,P|327:151|357:83,1,130,2|2,1:2|0:2,0:2:0:0:
440,52,76288,1,10,1:2:0:0:
440,52,76431,2,0,P|443:111|431:147,1,86.6666666666667,2|2,0:2|0:2,0:2:0:0:
420,176,76860,1,2,1:2:0:0:
352,232,77146,5,2,0:2:0:0:
352,232,77288,2,0,P|408:264|480:240,1,130,2|2,1:2|0:2,0:2:0:0:
504,328,78003,1,10,1:2:0:0:
504,328,78146,1,2,0:2:0:0:
420,348,78431,1,2,0:2:0:0:
420,348,78574,1,2,1:2:0:0:
352,232,79003,6,0,P|308:256|228:240,1,130,2|2,1:2|0:2,0:2:0:0:
168,188,79717,1,10,1:2:0:0:
168,188,79860,2,0,P|232:156|252:160,1,86.6666666666667,2|10,0:2|0:2,0:2:0:0:
288,168,80288,1,2,1:2:0:0:
212,68,80717,6,0,P|148:84|96:136,1,130,2|2,1:2|0:2,0:2:0:0:
88,212,81431,1,10,1:2:0:0:
88,212,81574,1,2,0:2:0:0:
168,188,81860,1,2,1:2:0:0:
168,188,82003,1,2,1:2:0:0:
100,296,82431,6,0,B|128:296|152:272|152:272|184:284|200:328,1,130,2|2,1:2|0:2,0:2:0:0:
272,272,83146,1,10,1:2:0:0:
272,272,83288,2,0,L|364:308,1,86.6666666666667,2|2,0:2|0:2,0:2:0:0:
388,328,83717,2,0,P|388:280|416:244,1,86.6666666666667,2|2,1:2|0:2,0:2:0:0:
444,224,84146,6,0,L|352:188,1,86.6666666666667,2|2,1:2|0:2,0:2:0:0:
324,176,84574,1,2,0:2:0:0:
248,140,84860,1,10,1:2:0:0:
248,140,85003,1,2,0:2:0:0:
188,204,85288,1,2,0:2:0:0:
188,204,85431,1,2,1:2:0:0:
116,160,85717,5,0,0:2:0:0:
116,160,85860,1,2,1:2:0:0:
72,40,86288,2,0,P|124:28|160:40,1,86.6666666666667,10|2,0:2|0:2,0:2:0:0:
200,40,86717,2,0,P|241:49|282:37,1,86.6666666666667,2|0,1:2|0:2,0:2:0:0:
324,48,87146,2,0,B|352:56|388:44|388:44|424:32|452:44|452:44,1,130,10|2,0:2|1:2,0:2:0:0:
420,124,87860,5,2,0:2:0:0:
420,124,88003,2,0,B|416:148|416:148|424:176|424:176|420:216,1,86.6666666666667,10|0,0:2|0:2,0:2:0:0:
416,252,88431,1,2,1:2:0:0:
444,332,88717,5,2,0:2:0:0:
444,332,88860,2,0,P|384:328|332:264,1,130,10|2,0:2|1:2,0:2:0:0:
272,340,89574,1,2,0:2:0:0:
272,340,89717,2,0,P|224:336|184:340,1,86.6666666666667,2|10,0:2|0:2,0:2:0:0:
152,368,90146,2,0,P|168:320|128:228,1,130,2|2,1:2|0:2,0:2:0:0:
88,308,90860,6,0,L|40:312,1,43.3333333333333,0|2,0:2|1:2,0:2:0:0:
64,228,91288,1,0,0:2:0:0:
64,228,91431,2,0,P|100:176|180:168,2,130,2|2|2,0:2|1:2|0:2,0:2:0:0:
145,246,92574,6,0,P|167:247|189:246,1,43.3333333333333,0|2,0:2|1:2,0:2:0:0:
244,180,93003,1,2,0:2:0:0:
244,180,93146,2,0,P|244:132|212:96,1,86.6666666666667,2|10,0:2|0:2,0:2:0:0:
192,72,93574,2,0,P|256:64|324:40,1,130,2|2,1:2|0:2,0:2:0:0:
396,4,94288,5,0,0:2:0:0:
396,4,94431,2,0,P|404:60|384:100,1,86.6666666666667,2|2,1:2|0:2,0:2:0:0:
428,116,94860,2,0,P|396:180|416:244,1,130,2|2,0:2|1:2,0:2:0:0:
464,304,95574,1,0,0:2:0:0:
464,304,95717,2,0,P|496:240|476:176,1,130,2|2,0:2|1:2,0:2:0:0:
428,116,96431,6,0,P|402:117|380:116,1,43.3333333333333,2|2,0:2|0:2,0:2:0:0:
300,108,96860,1,10,0:2:0:0:
300,108,97003,2,0,B|264:96|232:108|232:108|192:124|160:108,1,130,2|2,1:2|0:2,0:2:0:0:
108,52,97717,5,0,0:2:0:0:
108,52,97860,1,2,1:2:0:0:
200,32,98145,1,0,0:2:0:0:
200,32,98288,2,0,P|260:20|344:36,2,130,2|2|2,0:2|1:2|0:2,0:2:0:0:
168,112,99431,5,0,0:2:0:0:
168,112,99574,1,2,1:2:0:0:
84,136,99860,1,2,0:2:0:0:
84,136,100003,2,0,P|108:176|148:196,1,86.6666666666667,2|10,0:2|0:2,0:2:0:0:
180,216,100431,2,0,P|240:192|300:216,1,130,2|2,1:2|0:2,0:2:0:0:
372,260,101146,5,0,0:2:0:0:
372,260,101288,2,0,P|384:208|372:176,1,86.6666666666667,2|2,1:2|0:2,0:2:0:0:
356,136,101717,2,0,P|415:158|474:134,1,130,2|2,0:2|1:2,0:2:0:0:
416,72,102431,1,0,0:2:0:0:
416,72,102574,1,2,0:2:0:0:
296,24,103003,6,0,B|232:36|232:36|168:24,1,130,2|2,1:2|0:2,0:2:0:0:
140,104,103717,1,10,0:2:0:0:
140,104,103860,2,0,L|272:132,1,130,2|2,1:2|0:2,0:2:0:0:
236,212,104574,5,2,0:2:0:0:
236,212,104717,2,0,L|108:185,1,130,2|2,1:2|0:2,0:2:0:0:
56,116,105431,1,10,0:2:0:0:
56,116,105574,2,0,P|20:168|36:236,1,130,2|2,1:2|0:2,0:2:0:0:
108,276,106288,5,0,0:2:0:0:
108,276,106431,2,0,L|204:300,1,86.6666666666667,2|2,1:2|0:2,0:2:0:0:
236,304,106860,2,0,P|280:296|316:248,1,86.6666666666667,2|0,0:2|0:2,0:2:0:0:
328,228,107288,2,0,P|392:252|448:220,1,130,2|2,1:2|0:2,0:2:0:0:
384,164,108003,5,2,0:2:0:0:
384,164,108146,2,0,P|396:120|384:76,1,86.6666666666667,2|2,1:2|0:2,0:2:0:0:
412,44,108574,2,0,L|304:32,1,86.6666666666667,2|10,0:2|0:2,0:2:0:0:
296,68,109003,2,0,L|188:80,1,86.6666666666667,2|0,1:2|0:2,0:2:0:0:
172,60,109431,1,0,1:2:0:0:
172,60,109860,6,0,P|120:80|44:56,1,130,6|2,1:2|0:0,0:0:0:0:
24,144,110574,2,0,P|80:168|156:160,1,130,6|2,1:2|0:0,0:0:0:0:
188,152,111146,1,2,0:0:0:0:
252,92,111431,6,0,P|276:136|252:212,1,130,6|2,1:2|0:0,0:0:0:0:
220,236,112003,1,2,0:0:0:0:
188,152,112288,1,6,1:2:0:0:
256,192,112431,12,0,115003,0:2:0:0:
275,117,115431,6,0,P|255:142|255:162,2,43.3333333333333,2|2|2,1:2|0:0|0:0,0:0:0:0:
193,194,115860,2,0,P|230:223|286:218,1,86.6666666666667,2|2,1:2|0:2,0:2:0:0:
336,258,116288,2,0,P|343:210|310:164,1,86.6666666666667,2|2,1:2|0:2,0:2:0:0:
253,152,116717,5,6,1:2:0:0:
