osu file format v14

[General]
AudioFilename: audio.mp3
AudioLeadIn: 0
PreviewTime: 40102
Countdown: 0
SampleSet: Normal
StackLeniency: 1
Mode: 1
LetterboxInBreaks: 0
WidescreenStoryboard: 0

[Editor]
DistanceSpacing: 0.8
BeatDivisor: 4
GridSize: 32
TimelineZoom: 2.4

[Metadata]
Title:Jingle Bells No. 765
TitleUnicode:ジングルベル第765番
Artist:Keino Yuriko, Masubuchi Yuuji
ArtistUnicode:慶野由利子, 増渕裕二
Creator:Aljotzi
Version:Inner Oni
Source:太鼓の達人
Tags:arc arcpotato hac hivie davidminh davidminh0111 Taiko no Tatsujin Video Game Instrumental Novelty Christmas Folk キミドリver. kimidori yellow-green ホワイトver. white レッドver. red ブルーver. blue グリーンver. green ニジイロver. nijiiro rainbow ver. version どんとかつの時空大冒険 don to katsu no jikuu dai bouken don and kat's space-time adventure nintendo 3ds ドカッ!と大盛り七代目 doka! to oumori shichidaime boom! and large serving seventh 7th generation ps2 playstation 2 Nintendo Switchば~じょん! nintendo switch version! Pop Tap Beat Apple Arcade iOS iPhone iPad 太鼓の達人Wii 決定版 Wii Ketteihan Definitive Version 太鼓の達人プラス★新曲取り放題! Plus*Shinkyoku Torihoudai! Plus*New Songs All-You-Can-Take!
BeatmapID:3862427
BeatmapSetID:1876784

[Difficulty]
HPDrainRate:5
CircleSize:2
OverallDifficulty:6.5
ApproachRate:7
SliderMultiplier:1.4
SliderTickRate:1

[Events]
//Background and Video events
0,0,"Masubuchi Yuuji - Jingle Bells 765 Version - Background.png",0,-50
//Break Periods
//Storyboard Layer 0 (Background)
//Storyboard Layer 1 (Fail)
//Storyboard Layer 2 (Pass)
//Storyboard Layer 3 (Foreground)
//Storyboard Layer 4 (Overlay)
//Storyboard Sound Samples

[TimingPoints]
514,428.571428571429,4,1,0,50,1,0
2228,428.571428571429,5,1,0,50,1,0
4370,428.571428571429,4,1,0,50,1,0
17655,-98.0392156862745,4,1,0,50,0,0
17762,-96.1538461538461,4,1,0,50,0,0
17870,-94.3396226415094,4,1,0,50,0,0
17977,-92.5925925925926,4,1,0,50,0,0
18084,-90.9090909090909,4,1,0,50,0,1
21084,-92.5925925925926,4,1,0,50,0,1
21155,-93.7445242684422,4,1,0,50,0,1
21227,-94.9423247559894,4,1,0,50,0,1
21298,-96.1538461538461,4,1,0,50,0,1
21405,-98.0392156862745,4,1,0,50,0,1
21512,-100,4,1,0,50,0,0
24512,-98.0392156862745,4,1,0,50,0,0
24584,-96.7654621735011,4,1,0,50,0,0
24655,-95.5414012738854,4,1,0,50,0,0
24727,-94.3313250362813,4,1,0,50,0,0
24834,-92.5885958475418,4,1,0,50,0,0
24941,-90.9090909090909,4,1,0,50,0,1
27941,-92.5925925925926,4,1,0,50,0,1
28012,-93.7418057862075,4,1,0,50,0,1
28084,-94.9367088607595,4,1,0,50,0,1
28155,-96.1452263558942,4,1,0,50,0,1
28262,-98.0257746092679,4,1,0,50,0,1
28370,-100,4,1,0,50,0,0
53655,-98.0392156862745,4,1,0,50,0,0
53762,-96.1538461538461,4,1,0,50,0,0
53870,-94.3396226415094,4,1,0,50,0,0
53977,-92.5925925925926,4,1,0,50,0,0
54084,-90.9090909090909,4,1,0,50,0,1
57084,-92.5925925925926,4,1,0,50,0,1
57155,-93.7445242684422,4,1,0,50,0,1
57227,-94.9423247559894,4,1,0,50,0,1
57298,-96.1538461538461,4,1,0,50,0,1
57405,-98.0392156862745,4,1,0,50,0,1
57512,-100,4,1,0,50,0,0
60512,-98.0392156862745,4,1,0,50,0,0
60584,-96.7654621735011,4,1,0,50,0,0
60655,-95.5414012738854,4,1,0,50,0,0
60727,-94.3313250362813,4,1,0,50,0,0
60834,-92.5885958475418,4,1,0,50,0,0
60941,-90.9090909090909,4,1,0,50,0,1
63941,-92.5925925925926,4,1,0,50,0,1
64012,-93.7418057862075,4,1,0,50,0,1
64084,-94.9367088607595,4,1,0,50,0,1
64155,-96.1452263558942,4,1,0,50,0,1
64262,-98.0257746092679,4,1,0,50,0,1
64370,-100,4,1,0,50,0,0

[HitObjects]
202,199,514,5,8,0:0:0:0:
202,199,728,1,8,0:0:0:0:
202,199,942,1,8,0:0:0:0:
202,199,1371,1,8,0:0:0:0:
202,199,1585,1,8,0:0:0:0:
202,199,1799,1,8,0:0:0:0:
202,199,2228,1,0,0:0:0:0:
202,199,2442,1,8,0:0:0:0:
202,199,2656,1,0,0:0:0:0:
202,199,2870,1,0,0:0:0:0:
202,199,2978,1,8,0:0:0:0:
202,199,4156,1,0,0:0:0:0:
202,199,4263,1,0,0:0:0:0:
202,199,4370,1,0,0:0:0:0:
202,199,4584,1,8,0:0:0:0:
202,199,4798,1,0,0:0:0:0:
202,199,5012,1,0,0:0:0:0:
202,199,5227,1,8,0:0:0:0:
202,199,5870,1,8,0:0:0:0:
202,199,5977,1,8,0:0:0:0:
202,199,6084,1,8,0:0:0:0:
202,199,6298,1,8,0:0:0:0:
202,199,6512,1,0,0:0:0:0:
202,199,6727,1,8,0:0:0:0:
202,199,6941,1,0,0:0:0:0:
202,199,7584,1,0,0:0:0:0:
202,199,7691,1,0,0:0:0:0:
202,199,7798,1,0,0:0:0:0:
202,199,8012,1,8,0:0:0:0:
202,199,8227,1,8,0:0:0:0:
202,199,8441,1,0,0:0:0:0:
202,199,8655,1,8,0:0:0:0:
202,199,9298,1,8,0:0:0:0:
202,199,9405,1,8,0:0:0:0:
202,199,9512,1,8,0:0:0:0:
202,199,9727,1,8,0:0:0:0:
202,199,9941,1,0,0:0:0:0:
202,199,10155,1,0,0:0:0:0:
202,199,10370,1,8,0:0:0:0:
195,196,10441,1,8,0:0:0:0:
195,196,10512,1,8,0:0:0:0:
195,196,10584,1,0,0:0:0:0:
202,199,10691,1,8,0:0:0:0:
202,199,10798,1,0,0:0:0:0:
202,199,11012,1,0,0:0:0:0:
202,199,11120,1,0,0:0:0:0:
202,199,11227,1,0,0:0:0:0:
202,199,11441,1,8,0:0:0:0:
202,199,11655,1,8,0:0:0:0:
202,199,11870,1,0,0:0:0:0:
202,199,12084,1,0,0:0:0:0:
202,199,12727,1,8,0:0:0:0:
202,199,12834,1,8,0:0:0:0:
202,199,12941,1,8,0:0:0:0:
202,199,13155,1,0,0:0:0:0:
202,199,13370,1,8,0:0:0:0:
202,199,13584,1,0,0:0:0:0:
202,199,13798,1,8,0:0:0:0:
202,199,14441,1,0,0:0:0:0:
202,199,14548,1,0,0:0:0:0:
202,199,14655,1,0,0:0:0:0:
202,199,14870,1,8,0:0:0:0:
202,199,15084,1,0,0:0:0:0:
202,199,15298,1,0,0:0:0:0:
202,199,15512,1,8,0:0:0:0:
202,199,15727,1,8,0:0:0:0:
202,199,15941,1,8,0:0:0:0:
202,199,16262,1,0,0:0:0:0:
202,199,16370,1,8,0:0:0:0:
202,199,16584,1,8,0:0:0:0:
202,199,16798,1,8,0:0:0:0:
202,199,17012,1,8,0:0:0:0:
202,199,17227,1,0,0:0:0:0:
202,199,17441,1,0,0:0:0:0:
202,199,17655,1,8,0:0:0:0:
202,199,17762,1,8,0:0:0:0:
202,199,17870,1,0,0:0:0:0:
202,199,17977,1,8,0:0:0:0:
202,199,18084,1,4,0:0:0:0:
202,199,18298,1,8,0:0:0:0:
202,199,18405,1,0,0:0:0:0:
202,199,18512,1,8,0:0:0:0:
202,199,18584,1,8,0:0:0:0:
202,199,18655,1,8,0:0:0:0:
202,199,18727,1,0,0:0:0:0:
202,199,18834,1,0,0:0:0:0:
202,199,18941,1,8,0:0:0:0:
202,199,19155,1,0,0:0:0:0:
202,199,19262,1,8,0:0:0:0:
202,199,19370,1,0,0:0:0:0:
202,199,19441,1,8,0:0:0:0:
202,199,19512,1,8,0:0:0:0:
202,199,19584,1,0,0:0:0:0:
202,199,19691,1,0,0:0:0:0:
202,199,19798,1,8,0:0:0:0:
202,199,20012,1,8,0:0:0:0:
202,199,20120,1,0,0:0:0:0:
202,199,20227,1,8,0:0:0:0:
202,199,20334,1,8,0:0:0:0:
202,199,20441,1,0,0:0:0:0:
202,199,20548,1,8,0:0:0:0:
202,199,20655,1,0,0:0:0:0:
202,199,20727,1,0,0:0:0:0:
202,199,20798,1,0,0:0:0:0:
202,199,20870,1,8,0:0:0:0:
202,199,20977,1,0,0:0:0:0:
202,199,21084,1,8,0:0:0:0:
202,199,21155,1,8,0:0:0:0:
202,199,21227,1,8,0:0:0:0:
202,199,21298,1,0,0:0:0:0:
202,199,21405,1,0,0:0:0:0:
202,199,21512,1,8,0:0:0:0:
202,199,21727,1,8,0:0:0:0:
202,199,21941,1,8,0:0:0:0:
202,199,22262,1,8,0:0:0:0:
202,199,22370,1,8,0:0:0:0:
202,199,22584,1,8,0:0:0:0:
202,199,22798,1,0,0:0:0:0:
202,199,23012,1,0,0:0:0:0:
202,199,23227,1,8,0:0:0:0:
202,199,23441,1,8,0:0:0:0:
202,199,23655,1,0,0:0:0:0:
202,199,23977,1,0,0:0:0:0:
202,199,24084,1,0,0:0:0:0:
202,199,24512,1,8,0:0:0:0:
202,199,24584,1,0,0:0:0:0:
202,199,24655,1,0,0:0:0:0:
202,199,24727,1,8,0:0:0:0:
202,199,24834,1,8,0:0:0:0:
202,199,24941,1,4,0:0:0:0:
202,199,25155,1,8,0:0:0:0:
202,199,25262,1,0,0:0:0:0:
202,199,25370,1,8,0:0:0:0:
202,199,25441,1,0,0:0:0:0:
202,199,25512,1,0,0:0:0:0:
202,199,25584,1,8,0:0:0:0:
202,199,25691,1,8,0:0:0:0:
202,199,25798,1,0,0:0:0:0:
202,199,26012,1,0,0:0:0:0:
202,199,26120,1,8,0:0:0:0:
202,199,26227,1,0,0:0:0:0:
202,199,26298,1,0,0:0:0:0:
202,199,26370,1,0,0:0:0:0:
202,199,26441,1,8,0:0:0:0:
202,199,26548,1,0,0:0:0:0:
202,199,26655,1,8,0:0:0:0:
202,199,26870,1,8,0:0:0:0:
202,199,26977,1,0,0:0:0:0:
202,199,27084,1,8,0:0:0:0:
202,199,27191,1,8,0:0:0:0:
202,199,27298,1,0,0:0:0:0:
202,199,27405,1,0,0:0:0:0:
202,199,27512,1,8,0:0:0:0:
202,199,27584,1,0,0:0:0:0:
202,199,27655,1,0,0:0:0:0:
202,199,27727,1,8,0:0:0:0:
202,199,27834,1,8,0:0:0:0:
202,199,27941,1,0,0:0:0:0:
202,199,28012,1,0,0:0:0:0:
202,199,28084,1,0,0:0:0:0:
202,199,28155,1,8,0:0:0:0:
202,199,28262,1,0,0:0:0:0:
202,199,28370,1,8,0:0:0:0:
202,199,28584,1,8,0:0:0:0:
202,199,28798,1,8,0:0:0:0:
202,199,29120,1,8,0:0:0:0:
202,199,29228,1,8,0:0:0:0:
202,199,29441,1,8,0:0:0:0:
202,199,29655,1,0,0:0:0:0:
202,199,29870,1,0,0:0:0:0:
202,199,30084,1,8,0:0:0:0:
202,199,30298,1,8,0:0:0:0:
202,199,30512,1,0,0:0:0:0:
202,199,30727,1,0,0:0:0:0:
202,199,30941,1,8,0:0:0:0:
202,199,31048,1,0,0:0:0:0:
202,199,31155,1,8,0:0:0:0:
202,199,31262,1,8,0:0:0:0:
202,199,31370,1,0,0:0:0:0:
202,199,31477,1,0,0:0:0:0:
202,199,31584,1,8,0:0:0:0:
202,199,31691,1,0,0:0:0:0:
202,199,31798,1,8,0:0:0:0:
202,199,32012,1,8,0:0:0:0:
202,199,32227,1,0,0:0:0:0:
202,199,32441,1,0,0:0:0:0:
202,199,32655,1,0,0:0:0:0:
202,199,32762,1,0,0:0:0:0:
202,199,32870,1,8,0:0:0:0:
202,199,32977,1,0,0:0:0:0:
202,199,33084,1,8,0:0:0:0:
202,199,33191,1,8,0:0:0:0:
202,199,33298,1,0,0:0:0:0:
202,199,33405,1,0,0:0:0:0:
202,199,33512,1,8,0:0:0:0:
202,199,33727,1,8,0:0:0:0:
202,199,33941,1,0,0:0:0:0:
202,199,34155,1,0,0:0:0:0:
202,199,34370,1,8,0:0:0:0:
202,199,34584,1,8,0:0:0:0:
202,199,34798,1,0,0:0:0:0:
202,199,35012,1,0,0:0:0:0:
202,199,35227,1,8,0:0:0:0:
202,199,35334,1,0,0:0:0:0:
202,199,35441,1,0,0:0:0:0:
202,199,35548,1,8,0:0:0:0:
202,199,35655,1,8,0:0:0:0:
202,199,35762,1,0,0:0:0:0:
202,199,35870,1,0,0:0:0:0:
202,199,35977,1,8,0:0:0:0:
202,199,36084,1,8,0:0:0:0:
202,199,36191,1,0,0:0:0:0:
202,199,36298,1,8,0:0:0:0:
202,199,36405,1,0,0:0:0:0:
202,199,36512,1,8,0:0:0:0:
202,199,36620,1,8,0:0:0:0:
202,199,36727,1,0,0:0:0:0:
202,199,36834,1,8,0:0:0:0:
202,199,36941,1,0,0:0:0:0:
202,199,40155,1,8,0:0:0:0:
202,199,40262,1,8,0:0:0:0:
202,199,40370,1,4,0:0:0:0:
202,199,40584,1,8,0:0:0:0:
202,199,40798,1,0,0:0:0:0:
202,199,41012,1,0,0:0:0:0:
202,199,41227,1,8,0:0:0:0:
202,199,41441,1,0,0:0:0:0:
202,199,41548,1,8,0:0:0:0:
202,199,41655,1,0,0:0:0:0:
202,199,41870,1,0,0:0:0:0:
202,199,41977,1,0,0:0:0:0:
202,199,42084,1,8,0:0:0:0:
202,199,42298,1,8,0:0:0:0:
202,199,42512,1,0,0:0:0:0:
202,199,42727,1,8,0:0:0:0:
202,199,42941,1,0,0:0:0:0:
202,199,43155,1,8,0:0:0:0:
202,199,43262,1,8,0:0:0:0:
202,199,43370,1,0,0:0:0:0:
202,199,43584,1,0,0:0:0:0:
202,199,43691,1,8,0:0:0:0:
202,199,43798,1,0,0:0:0:0:
202,199,44012,1,0,0:0:0:0:
202,199,44227,1,8,0:0:0:0:
202,199,44441,1,8,0:0:0:0:
202,199,44655,1,0,0:0:0:0:
202,199,44870,1,8,0:0:0:0:
202,199,44977,1,8,0:0:0:0:
202,199,45084,1,8,0:0:0:0:
202,199,45298,1,8,0:0:0:0:
202,199,45405,1,0,0:0:0:0:
202,199,45512,1,8,0:0:0:0:
202,199,45727,1,0,0:0:0:0:
202,199,45941,1,8,0:0:0:0:
202,199,46155,1,0,0:0:0:0:
202,199,46370,1,8,0:0:0:0:
202,199,46441,1,8,0:0:0:0:
202,199,46512,1,8,0:0:0:0:
202,199,46584,1,0,0:0:0:0:
202,199,46691,1,8,0:0:0:0:
202,199,46798,1,0,0:0:0:0:
202,199,47012,1,8,0:0:0:0:
202,199,47120,1,8,0:0:0:0:
202,199,47227,1,4,0:0:0:0:
202,199,47441,1,8,0:0:0:0:
202,199,47655,1,8,0:0:0:0:
202,199,47870,1,0,0:0:0:0:
202,199,48084,1,8,0:0:0:0:
202,199,48298,1,8,0:0:0:0:
202,199,48405,1,0,0:0:0:0:
202,199,48512,1,0,0:0:0:0:
202,199,48727,1,0,0:0:0:0:
202,199,48834,1,0,0:0:0:0:
202,199,48941,1,8,0:0:0:0:
202,199,49155,1,0,0:0:0:0:
202,199,49370,1,8,0:0:0:0:
202,199,49584,1,8,0:0:0:0:
202,199,49798,1,0,0:0:0:0:
202,199,50012,1,0,0:0:0:0:
202,199,50120,1,0,0:0:0:0:
202,199,50227,1,8,0:0:0:0:
202,199,50441,1,0,0:0:0:0:
202,199,50548,1,8,0:0:0:0:
202,199,50655,1,0,0:0:0:0:
202,199,50870,1,8,0:0:0:0:
202,199,51084,1,0,0:0:0:0:
202,199,51298,1,0,0:0:0:0:
202,199,51512,1,8,0:0:0:0:
202,199,51727,1,8,0:0:0:0:
202,199,51941,1,8,0:0:0:0:
202,199,52155,1,8,0:0:0:0:
202,199,52262,1,0,0:0:0:0:
202,199,52370,1,8,0:0:0:0:
202,199,52584,1,8,0:0:0:0:
202,199,52798,1,0,0:0:0:0:
202,199,53012,1,0,0:0:0:0:
202,199,53227,1,8,0:0:0:0:
202,199,53441,1,0,0:0:0:0:
202,199,53655,1,8,0:0:0:0:
202,199,53762,1,8,0:0:0:0:
202,199,53870,1,8,0:0:0:0:
202,199,53977,1,8,0:0:0:0:
202,199,54084,1,4,0:0:0:0:
202,199,54298,1,8,0:0:0:0:
202,199,54405,1,8,0:0:0:0:
202,199,54512,1,0,0:0:0:0:
202,199,54584,1,0,0:0:0:0:
202,199,54655,1,0,0:0:0:0:
202,199,54727,1,8,0:0:0:0:
202,199,54834,1,0,0:0:0:0:
202,199,54941,1,8,0:0:0:0:
202,199,55155,1,0,0:0:0:0:
202,199,55262,1,0,0:0:0:0:
202,199,55370,1,8,0:0:0:0:
202,199,55441,1,0,0:0:0:0:
202,199,55512,1,0,0:0:0:0:
202,199,55584,1,8,0:0:0:0:
202,199,55655,1,8,0:0:0:0:
202,199,55727,1,8,0:0:0:0:
202,199,55798,1,0,0:0:0:0:
202,199,56012,1,8,0:0:0:0:
202,199,56120,1,0,0:0:0:0:
202,199,56227,1,8,0:0:0:0:
202,199,56334,1,8,0:0:0:0:
202,199,56441,1,0,0:0:0:0:
202,199,56548,1,0,0:0:0:0:
202,199,56655,1,8,0:0:0:0:
202,199,56727,1,0,0:0:0:0:
202,199,56798,1,0,0:0:0:0:
202,199,56870,1,8,0:0:0:0:
202,199,56977,1,0,0:0:0:0:
202,199,57084,1,8,0:0:0:0:
202,199,57155,1,8,0:0:0:0:
202,199,57227,1,8,0:0:0:0:
202,199,57298,1,0,0:0:0:0:
202,199,57405,1,0,0:0:0:0:
202,199,57512,1,12,0:0:0:0:
202,199,57727,1,8,0:0:0:0:
202,199,57941,1,8,0:0:0:0:
202,199,58262,1,8,0:0:0:0:
202,199,58369,1,8,0:0:0:0:
202,199,58584,1,8,0:0:0:0:
202,199,58798,1,0,0:0:0:0:
202,199,59012,1,0,0:0:0:0:
202,199,59227,1,8,0:0:0:0:
202,199,59441,1,0,0:0:0:0:
202,199,59655,1,8,0:0:0:0:
202,199,59977,1,0,0:0:0:0:
202,199,60084,1,8,0:0:0:0:
202,199,60512,1,8,0:0:0:0:
202,199,60584,1,0,0:0:0:0:
202,199,60655,1,0,0:0:0:0:
202,199,60727,1,8,0:0:0:0:
202,199,60834,1,8,0:0:0:0:
202,199,60941,1,4,0:0:0:0:
202,199,61155,1,8,0:0:0:0:
202,199,61262,1,8,0:0:0:0:
202,199,61370,1,0,0:0:0:0:
202,199,61441,1,0,0:0:0:0:
202,199,61512,1,0,0:0:0:0:
202,199,61584,1,8,0:0:0:0:
202,199,61691,1,0,0:0:0:0:
202,199,61798,1,8,0:0:0:0:
202,199,62012,1,0,0:0:0:0:
202,199,62120,1,0,0:0:0:0:
202,199,62227,1,8,0:0:0:0:
202,199,62298,1,8,0:0:0:0:
202,199,62370,1,0,0:0:0:0:
202,199,62441,1,8,0:0:0:0:
202,199,62512,1,0,0:0:0:0:
202,199,62584,1,0,0:0:0:0:
202,199,62655,1,8,0:0:0:0:
202,199,62870,1,8,0:0:0:0:
202,199,62977,1,0,0:0:0:0:
202,199,63084,1,8,0:0:0:0:
202,199,63191,1,8,0:0:0:0:
202,199,63298,1,0,0:0:0:0:
202,199,63405,1,8,0:0:0:0:
202,199,63512,1,0,0:0:0:0:
202,199,63584,1,0,0:0:0:0:
202,199,63655,1,0,0:0:0:0:
202,199,63727,1,8,0:0:0:0:
202,199,63834,1,0,0:0:0:0:
202,199,63941,1,8,0:0:0:0:
202,199,64012,1,8,0:0:0:0:
202,199,64084,1,8,0:0:0:0:
202,199,64155,1,0,0:0:0:0:
202,199,64262,1,0,0:0:0:0:
202,199,64370,1,12,0:0:0:0:
202,199,64584,1,8,0:0:0:0:
202,199,64798,1,8,0:0:0:0:
202,199,65120,1,8,0:0:0:0:
202,199,65227,1,8,0:0:0:0:
202,199,65441,1,8,0:0:0:0:
202,199,65655,1,0,0:0:0:0:
202,199,65870,1,0,0:0:0:0:
202,199,66084,1,8,0:0:0:0:
202,199,66298,1,8,0:0:0:0:
202,199,66512,1,0,0:0:0:0:
202,199,66727,1,8,0:0:0:0:
202,199,66941,1,0,0:0:0:0:
202,199,67048,1,0,0:0:0:0:
202,199,67155,1,8,0:0:0:0:
202,199,67262,1,0,0:0:0:0:
202,199,67370,1,8,0:0:0:0:
202,199,67477,1,8,0:0:0:0:
202,199,67584,1,0,0:0:0:0:
202,199,67691,1,8,0:0:0:0:
202,199,67798,1,0,0:0:0:0:
202,199,68012,1,8,0:0:0:0:
202,199,68227,1,0,0:0:0:0:
202,199,68441,1,0,0:0:0:0:
202,199,68655,1,8,0:0:0:0:
202,199,68762,1,0,0:0:0:0:
202,199,68870,1,8,0:0:0:0:
202,199,68977,1,8,0:0:0:0:
202,199,69084,1,0,0:0:0:0:
202,199,69191,1,0,0:0:0:0:
202,199,69298,1,8,0:0:0:0:
202,199,69405,1,0,0:0:0:0:
202,199,69512,1,8,0:0:0:0:
202,199,69727,1,8,0:0:0:0:
202,199,69834,1,0,0:0:0:0:
202,199,69941,1,8,0:0:0:0:
202,199,70155,1,0,0:0:0:0:
202,199,70370,1,8,0:0:0:0:
202,199,70584,1,0,0:0:0:0:
202,199,70691,1,0,0:0:0:0:
202,199,70798,1,8,0:0:0:0:
202,199,71012,1,0,0:0:0:0:
202,199,71227,1,8,0:0:0:0:
202,199,71334,1,8,0:0:0:0:
202,199,71441,1,0,0:0:0:0:
202,199,71548,1,8,0:0:0:0:
202,199,71655,1,8,0:0:0:0:
202,199,71762,1,0,0:0:0:0:
202,199,71870,1,0,0:0:0:0:
202,199,71977,1,8,0:0:0:0:
202,199,72084,1,8,0:0:0:0:
202,199,72191,1,0,0:0:0:0:
202,199,72298,1,8,0:0:0:0:
202,199,72405,1,0,0:0:0:0:
202,199,72512,1,8,0:0:0:0:
202,199,72620,1,8,0:0:0:0:
202,199,72727,1,0,0:0:0:0:
202,199,72834,1,0,0:0:0:0:
202,199,72941,1,12,0:0:0:0:
