osu file format v14

[General]
AudioFilename: audio.mp3
AudioLeadIn: 0
PreviewTime: 28796
Countdown: 1
SampleSet: Soft
StackLeniency: 0.5
Mode: 0
LetterboxInBreaks: 0
WidescreenStoryboard: 1

[Editor]
Bookmarks: 3396,11596,14796,17996,21196,25996,28796,31996,47996,48796,53396,60596,66996,133796
DistanceSpacing: 1
BeatDivisor: 4
GridSize: 8
TimelineZoom: 3.599998

[Metadata]
Title:Rendezvous
TitleUnicode:Rendezvous
Artist:Keiki Kobayashi
ArtistUnicode:Keiki Kobayashi
Creator:Newtech66
Version:Ghost
Source:Ace Combat 5:The Unsung War
Tags:video-game ace-combat
BeatmapID:4005087
BeatmapSetID:770162

[Difficulty]
HPDrainRate:6
CircleSize:4
OverallDifficulty:8
ApproachRate:9
SliderMultiplier:2
SliderTickRate:1

[Events]
//Background and Video events
0,0,"Ace_combat_5_the_unsung_war_2.jpg",0,0
//Break Periods
//Storyboard Layer 0 (Background)
//Storyboard Layer 1 (Fail)
//Storyboard Layer 2 (Pass)
//Storyboard Layer 3 (Foreground)
//Storyboard Layer 4 (Overlay)
//Storyboard Sound Samples

[TimingPoints]
396,400,4,2,0,10,1,0
396,-100,4,2,0,10,0,0
2796,-83.3333333333333,4,2,0,10,0,0
3596,-100,4,2,0,10,0,0
5996,-71.4285714285714,4,2,0,10,0,0
6796,-100,4,2,0,10,0,0
9196,-62.5,4,2,0,10,0,0
9796,-55.5555555555556,4,2,0,10,0,0
9996,-62.5,4,2,0,10,0,0
10396,-55.5555555555556,4,2,0,10,0,0
10596,-62.5,4,2,0,10,0,0
10996,-55.5555555555556,4,2,0,10,0,0
11196,-62.5,4,2,0,10,0,0
11596,-83.3333333333333,4,2,0,10,0,0
13996,-50,4,2,0,10,0,0
14796,-83.3333333333333,4,2,0,10,0,0
17196,-45.4545454545455,4,2,0,10,0,0
17996,-83.3333333333333,4,2,0,10,0,0
18796,-62.5,4,2,0,10,0,0
19596,-55.5555555555556,4,2,0,10,0,0
20396,-45.4545454545455,4,2,0,10,0,0
21396,-83.3333333333333,4,2,0,10,0,0
21596,-45.4545454545455,4,2,0,10,0,0
22596,-41.6666666666667,4,2,0,10,0,0
22796,-50,4,2,0,10,0,0
25196,-38.4615384615385,4,2,0,10,0,0
25996,-62.5,4,2,0,10,0,0
27396,-45.4545454545455,4,2,0,10,0,0
27596,-35.7142857142857,4,2,0,10,0,0
28796,-50,4,2,0,10,0,0

[Colours]
Combo1 : 192,192,192
Combo2 : 35,130,245

[HitObjects]
65,191,396,6,0,L|98:120,1,50
97,58,596,1,0,0:0:0:0:
190,93,796,1,0,0:0:0:0:
288,76,996,1,0,0:0:0:0:
379,36,1196,2,0,B|395:87|395:87|387:153,1,100
389,133,1496,2,0,B|373:184|373:184|381:250,1,100
378,230,1796,1,0,0:0:0:0:
84,318,2196,1,0,0:0:0:0:
183,301,2396,1,0,0:0:0:0:
277,336,2596,1,0,0:0:0:0:
233,209,2796,6,0,L|104:221,1,119.999996337891
0,142,3096,2,0,L|138:132,1,119.999996337891
238,48,3396,2,0,L|158:58,1,59.9999981689454
98,66,3596,1,0,0:0:0:0:
330,84,3796,1,0,0:0:0:0:
376,172,3996,1,0,0:0:0:0:
345,267,4196,1,0,0:0:0:0:
240,358,4396,2,0,B|189:342|189:342|123:350,1,100
143,348,4696,2,0,B|92:364|92:364|26:356,1,100
46,359,4996,1,0,0:0:0:0:
148,64,5396,1,0,0:0:0:0:
175,161,5596,1,0,0:0:0:0:
139,255,5796,1,0,0:0:0:0:
421,350,5996,6,0,L|412:205,1,139.999995727539
327,102,6296,2,0,L|336:247,1,139.999995727539
263,355,6596,2,0,L|258:272,1,69.9999978637696
252,209,6796,1,0,0:0:0:0:
45,135,6996,1,0,0:0:0:0:
132,186,7196,1,0,0:0:0:0:
178,276,7396,1,0,0:0:0:0:
295,379,7596,2,0,B|346:363|346:363|412:371,1,100
392,369,7896,2,0,B|443:385|443:385|509:377,1,100
489,380,8196,1,0,0:0:0:0:
306,205,8596,1,0,0:0:0:0:
208,180,8796,1,0,0:0:0:0:
113,211,8996,1,0,0:0:0:0:
277,332,9196,6,0,L|453:319,1,160
512,224,9496,2,0,L|336:237,1,160
199,169,9796,2,0,B|244:146|244:146|308:162,2,89.9999972534181
113,211,10196,1,0,0:0:0:0:
354,230,10396,2,0,B|367:273|367:273|361:339,2,89.9999972534181
282,155,10796,1,0,0:0:0:0:
261,353,10996,2,0,B|217:360|217:360|152:360,2,89.9999972534181
118,292,11396,2,0,L|112:211,1,80
105,134,11596,5,0,0:0:0:0:
421,92,11796,1,0,0:0:0:0:
302,79,11996,1,0,0:0:0:0:
183,69,12196,1,0,0:0:0:0:
354,174,12396,2,0,B|294:179|294:179|234:158,1,119.999996337891
237,159,12696,2,0,B|179:142|179:142|116:151,1,119.999996337891
119,151,12996,1,0,0:0:0:0:
332,366,13396,1,0,0:0:0:0:
359,249,13596,1,0,0:0:0:0:
383,132,13796,1,0,0:0:0:0:
175,320,13996,6,0,L|223:116,1,200
323,63,14296,2,0,L|275:267,1,200
334,349,14596,2,0,L|363:243,1,100
380,174,14796,1,0,0:0:0:0:
72,109,14996,1,0,0:0:0:0:
188,80,15196,1,0,0:0:0:0:
305,53,15396,1,0,0:0:0:0:
461,124,15596,2,0,B|466:184|466:184|445:244,1,119.999996337891
446,241,15896,2,0,B|429:299|429:299|438:362,1,119.999996337891
235,177,16196,1,0,0:0:0:0:
308,214,16296,2,0,L|251:185,1,59.9999981689454
117,66,16596,1,0,0:0:0:0:
222,121,16796,1,0,0:0:0:0:
327,180,16996,1,0,0:0:0:0:
172,247,17196,6,0,L|403:333,1,220.000006713867
488,284,17496,2,0,L|281:207,1,220.000006713867
198,93,17796,2,0,L|314:137,1,110.000003356934
425,177,17996,5,0,0:0:0:0:
264,350,18196,1,0,0:0:0:0:
231,235,18396,1,0,0:0:0:0:
194,120,18596,1,0,0:0:0:0:
338,193,18796,2,0,B|325:223|325:223|332:248|332:248|323:277,1,80
262,162,19096,1,0,0:0:0:0:
262,162,19396,2,0,B|269:142|269:142|262:117|262:117|275:87,1,80
417,152,19596,2,0,P|368:132|320:126,1,89.9999972534181
250,250,19796,2,0,P|262:199|261:151,1,89.9999972534181,0|0,2:0|2:0,2:0:0:0:
110,166,19996,2,0,P|159:151|201:126,1,89.9999972534181,0|0,2:0|2:0,2:0:0:0:
274,0,20196,2,0,P|261:50|262:98,1,89.9999972534181,0|0,2:0|2:0,2:0:0:0:
372,234,20396,6,0,P|239:247|138:231,1,220.000006713867
44,162,20696,2,0,P|152:148|261:160,1,220.000006713867
372,234,20996,2,0,P|313:245|237:243,1,110.000003356934
84,211,21196,1,0,0:0:0:0:
222,366,21396,1,0,0:0:0:0:
233,306,21496,1,0,0:0:0:0:
213,252,21596,2,0,P|272:255|348:244,1,110.000003356934
414,196,21796,1,0,0:0:0:0:
414,196,22196,1,0,0:0:0:0:
414,196,22596,2,0,P|357:189|279:195,1,119.999996337891
113,296,22796,5,0,0:0:0:0:
120,301,22896,2,0,P|145:228|144:188,1,100
34,93,23096,1,0,0:0:0:0:
31,85,23196,2,0,P|101:116|130:144,1,100
168,193,23396,2,0,P|176:269|166:308,1,100
303,301,23596,2,0,P|308:252|330:207,1,100
363,178,23796,1,0,0:0:0:0:
378,85,23896,1,0,0:0:0:0:
301,44,23996,1,0,0:0:0:0:
301,44,24196,1,0,0:0:0:0:
293,103,24296,1,0,0:0:0:0:
293,162,24396,2,0,L|317:285,1,100
385,340,24596,2,0,P|414:295|429:244,1,100
240,337,24796,2,0,P|211:292|196:241,1,100
307,215,24996,2,0,L|307:115,1,100
58,225,25196,6,0,B|254:189|254:189|179:157,1,259.999988098145
436,69,25496,2,0,B|240:105|240:105|315:137,1,259.999988098145
64,67,25796,2,0,B|171:78|171:78|134:107,1,129.999994049073
83,205,25996,5,0,0:0:0:0:
86,252,26096,1,0,0:0:0:0:
92,299,26196,2,0,P|124:332|169:362,1,80
446,235,26396,2,0,P|448:189|438:136,1,80
420,85,26596,2,0,P|388:52|343:22,1,80
126,69,26796,2,0,P|178:87|212:107,1,80
396,335,27096,2,0,P|344:317|310:297,1,80
290,231,27296,1,0,0:0:0:0:
178,119,27396,6,0,P|229:152|285:141,1,110.000003356934
346,108,27596,6,0,P|229:254|93:176,1,279.999991455078
196,226,27896,2,0,P|374:170|443:311,1,279.999991455078
379,212,28196,2,0,P|263:65|369:-49,1,279.999991455078
387,104,28496,2,0,L|392:146,10,34.9999989318848
266,275,28796,6,0,P|238:229|234:169,1,100
243,83,28996,1,0,0:0:0:0:
332,37,29096,1,0,0:0:0:0:
407,102,29196,1,0,0:0:0:0:
