osu file format v14

[General]
AudioFilename: audio.mp3
AudioLeadIn: 0
PreviewTime: 58555
Countdown: 0
SampleSet: Soft
StackLeniency: 0.4
Mode: 0
LetterboxInBreaks: 0
WidescreenStoryboard: 1

[Editor]
Bookmarks: 95464
DistanceSpacing: 0.4
BeatDivisor: 4
GridSize: 32
TimelineZoom: 1.5

[Metadata]
Title:Like an Angel (Chinese TV Ver.)
TitleUnicode:Like an Angel (Chinese TV Ver.)
Artist:Keikaku Tsuukou
ArtistUnicode:計畫通行
Creator:KaedeharaKazuha
Version:Easy
Source:Like an Angel
Tags:Addy2607 Kaedehara Kazuha intiaz inti Nyantiaz Kyouren gokugohan12468 KittyAdventure video game ost original soundtrack VN visual novel eroge Yaoi やおい gay homosexual Shounen Shonen Shōnen Ai 少年愛 Boys Boys' Love BL op opening intro theme song short chinese version ver. ver rock jihua tongxing JI HUA TONG XING
BeatmapID:3642000
BeatmapSetID:1776762

[Difficulty]
HPDrainRate:2
CircleSize:2.5
OverallDifficulty:2
ApproachRate:3
SliderMultiplier:0.899999999999999
SliderTickRate:1

[Events]
//Background and Video events
0,0,"Main BG.jpg",0,0
Video,-940,"video.mp4"
//Break Periods
//Storyboard Layer 0 (Background)
//Storyboard Layer 1 (Fail)
//Storyboard Layer 2 (Pass)
//Storyboard Layer 3 (Foreground)
//Storyboard Layer 4 (Overlay)
//Storyboard Sound Samples

[TimingPoints]
919,363.636363636364,4,2,10,50,1,0
919,-100,4,2,10,50,0,0
1100,-100,4,2,11,50,0,0
1282,-100,4,2,12,50,0,0
1464,-100,4,2,13,50,0,0
1828,-100,4,2,1,50,0,0
2009,-100,4,2,14,50,0,0
2191,-100,4,2,15,50,0,0
2373,-100,4,2,14,50,0,0
2555,-100,4,2,16,50,0,0
3646,-100,4,2,1,50,0,0
3828,-100,4,2,17,50,0,0
4009,-100,4,2,11,50,0,0
4191,-100,4,2,18,50,0,0
4373,-100,4,2,19,50,0,0
4737,-100,4,2,1,50,0,0
4919,-100,4,2,14,50,0,0
5100,-100,4,2,15,50,0,0
5282,-100,4,2,14,50,0,0
5464,-100,4,2,16,50,0,0
6555,-100,4,2,1,50,0,0
6737,-100,4,2,20,50,0,0
6919,-100,4,2,21,50,0,0
7100,-100,4,2,22,50,0,0
7282,-100,4,2,23,50,0,0
7646,-100,4,2,1,50,0,0
7828,-100,4,2,14,50,0,0
8009,-100,4,2,15,50,0,0
8191,-100,4,2,24,50,0,0
8373,-100,4,2,25,50,0,0
8737,-100,4,2,26,50,0,0
8919,-100,4,2,27,50,0,0
9100,-100,4,2,28,50,0,0
9282,-100,4,2,29,50,0,0
9464,-100,4,2,30,50,0,0
9646,-100,4,2,10,50,0,0
9828,-100,4,2,11,50,0,0
10009,-100,4,2,31,50,0,0
10191,-100,4,2,32,50,0,0
10373,-100,4,2,33,50,0,0
10555,-100,4,2,34,50,0,0
10737,-100,4,2,35,50,0,0
10919,-100,4,2,36,50,0,0
11828,-100,4,2,37,50,0,0
12191,-100,4,2,1,50,0,0
12540,379.746835443038,4,2,1,50,1,0
12540,-97.799511002445,4,2,1,50,0,0
12919,363.636363636364,4,2,1,50,1,0
12919,-100,4,2,1,50,0,0
13828,-103.199174406605,4,2,1,50,0,0
14009,363.636363636364,4,2,1,50,1,0
14009,-100,4,2,1,50,0,0
15141,337.078651685394,4,2,1,50,1,0
15141,-100,4,2,1,50,0,0
15478,363.636363636364,4,2,1,50,1,0
15478,-100,4,2,1,50,0,0
18023,289.855072463768,4,2,1,50,1,0
18023,-100,4,2,1,50,0,0
18167,363.636363636364,4,2,1,50,1,0
18167,-100,4,2,1,50,0,0
18348,363.636363636364,4,2,1,50,1,0
18348,-100,4,2,1,50,0,0
22359,368.098159509202,4,2,1,50,1,0
22359,-100,4,2,1,50,0,0
23463,363.636363636364,4,2,1,50,1,0
23463,-100,4,2,1,50,0,0
24170,363.636363636364,4,2,10,50,1,0
24170,-100,4,2,1,60,0,0
35806,-100,4,2,2,50,0,0
47442,-100,4,2,1,60,0,0
53260,-100,4,2,1,70,0,0
56170,-100,4,2,1,75,0,0
59079,-100,4,2,1,85,0,1
79442,-100,4,2,1,90,0,1
82388,363.636363636364,4,2,10,50,1,0
82388,-100,4,2,1,50,0,0
92388,-100,4,2,1,50,0,0
95478,-100,4,2,1,5,0,0

[Colours]
Combo1 : 255,164,72
Combo2 : 43,48,255
Combo3 : 18,124,255
Combo4 : 235,14,47

[HitObjects]
20,57,919,6,0,P|72:17|172:77,1,180,2|0,0:0|0:0,0:0:0:0:
205,141,2009,2,0,P|199:213|193:285,1,135,2|2,0:0|0:0,0:0:0:0:
194,275,3828,6,0,P|269:260|376:265,1,180,2|0,0:0|0:0,0:0:0:0:
455,231,4919,2,0,P|489:196|463:118,1,135,2|2,0:0|0:0,0:0:0:0:
466,120,6737,6,0,P|369:127|276:146,1,180,2|0,0:0|0:0,0:0:0:0:
224,79,7828,2,0,P|185:44|110:74,1,135,2|2,0:0|0:0,0:0:0:0:
23,170,8919,1,2,0:0:0:0:
23,170,9282,1,2,0:0:0:0:
92,227,9646,6,0,P|85:283|81:325,2,89.9999999999999,2|2|2,0:0|0:0|0:0,0:0:0:0:
172,118,10919,2,0,B|216:74|276:119|259:142|305:210|371:164,1,225,2|2,0:0|0:0,0:0:0:0:
504,56,12540,6,0,P|502:118|497:250,1,180,4|2,3:2|0:0,0:0:0:0:
495,353,13828,2,0,P|390:285|214:353,1,315,2|2,0:0|0:0,0:0:0:0:
130,337,15478,6,0,P|49:299|71:179,1,225,0|2,0:0|0:0,0:0:0:0:
141,129,16750,2,0,P|198:138|283:164,1,135,2|2,0:0|0:0,0:0:0:0:
439,228,18023,1,2,0:0:0:0:
496,160,18348,6,0,P|487:101|473:18,2,135,0|2|2,3:0|0:0|0:0,0:0:0:0:
439,228,19802,2,0,P|430:287|416:370,2,135,0|2|0,3:0|0:0|0:0,0:0:0:0:
373,165,21257,6,0,P|326:172|270:190,1,89.9999999999999,2|2,3:2|0:0,0:0:0:0:
216,126,21984,1,2,3:2:0:0:
140,178,22359,2,0,P|69:197|73:53,1,270,6|0,3:2|0:0,0:0:0:0:
239,18,24170,6,0,P|296:23|334:28,1,89.9999999999999,4|2,3:2|3:2,0:0:0:0:
417,43,24898,2,0,P|406:132|401:192,1,135,2|2,3:2|0:0,0:0:0:0:
475,229,25807,2,0,P|507:281|468:348,1,135,2|2,0:0|3:0,0:0:0:0:
388,358,26716,1,2,3:0:0:0:
298,345,27079,6,0,P|234:341|158:335,1,135,2|2,3:0|0:0,0:0:0:0:
109,263,27988,1,2,0:0:0:0:
181,208,28352,2,0,P|244:211|320:217,1,135,2|2,0:0|3:2,0:0:0:0:
387,162,29261,1,2,3:0:0:0:
331,90,29625,1,2,3:0:0:0:
396,28,29988,6,0,P|448:7|509:59,2,135,4|2|2,3:2|0:0|3:2,0:0:0:0:
331,90,31443,2,0,P|241:75|188:69,1,135,0|2,3:0|0:0,0:0:0:0:
75,12,32534,1,2,3:0:0:0:
12,77,32898,6,0,P|19:129|25:180,1,89.9999999999999,6|2,3:2|3:2,0:0:0:0:
2,253,33625,1,2,3:2:0:0:
74,305,33988,2,0,P|144:264|239:309,1,180,6|8,3:2|0:3,0:0:0:0:
286,368,35079,1,8,3:2:0:0:
445,283,35807,6,0,P|441:189|431:93,1,180,6|2,3:2|3:2,0:0:0:0:
360,49,36898,1,2,0:0:0:0:
298,114,37261,2,0,P|301:164|305:223,2,89.9999999999999,0|8|0,3:0|0:0|3:0,0:0:0:0:
242,43,38352,1,2,0:0:0:0:
165,90,38716,6,0,P|114:61|33:87,2,135,2|2|2,3:2|3:2|0:0,0:0:0:0:
242,43,40170,2,0,P|311:36|347:34,1,89.9999999999999,2|8,3:2|0:0,0:0:0:0:
412,74,40898,2,0,P|419:142|421:179,1,89.9999999999999,0|2,3:0|0:0,0:0:0:0:
488,222,41625,6,0,P|514:255|497:350,2,135,2|2|0,3:2|3:2|0:0,0:0:0:0:
420,163,43079,2,0,P|361:171|313:180,1,89.9999999999999,0|8,3:0|0:0,0:0:0:0:
241,190,43807,1,0,3:0:0:0:
69,134,44534,6,0,P|71:81|74:-6,2,135,2|2|0,3:2|3:2|0:0,0:0:0:0:
11,203,45988,2,0,P|-14:231|3:296,1,89.9999999999999,0|8,3:0|0:0,0:0:0:0:
49,348,46716,1,0,3:0:0:0:
112,284,47079,1,2,0:0:0:0:
183,338,47443,6,0,P|235:335|275:333,1,89.9999999999999,6|8,3:2|0:0,0:0:0:0:
362,330,48170,2,0,P|359:278|357:238,1,89.9999999999999,2|10,3:2|0:0,0:0:0:0:
419,174,48898,2,0,P|455:127|409:17,1,180,2|0,3:2|3:0,0:0:0:0:
338,63,49988,1,10,0:0:0:0:
262,14,50352,6,0,P|181:21|111:30,1,135,2|2,3:2|3:2,0:0:0:0:
67,94,51261,1,2,0:0:0:0:
141,144,51625,2,0,P|222:137|292:128,1,135,2|8,0:0|0:0,0:0:0:0:
338,63,52534,1,0,3:0:0:0:
407,120,52898,1,10,0:0:0:0:
467,53,53261,6,0,P|462:145|456:246,1,180,6|4,3:2|3:2,0:0:0:0:
505,308,54352,1,14,0:0:0:0:
435,364,54716,2,0,P|365:352|288:351,1,135,6|2,3:2|0:0,0:0:0:0:
216,379,55625,1,2,3:2:0:0:
142,327,55988,6,0,P|109:271|144:214,1,135,2|12,0:0|0:0,0:0:0:0:
220,172,56898,1,12,0:0:0:0:
294,222,57261,1,12,0:0:0:0:
365,167,57625,2,0,P|391:121|370:79,1,89.9999999999999,0|0,3:2|3:0,0:0:0:0:
312,28,58352,2,0,L|259:35,1,45,8|8,0:0|0:0,0:0:0:0:
135,5,59079,6,0,P|141:56|146:113,1,89.9999999999999,4|10,3:1|0:0,0:0:0:0:
77,154,59807,2,0,P|51:197|76:245,1,89.9999999999999,2|10,3:2|0:0,0:0:0:0:
129,292,60534,2,0,P|195:277|274:279,1,135,2|2,3:2|3:2,0:0:0:0:
381,340,61625,1,10,0:0:0:0:
447,280,61988,6,0,P|439:223|433:179,1,89.9999999999999,2|10,3:2|0:0,0:0:0:0:
445,101,62716,2,0,P|388:109|344:115,1,89.9999999999999,2|10,3:2|0:0,0:0:0:0:
265,118,63443,2,0,P|229:64|260:-2,2,135,0|0|10,3:0|3:0|0:0,0:0:0:0:
314,193,64898,6,0,P|308:240|303:289,1,89.9999999999999,4|10,3:2|0:0,0:0:0:0:
244,350,65625,1,2,3:2:0:0:
154,347,65988,1,10,0:0:0:0:
81,294,66352,2,0,P|46:229|87:175,1,135,2|2,3:2|3:2,0:0:0:0:
189,111,67443,1,8,0:0:0:0:
266,157,67807,6,0,P|319:150|361:148,1,89.9999999999999,2|10,3:2|0:0,0:0:0:0:
435,190,68534,2,0,P|442:243|444:285,1,89.9999999999999,2|10,3:2|0:0,0:0:0:0:
379,342,69261,2,0,P|353:344|331:346,1,45,8|8,0:0|0:0,0:0:0:0:
264,288,69807,1,8,0:3:0:0:
161,375,70352,1,0,3:0:0:0:
87,322,70716,6,0,P|94:262|99:219,1,89.9999999999999,4|10,3:1|0:0,0:0:0:0:
22,182,71443,2,0,P|15:122|10:79,1,89.9999999999999,2|10,3:2|0:0,0:0:0:0:
70,24,72170,2,0,P|118:-3|192:39,1,135,2|2,3:2|3:2,0:0:0:0:
272,131,73261,1,10,0:0:0:0:
211,197,73625,6,0,P|191:226|209:289,1,89.9999999999999,2|10,3:2|0:0,0:0:0:0:
258,345,74352,2,0,P|310:337|356:335,1,89.9999999999999,2|10,3:2|0:0,0:0:0:0:
411,271,75079,2,0,P|471:293|523:238,2,135,0|0|10,3:0|3:0|0:0,0:0:0:0:
354,200,76534,6,0,P|363:123|366:99,1,89.9999999999999,6|8,3:2|0:0,0:0:0:0:
326,28,77261,1,0,3:0:0:0:
249,75,77625,1,10,0:0:0:0:
176,22,77988,2,0,P|123:14|71:7,1,89.9999999999999,2|10,3:2|0:0,0:0:0:0:
12,60,78716,2,0,P|4:113|-3:165,1,89.9999999999999,2|10,3:2|0:0,0:0:0:0:
52,221,79443,6,0,P|62:291|71:359,2,135,12|12|12,0:0|0:0|0:0,0:0:0:0:
152,130,81079,2,0,P|207:99|263:135,1,135,0|0,3:0|3:0,0:0:0:0:
342,92,81988,1,8,0:0:0:0:
415,162,82388,6,0,B|376:243|371:323|400:391|478:389|517:372|534:313|527:273|490:239|463:223|363:240|296:305,1,539.999999999999,4|2,3:2|0:0,0:0:0:0:
309,294,85297,6,0,P|222:346|300:169,1,539.999999999999,4|2,0:0|0:3,0:0:0:0:
296,164,88206,6,0,P|381:174|347:39,1,270,6|0,0:0|0:0,0:0:0:0:
266,28,89661,2,0,P|186:34|86:60,1,180,6|2,0:0|0:0,0:0:0:0:
11,220,91115,6,0,P|79:329|231:268,1,315,6|6,0:0|0:0,0:0:0:0:
256,192,92570,12,0,95479,0:0:0:0:
