osu file format v14

[General]
AudioFilename: audio.mp3
AudioLeadIn: 0
PreviewTime: 335301
Countdown: 0
SampleSet: Soft
StackLeniency: 0.7
Mode: 2
LetterboxInBreaks: 0
WidescreenStoryboard: 1

[Editor]
Bookmarks: 95037,95189,95416,95568,95795,96022,96325,96552,96780,97007,97462,97613,97840,98143,98371,98598,127687,127689,127916,128030,128257,128371,128484,128712,128825,129052,129166,129280,129507,129621,129848,130075,130189,130530,130984,131212,131666,131893,132121,132689,133143,133257,133484,133939,134393,134621,134848,135378,135587,135795,136003,136212,136420,136628,136941,137253,137566,137774,137878,138087,138295,168295,168607,168816,169024,169128,169337,169545,169753,169962,170170,170482,170691,170899,171212,171628,171941,172253,172670,172878,173087,173295,173503,173816,174024,174232,174441,174962,175156,175449,175936,176228,176617,176910,177104,177299,177591,177786,178078,209247,209345,209539,209832,210221,210416,210806,211098,211293,211780,211974,212267,212559,212949,213338,213533,213923,214215,214410,214897,215189,215481,215919,216455,216650,216942,217313,217496,217862,218045,218146,218502,218776,219142,219417,219506,219965,249234,249417,249599,249782,250103,250240,250423,250789,251063,251246,251566,251795,251978,252160,252435,252709,253167,253258,253441,253624,253898,254173,254721,254904,255087,255362,255545,255819,256185,256368,256551,256891,257062,257232,257658,257829,257999,258340,258511,258681,258852,259022,259193,259278,286551,286636,286977,287147,287573,287744,287914,288255,288681,289278,289448,289789,290215,290386,290727,290982,291323,291920,292005,292346,292516,292687,292857,293028,293369,293539,293710,293880,294051,294391,294562,294732,295073,295244,295414,295585,295755,296096,296437,296778,297119,297289,297460,297886,298056,298227,298397,298568,298908,299164,299420,299590,299931,300272,300613,300954,301295,301551
DistanceSpacing: 0.9
BeatDivisor: 8
GridSize: 8
TimelineZoom: 2.5

[Metadata]
Title:Saigo no Uta
TitleUnicode:最後の歌
Artist:Keiichi Okabe feat. Emi Evans
ArtistUnicode:岡部 啓一 feat. エミ エヴァンス
Creator:Ymiir
Version:Dragon Dance
Source:Drakengard 3
Tags:the final song DRAG-ON DRAG ON DRAGOON 3 ドラッグ オン ドラグーン3 video game ost japanese folk plaudible fii -wwwww
BeatmapID:3186803
BeatmapSetID:1560280

[Difficulty]
HPDrainRate:5.7
CircleSize:4
OverallDifficulty:9.4
ApproachRate:9.4
SliderMultiplier:2.5
SliderTickRate:1

[Events]
//Background and Video events
0,0,"dragondance2.jpg",0,0
//Break Periods
2,290841,295542
//Storyboard Layer 0 (Background)
//Storyboard Layer 1 (Fail)
//Storyboard Layer 2 (Pass)
//Storyboard Layer 3 (Foreground)
//Storyboard Layer 4 (Overlay)
//Storyboard Sound Samples

[TimingPoints]
14962,1000,4,2,2,75,1,0
14962,-26.5957446808511,4,2,2,75,0,0
22962,-26.5957446808511,4,2,2,85,0,0
27337,-26.5957446808511,4,2,49,85,0,0
29837,-26.5957446808511,4,2,2,85,0,0
35337,-26.5957446808511,4,2,49,85,0,0
37837,-26.5957446808511,4,2,2,85,0,0
70962,-20.4081632653061,4,2,2,85,0,0
73837,-20.4081632653061,4,2,1,85,0,0
73962,-26.5957446808511,4,2,1,85,0,0
74087,-26.5957446808511,4,2,2,85,0,0
78962,-20.1612903225806,4,2,2,85,0,0
79962,-20.1612903225806,4,2,2,75,0,0
80962,-20.1612903225806,4,2,2,65,0,0
82962,-20.1612903225806,4,2,2,85,0,0
83962,-20.1612903225806,4,2,2,75,0,0
84962,-20.1612903225806,4,2,2,65,0,0
86962,-20.1612903225806,4,2,2,85,0,0
87962,-20.1612903225806,4,2,2,75,0,0
88962,-20.1612903225806,4,2,2,65,0,0
90962,-20.1612903225806,4,2,2,85,0,0
91962,-20.1612903225806,4,2,2,75,0,0
92962,-20.1612903225806,4,2,2,65,0,0
94962,909.090909090909,4,2,2,100,1,0
94962,-26.5957446808511,4,2,2,100,0,0
98598,-21.1864406779661,4,2,3,100,0,0
127689,-19.2307692307692,4,2,4,80,0,0
134962,833.333333333333,4,2,4,90,1,0
134962,-19.6850393700787,4,2,4,90,0,0
137462,-19.6850393700787,4,2,4,75,0,0
137670,-19.6850393700787,4,2,4,85,0,0
137878,-19.6850393700787,4,2,4,95,0,0
138087,-19.6850393700787,4,2,4,100,0,0
138295,-18.796992481203,4,2,3,100,0,0
138399,-18.796992481203,4,2,5,100,0,0
138607,-18.796992481203,4,2,5,100,0,0
168295,-18.796992481203,4,2,3,100,0,0
168399,-18.796992481203,4,2,4,80,0,0
174962,779.220779220779,4,2,4,90,1,0
174962,-25.5102040816327,4,2,4,90,0,0
177299,-29.0697674418605,4,2,4,75,0,0
177494,-29.0697674418605,4,2,4,85,0,0
177689,-29.0697674418605,4,2,4,95,0,0
177884,-29.0697674418605,4,2,4,100,0,0
178078,-27.1739130434783,4,2,3,100,0,0
178176,-27.1739130434783,4,2,6,100,0,0
209247,-28.0898876404494,4,2,3,80,0,0
209345,-28.0898876404494,4,2,4,80,0,0
217039,731.707317073171,4,2,4,65,1,0
217039,-40.3225806451613,4,2,4,65,0,0
217404,-27.1739130434783,4,2,4,65,0,0
217770,-40.3225806451613,4,2,4,75,0,0
218136,-27.1739130434783,4,2,4,75,0,0
218502,-40.3225806451613,4,2,4,85,0,0
218868,-27.1739130434783,4,2,4,85,0,0
219234,-40.3225806451613,4,2,4,75,0,0
219417,-40.3225806451613,4,2,4,85,0,0
219599,-40.3225806451613,4,2,4,95,0,0
219782,-40.3225806451613,4,2,4,100,0,0
219965,-24.7524752475247,4,2,3,75,0,0
220057,-24.7524752475247,4,2,7,100,0,0
220148,-24.7524752475247,4,2,4,80,0,0
220697,-24.7524752475247,4,2,7,100,0,0
220880,-24.7524752475247,4,2,4,80,0,0
221429,-24.7524752475247,4,2,7,100,0,0
221612,-24.7524752475247,4,2,4,80,0,0
222160,-24.7524752475247,4,2,7,100,0,0
222526,-24.7524752475247,4,2,4,80,0,0
222892,-24.7524752475247,4,2,7,100,0,0
223075,-24.7524752475247,4,2,4,80,0,0
223624,-24.7524752475247,4,2,7,100,0,0
223807,-24.7524752475247,4,2,4,80,0,0
224356,-24.7524752475247,4,2,7,100,0,0
224539,-24.7524752475247,4,2,4,80,0,0
225087,-24.7524752475247,4,2,7,100,0,0
225453,-24.7524752475247,4,2,4,80,0,0
225819,-24.7524752475247,4,2,7,100,0,0
226001,-24.7524752475247,4,2,4,80,0,0
226550,-24.7524752475247,4,2,7,100,0,0
226733,-24.7524752475247,4,2,4,80,0,0
227282,-24.7524752475247,4,2,7,100,0,0
227465,-24.7524752475247,4,2,4,80,0,0
228013,-24.7524752475247,4,2,7,100,0,0
228379,-24.7524752475247,4,2,4,80,0,0
228745,-24.7524752475247,4,2,7,100,0,0
228928,-24.7524752475247,4,2,4,80,0,0
229477,-24.7524752475247,4,2,7,100,0,0
229660,-24.7524752475247,4,2,4,80,0,0
230209,-24.7524752475247,4,2,7,100,0,0
230392,-24.7524752475247,4,2,4,80,0,0
230940,-24.7524752475247,4,2,7,100,0,0
231124,-24.7524752475247,4,2,4,80,0,0
231672,-24.7524752475247,4,2,7,100,0,0
231855,-24.7524752475247,4,2,4,80,0,0
232404,-24.7524752475247,4,2,7,100,0,0
232587,-24.7524752475247,4,2,4,80,0,0
233136,-24.7524752475247,4,2,7,100,0,0
233319,-24.7524752475247,4,2,4,80,0,0
233867,-24.7524752475247,4,2,7,100,0,0
234233,-24.7524752475247,4,2,4,80,0,0
234599,-24.7524752475247,4,2,7,100,0,0
234782,-24.7524752475247,4,2,4,80,0,0
235331,-24.7524752475247,4,2,7,100,0,0
235514,-24.7524752475247,4,2,4,80,0,0
236063,-24.7524752475247,4,2,7,100,0,0
236246,-24.7524752475247,4,2,4,80,0,0
236794,-24.7524752475247,4,2,7,100,0,0
236978,-24.7524752475247,4,2,4,80,0,0
237526,-24.7524752475247,4,2,7,100,0,0
237709,-24.7524752475247,4,2,4,80,0,0
238258,-24.7524752475247,4,2,7,100,0,0
238441,-24.7524752475247,4,2,4,80,0,0
238990,-24.7524752475247,4,2,7,100,0,0
239173,-24.7524752475247,4,2,4,80,0,0
239721,-24.7524752475247,4,2,7,100,0,0
240087,-24.7524752475247,4,2,4,80,0,0
240453,-24.7524752475247,4,2,7,100,0,0
240636,-24.7524752475247,4,2,4,80,0,0
241185,-24.7524752475247,4,2,7,100,0,0
241368,-24.7524752475247,4,2,4,80,0,0
241917,-24.7524752475247,4,2,7,100,0,0
242100,-24.7524752475247,4,2,4,80,0,0
242648,-24.7524752475247,4,2,7,100,0,0
242831,-24.7524752475247,4,2,4,80,0,0
243380,-24.7524752475247,4,2,7,100,0,0
243562,-24.7524752475247,4,2,4,80,0,0
244111,-24.7524752475247,4,2,7,100,0,0
244294,-24.7524752475247,4,2,4,80,0,0
244843,-24.7524752475247,4,2,7,100,0,0
245026,-24.7524752475247,4,2,4,80,0,0
245574,-24.7524752475247,4,2,7,100,0,0
245940,-24.7524752475247,4,2,4,80,0,0
246306,-24.7524752475247,4,2,7,100,0,0
246489,-24.7524752475247,4,2,4,80,0,0
247038,-24.7524752475247,4,2,7,100,0,0
247221,-24.7524752475247,4,2,4,80,0,0
247770,-24.7524752475247,4,2,7,100,0,0
247953,-24.7524752475247,4,2,4,80,0,0
248501,-24.7524752475247,4,2,7,100,0,0
248685,-24.7524752475247,4,2,4,80,0,0
249234,-28.0898876404494,4,2,3,100,0,0
249325,-28.0898876404494,4,2,4,60,0,0
256551,681.818181818182,4,2,4,65,1,0
256551,-27.1739130434783,4,2,4,65,0,0
257232,-27.1739130434783,4,2,4,75,0,0
257914,-27.1739130434783,4,2,4,85,0,0
258596,-27.1739130434783,4,2,4,75,0,0
258766,-27.1739130434783,4,2,4,85,0,0
258937,-27.1739130434783,4,2,4,95,0,0
259107,-27.1739130434783,4,2,4,100,0,0
259278,-25.5102040816327,4,2,7,100,0,0
259533,-25.5102040816327,4,2,4,80,0,0
259960,-25.5102040816327,4,2,7,100,0,0
260471,-25.5102040816327,4,2,4,80,0,0
260641,-25.5102040816327,4,2,7,100,0,0
260897,-25.5102040816327,4,2,4,80,0,0
261238,-25.5102040816327,4,2,7,100,0,0
262260,-25.5102040816327,4,2,4,80,0,0
262687,-25.5102040816327,4,2,7,100,0,0
263198,-25.5102040816327,4,2,4,80,0,0
263368,-25.5102040816327,4,2,7,100,0,0
263624,-25.5102040816327,4,2,4,80,0,0
263965,-25.5102040816327,4,2,7,100,0,0
264987,-25.5102040816327,4,2,4,80,0,0
265414,-25.5102040816327,4,2,7,100,0,0
265925,-25.5102040816327,4,2,4,80,0,0
266095,-25.5102040816327,4,2,7,100,0,0
266351,-25.5102040816327,4,2,4,80,0,0
266692,-25.5102040816327,4,2,7,100,0,0
267715,-25.5102040816327,4,2,4,80,0,0
268142,-25.5102040816327,4,2,7,100,0,0
268653,-25.5102040816327,4,2,4,80,0,0
268823,-25.5102040816327,4,2,7,100,0,0
269079,-25.5102040816327,4,2,4,80,0,0
269420,-25.5102040816327,4,2,7,100,0,0
270442,-25.5102040816327,4,2,4,80,0,0
270869,-25.5102040816327,4,2,7,100,0,0
271380,-25.5102040816327,4,2,4,80,0,0
271550,-25.5102040816327,4,2,7,100,0,0
271806,-25.5102040816327,4,2,4,80,0,0
272147,-25.5102040816327,4,2,7,100,0,0
273169,-25.5102040816327,4,2,4,80,0,0
273596,-25.5102040816327,4,2,7,100,0,0
274107,-25.5102040816327,4,2,4,80,0,0
274277,-25.5102040816327,4,2,7,100,0,0
274533,-25.5102040816327,4,2,4,80,0,0
274874,-25.5102040816327,4,2,7,100,0,0
275896,-25.5102040816327,4,2,4,80,0,0
276323,-25.5102040816327,4,2,7,100,0,0
276834,-25.5102040816327,4,2,4,80,0,0
277004,-25.5102040816327,4,2,7,100,0,0
277260,-25.5102040816327,4,2,4,80,0,0
277601,-25.5102040816327,4,2,7,100,0,0
278624,-25.5102040816327,4,2,4,80,0,0
279051,-25.5102040816327,4,2,7,100,0,0
279562,-25.5102040816327,4,2,4,80,0,0
279732,-25.5102040816327,4,2,7,100,0,0
279988,-25.5102040816327,4,2,4,80,0,0
280329,-25.5102040816327,4,2,7,100,0,0
281351,-25.5102040816327,4,2,4,80,0,0
281778,-25.5102040816327,4,2,7,100,0,0
282289,-25.5102040816327,4,2,4,80,0,0
282459,-25.5102040816327,4,2,7,100,0,0
282715,-25.5102040816327,4,2,4,80,0,0
283056,-25.5102040816327,4,2,7,100,0,0
284078,-25.5102040816327,4,2,4,80,0,0
284505,-25.5102040816327,4,2,7,100,0,0
285016,-25.5102040816327,4,2,4,80,0,0
285186,-25.5102040816327,4,2,7,100,0,0
285442,-25.5102040816327,4,2,4,80,0,0
285783,-25.5102040816327,4,2,7,100,0,0
286551,-40.3225806451613,4,2,60,75,0,0
286636,-40.3225806451613,4,2,60,50,0,0
290641,-40.3225806451613,4,2,60,50,0,0
290727,-40.3225806451613,4,2,60,50,0,0
298482,-40.3225806451613,4,2,60,50,0,0
298568,-40.3225806451613,4,2,60,50,0,0
301295,-40.3225806451613,4,2,60,50,0,0
301551,937.5,4,2,0,100,1,0
301551,-20.1612903225806,4,2,0,100,0,0
301785,-20.1612903225806,4,2,4,80,0,0
302136,-20.1612903225806,4,2,4,80,0,0
302488,-20.1612903225806,4,2,7,100,0,0
302605,-20.1612903225806,4,2,4,80,0,0
303426,-20.1612903225806,4,2,7,100,0,0
303660,-20.1612903225806,4,2,4,80,0,0
304363,-20.1612903225806,4,2,7,100,0,0
304480,-20.1612903225806,4,2,4,80,0,0
304949,-20.1612903225806,4,2,7,100,0,0
305066,-20.1612903225806,4,2,4,80,0,0
305301,-17.9856115107914,4,2,7,100,0,0
305418,-17.9856115107914,4,2,5,100,0,0
306707,-17.9856115107914,4,2,7,100,0,0
307293,-17.9856115107914,4,2,5,100,0,0
308347,-17.9856115107914,4,2,7,100,0,0
309168,-17.9856115107914,4,2,5,100,0,0
310457,-17.9856115107914,4,2,7,100,0,0
311043,-17.9856115107914,4,2,5,100,0,0
312097,-17.9856115107914,4,2,7,100,0,0
312918,-17.9856115107914,4,2,5,100,0,0
314207,-17.9856115107914,4,2,7,100,0,0
314793,-17.9856115107914,4,2,5,100,0,0
315847,-17.9856115107914,4,2,7,100,0,0
316668,-17.9856115107914,4,2,5,100,0,0
317957,-17.9856115107914,4,2,7,100,0,0
318543,-17.9856115107914,4,2,5,100,0,0
318894,-17.9856115107914,4,2,7,100,0,0
320418,-17.9856115107914,4,2,5,100,0,0
321707,-17.9856115107914,4,2,7,100,0,0
322293,-17.9856115107914,4,2,5,100,0,0
323347,-17.9856115107914,4,2,7,100,0,0
324168,-17.9856115107914,4,2,5,100,0,0
325457,-17.9856115107914,4,2,7,100,0,0
326043,-17.9856115107914,4,2,5,100,0,0
327097,-17.9856115107914,4,2,7,100,0,0
327918,-17.9856115107914,4,2,5,100,0,0
329207,-17.9856115107914,4,2,7,100,0,0
329793,-17.9856115107914,4,2,5,100,0,0
330847,-17.9856115107914,4,2,7,100,0,0
331668,-17.9856115107914,4,2,5,100,0,0
332957,-17.9856115107914,4,2,7,100,0,0
333543,-17.9856115107914,4,2,5,100,0,0
333894,-17.9856115107914,4,2,7,100,0,0
335301,-17.9856115107914,4,2,7,100,0,1
335418,-17.9856115107914,4,2,5,100,0,1
336707,-17.9856115107914,4,2,7,100,0,1
337293,-17.9856115107914,4,2,5,100,0,1
338347,-17.9856115107914,4,2,7,100,0,1
339168,-17.9856115107914,4,2,5,100,0,1
340457,-17.9856115107914,4,2,7,100,0,1
341043,-17.9856115107914,4,2,5,100,0,1
342097,-17.9856115107914,4,2,7,100,0,1
342918,-17.9856115107914,4,2,5,100,0,1
344207,-17.9856115107914,4,2,7,100,0,1
344793,-17.9856115107914,4,2,5,100,0,1
345847,-17.9856115107914,4,2,7,100,0,1
346668,-17.9856115107914,4,2,5,100,0,1
347957,-17.9856115107914,4,2,7,100,0,1
348543,-17.9856115107914,4,2,5,100,0,1
348894,-17.9856115107914,4,2,7,100,0,1
349363,-17.9856115107914,4,2,7,100,0,0
350301,-17.9856115107914,4,2,7,100,0,1
350418,-17.9856115107914,4,2,5,100,0,1
351707,-17.9856115107914,4,2,7,100,0,1
352293,-17.9856115107914,4,2,5,100,0,1
353113,-17.9856115107914,4,2,7,100,0,1
354168,-17.9856115107914,4,2,5,100,0,1
355457,-17.9856115107914,4,2,7,100,0,1
356043,-17.9856115107914,4,2,5,100,0,1
356863,-17.9856115107914,4,2,7,100,0,1
357918,-17.9856115107914,4,2,5,100,0,1
359207,-17.9856115107914,4,2,7,100,0,1
359793,-17.9856115107914,4,2,5,100,0,1
360613,-17.9856115107914,4,2,7,100,0,1
361668,-17.9856115107914,4,2,5,100,0,1
362840,-17.9856115107914,4,2,7,100,0,1
363426,-17.9856115107914,4,2,5,100,0,1
363582,-17.9856115107914,4,2,7,100,0,1
365301,1000,4,2,7,100,1,0
365301,-20.1612903225806,4,2,7,100,0,0
365426,-20.1612903225806,4,2,5,100,0,0
366801,-20.1612903225806,4,2,7,100,0,0
367301,-20.1612903225806,4,2,5,100,0,0
368426,-20.1612903225806,4,2,7,100,0,0
369319,1090.90909090909,4,2,7,85,1,0
369319,-20.6611570247934,4,2,7,85,0,0
369455,-20.6611570247934,4,2,5,85,0,0
369864,-20.6611570247934,4,2,5,85,0,0
370955,-20.6611570247934,4,2,7,85,0,0
371500,-20.6611570247934,4,2,5,85,0,0
372591,-20.6611570247934,4,2,7,85,0,0
373674,1176.47058823529,4,2,7,75,1,0
373674,-21.1864406779661,4,2,7,75,0,0
378369,1276.59574468085,4,2,7,60,1,0
378369,-21.7391304347826,4,2,7,60,0,0
383475,1395.3488372093,4,2,7,50,1,0
383475,-22.3214285714286,4,2,7,50,0,0
389056,1538.46153846154,4,2,7,40,1,0
389056,-22.9357798165138,4,2,7,40,0,0
395209,1739.13043478261,4,2,7,30,1,0
395209,-14.7058823529412,4,2,7,30,0,0
396948,1714.28571428571,4,2,7,30,1,0
396948,-14.7058823529412,4,2,7,30,0,0
398662,1935.48387096774,4,2,7,30,1,0
398662,-14.9700598802395,4,2,7,30,0,0
400597,1935.48387096774,4,2,7,30,1,0
400597,-12.3152709359606,4,2,7,30,0,0
402532,2222.22222222222,4,2,7,30,1,0
402532,-15.2439024390244,4,2,7,30,0,0
406976,2608.69565217391,4,2,7,20,1,0
406976,-14.4508670520231,4,2,7,20,0,0
412193,-15.8227848101266,4,2,80,15,0,0
422627,-15.8227848101266,4,2,81,15,0,0
422954,-15.8227848101266,4,2,81,5,0,0
427845,-15.8227848101266,4,2,80,15,0,0
438279,-15.8227848101266,4,2,81,15,0,0
438606,-15.8227848101266,4,2,81,5,0,0
443497,-15.8227848101266,4,2,81,15,0,0
456540,-15.8227848101266,4,2,80,15,0,0
456867,-15.8227848101266,4,2,80,5,0,0
461758,-15.8227848101266,4,2,80,15,0,0
464693,-15.8227848101266,4,2,80,5,0,0

[Colours]
Combo1 : 190,85,253
Combo2 : 189,64,120
Combo3 : 151,198,255
Combo4 : 250,169,227
Combo5 : 174,186,133
Combo6 : 191,191,191

[HitObjects]
135,25,14962,5,12,0:0:0:0:
70,121,15212,1,0,0:0:0:0:
113,191,15337,1,0,0:0:0:0:
194,208,15462,2,0,L|163:321|163:321,1,117.5
224,286,15712,2,0,L|193:173|193:173,1,117.5
317,205,15962,6,0,L|317:322|317:322,1,117.5,8|0,0:0|0:0,0:0:0:0:
192,89,16212,2,0,L|192:206|192:206,1,117.5
317,205,16462,2,0,L|348:318|348:318,1,117.5
287,283,16712,2,0,L|318:170|318:170,1,117.5
192,89,16962,6,0,L|192:206|192:206,1,117.5,8|0,0:0|0:0,0:0:0:0:
317,205,17212,2,0,L|317:322|317:322,1,117.5
194,208,17462,2,0,L|163:321|163:321,1,117.5
224,286,17712,2,0,L|193:173|193:173,1,117.5
318,95,17962,6,0,L|287:208|287:208,1,117.5,2|0,0:0|0:0,0:0:0:0:
162,208,18212,2,0,L|193:321|193:321,1,117.5
317,205,18462,2,0,L|348:318|348:318,1,117.5,2|0,0:0|0:0,0:0:0:0:
193,208,18712,2,0,L|162:321|162:321,1,117.5
377,25,18962,5,12,0:0:0:0:
442,121,19212,1,0,0:0:0:0:
399,191,19337,1,0,0:0:0:0:
318,208,19462,2,0,L|349:321|349:321,1,117.5
288,286,19712,2,0,L|319:173|319:173,1,117.5
195,205,19962,6,0,L|195:322|195:322,1,117.5,8|0,0:0|0:0,0:0:0:0:
320,89,20212,2,0,L|320:206|320:206,1,117.5
195,205,20462,2,0,L|164:318|164:318,1,117.5
225,283,20712,2,0,L|194:170|194:170,1,117.5
320,89,20962,6,0,L|320:206|320:206,1,117.5,8|0,0:0|0:0,0:0:0:0:
195,205,21212,2,0,L|195:322|195:322,1,117.5
318,208,21462,2,0,L|349:321|349:321,1,117.5
288,286,21712,2,0,L|319:173|319:173,1,117.5
194,95,21962,6,0,L|225:208|225:208,1,117.5,2|0,0:0|0:0,0:0:0:0:
350,208,22212,2,0,L|319:321|319:321,1,117.5
195,205,22462,2,0,L|164:318|164:318,1,117.5,2|0,0:0|0:0,0:0:0:0:
319,208,22712,2,0,L|350:321|350:321,1,117.5
122,299,22962,6,0,B|126:383|126:383|123:299|123:299|122:215|122:215|120:131|120:131|130:48|130:48|154:128|154:128|172:210|172:210|200:324|200:324,1,705,12|0,0:0|0:0,0:0:0:0:
390,85,23962,2,0,B|403:168|403:168|399:252|399:252|397:336|397:336|385:253|385:253|364:172|364:172|355:89|355:89|345:6|345:6|312:119|312:119,1,705,8|0,0:0|0:0,0:0:0:0:
122,299,24962,2,0,B|115:383|115:383|128:300|128:300|126:216|126:216|118:132|118:132|130:49|130:49|147:131|147:131|176:210|176:210|200:325|200:325,1,705,8|0,0:0|0:0,0:0:0:0:
311,235,25962,2,0,B|341:313|341:313|342:229|342:229|368:149|368:149|376:66|376:66|396:147|396:147|395:231|395:231|395:315|395:315|390:197|390:197,1,705
58,37,26962,5,10,0:0:0:0:
31,61,27045,1,0,0:0:0:0:
15,94,27128,1,0,0:0:0:0:
10,128,27212,2,0,B|7:187|7:187|33:240|33:240|47:297|47:297|58:355|58:355|56:296|56:296|69:239|69:239|94:186|94:186|114:131|114:131|125:73|125:73|127:14|127:14|153:67|153:67|153:126|153:126|147:184|147:184|135:241|135:241|119:298|119:298|115:357|115:357|93:302|93:302|91:243|91:243|102:185|102:185|89:128|89:128|102:71|102:71|111:13|111:13|102:71|102:71|130:123|130:123|131:182|131:182|154:236|154:236|176:290|176:290|186:348|186:348|208:293|208:293|217:235|217:235|242:182|242:182|244:123|244:123|250:39|250:39|258:122|258:122|248:205|248:205|217:283|217:283|200:365|200:365|176:285|176:285|188:202|188:202|217:88|217:88,1,2585
390,85,30962,6,0,B|384:169|384:169|404:250|404:250|388:332|388:332|372:250|372:250|366:166|366:166|351:83|351:83|337:0|337:0|312:115|312:115,1,705,10|0,0:0|0:0,0:0:0:0:
122,85,31962,2,0,B|113:168|113:168|108:252|108:252|130:333|130:333|130:249|130:249|145:167|145:167|152:83|152:83|167:0|167:0|200:113|200:113,1,705,8|0,0:0|0:0,0:0:0:0:
390,85,32962,2,0,B|392:169|392:169|400:253|400:253|396:337|396:337|379:255|379:255|364:173|364:173|353:90|353:90|333:9|333:9|312:125|312:125,1,705,8|0,0:0|0:0,0:0:0:0:
193,149,33962,2,0,B|171:230|171:230|165:314|165:314|148:232|148:232|123:152|123:152|111:69|111:69|114:153|114:153|107:237|107:237|114:355|114:355,1,705
454,37,34962,5,10,0:0:0:0:
481,61,35045,1,0,0:0:0:0:
497,94,35128,1,0,0:0:0:0:
502,128,35212,2,0,B|497:187|497:187|477:242|477:242|486:300|486:300|456:351|456:351|459:292|459:292|429:241|429:241|411:185|411:185|407:126|407:126|391:70|391:70|373:14|373:14|359:71|359:71|364:130|364:130|352:188|352:188|361:246|361:246|387:299|387:299|397:357|397:357|401:298|401:298|418:242|418:242|419:183|419:183|427:125|427:125|415:68|415:68|398:12|398:12|400:71|400:71|386:128|386:128|382:187|382:187|364:243|364:243|341:297|341:297|315:350|315:350|303:293|303:293|288:236|288:236|281:178|281:178|268:121|268:121|262:37|262:37|252:120|252:120|283:198|283:198|303:279|303:279|316:362|316:362|338:281|338:281|315:200|315:200|295:84|295:84,1,2585
378,85,38962,6,0,B|389:168|389:168|383:252|383:252|386:336|386:336|374:253|374:253|364:170|364:170|350:87|350:87|330:5|330:5|300:119|300:119,1,705,10|0,0:0|0:0,0:0:0:0:
169,329,39962,2,0,B|191:248|191:248|201:165|201:165|229:86|229:86|260:8|260:8|282:89|282:89|306:170|306:170|320:253|320:253|346:368|346:368,1,705,8|0,0:0|0:0,0:0:0:0:
137,85,40962,6,0,B|131:169|131:169|143:252|143:252|136:336|136:336|136:252|136:252|156:171|156:171|160:87|160:87|192:9|192:9|215:124|215:124,1,705,8|0,0:0|0:0,0:0:0:0:
333,328,41962,2,0,L|317:246|317:246|296:165|296:165|255:92|255:92|238:10|238:10|210:89|210:89|209:173|209:173|180:252|180:252|146:365|146:365,1,705
467,22,42962,6,0,L|466:106|466:106|464:190|464:190|481:272|481:272|483:356|483:356|488:272|488:272|478:189|478:189|490:106|490:106|485:224|485:224,1,705,10|0,0:0|0:0,0:0:0:0:
353,65,43962,2,0,L|347:149|347:149|341:233|341:233|352:316|352:316|348:232|348:232|336:149|336:149|335:65|335:65|334:149|334:149|335:267|335:267,1,705,8|0,0:0|0:0,0:0:0:0:
141,274,44962,1,10,0:0:0:0:
379,33,45962,2,0,B|402:114|402:114|418:196|418:196|442:276|442:276|455:359|455:359|447:275|447:275|461:192|461:192|453:109|453:109|435:225|435:225,1,705
89,368,46962,6,0,B|78:310|78:310|96:254|96:254|79:198|79:198|91:140|91:140|100:82|100:82|100:23|100:23|113:80|113:80|114:139|114:139|140:191|140:191|155:248|155:248|163:306|163:306|183:361|183:361|190:303|190:303|200:245|200:245|218:189|218:189|234:132|234:132|211:80|211:80|207:23|207:23|183:75|183:75|185:132|185:132|166:185|166:185|161:241|161:241|145:295|145:295|135:351|135:351|141:295|141:295|153:240|153:240|144:184|144:184|152:128|152:128|166:73|166:73|190:21|190:21|204:76|204:76|217:165|217:165,1,1880,10|0,0:0|0:0,0:0:0:0:
133,33,49962,2,0,B|117:115|117:115|85:192|85:192|76:275|76:275|51:355|51:355|45:271|45:271|57:188|57:188|70:105|70:105|77:223|77:223,1,705
423,16,50962,6,0,B|435:74|435:74|416:130|416:130|422:188|422:188|417:247|417:247|415:306|415:306|415:365|415:365|399:308|399:308|383:251|383:251|388:192|388:192|368:137|368:137|362:79|362:79|332:28|332:28|335:87|335:87|299:133|299:133|288:191|288:191|278:249|278:249|291:304|291:304|299:360|299:360|319:307|319:307|333:252|333:252|354:199|354:199|355:142|355:142|372:88|372:88|374:31|374:31|383:87|383:87|369:142|369:142|368:199|368:199|368:256|368:256|354:311|354:311|329:362|329:362|319:306|319:306|295:219|295:219,1,1880,10|0,0:0|0:0,0:0:0:0:
147,50,54962,6,0,B|139:134|139:134|138:218|138:218|136:302|136:302|141:386|141:386|155:303|155:303|165:220|165:220|192:141|192:141|215:26|215:26,1,705,10|0,0:0|0:0,0:0:0:0:
84,283,55962,2,0,B|73:366|73:366|59:283|59:283|74:201|74:201|78:117|78:117|76:33|76:33|113:108|113:108|112:192|112:192|152:303|152:303,1,705,8|0,0:0|0:0,0:0:0:0:
380,50,56962,6,0,B|380:134|380:134|406:214|406:214|405:298|405:298|382:379|382:379|371:296|371:296|353:214|353:214|347:130|347:130|312:18|312:18,1,705
443,283,57962,2,0,B|461:365|461:365|461:281|461:281|451:198|451:198|452:114|452:114|441:31|441:31|429:114|429:114|396:191|396:191|375:307|375:307,1,705
63,66,58962,6,0,B|47:148|47:148|51:232|51:232|38:315|38:315|63:235|63:235|65:151|65:151|91:71|91:71|107:153|107:153|131:268|131:268,1,705,10|0,0:0|0:0,0:0:0:0:
262,183,59962,2,0,B|291:262|291:262|308:344|308:344|321:261|321:261|341:180|341:180|333:96|333:96|341:12|341:12|348:96|348:96|330:212|330:212,1,705,8|0,0:0|0:0,0:0:0:0:
100,58,60962,1,10,0:0:0:0:
99,157,61962,6,0,B|68:235|68:235|61:319|61:319|45:237|45:237|34:154|34:154|27:70|27:70|21:154|21:154|34:237|34:237|51:354|51:354,1,705
365,295,62962,6,0,B|368:354|368:354|389:299|389:299|399:241|399:241|421:186|421:186|448:134|448:134|464:77|464:77|461:18|461:18|475:75|475:75|497:130|497:130|486:188|486:188|485:247|485:247|472:304|472:304|472:363|472:363|451:308|451:308|434:252|434:252|418:195|418:195|410:139|410:139|385:88|385:88|376:32|376:32|363:87|363:87|354:143|354:143|339:198|339:198|318:251|318:251|306:306|306:306|315:362|315:362|307:306|307:306|279:257|279:257|270:201|270:201|272:144|272:144|246:94|246:94|239:38|239:38|207:123|207:123,1,1880,10|0,0:0|0:0,0:0:0:0:
402,36,65962,2,0,B|435:113|435:113|442:197|442:197|461:279|461:279|465:363|465:363|476:280|476:280|483:196|483:196|474:113|474:113|462:230|462:230,1,705
147,295,66962,6,0,B|137:353|137:353|118:297|118:297|113:238|113:238|99:181|99:181|84:124|84:124|56:72|56:72|44:14|44:14|27:70|27:70|36:128|36:128|25:186|25:186|30:245|30:245|34:304|34:304|38:363|38:363|56:307|56:307|80:254|80:254|94:197|94:197|103:141|103:141|121:87|121:87|138:33|138:33|153:88|153:88|155:145|155:145|179:196|179:196|174:252|174:252|203:301|203:301|207:358|207:358|207:301|207:301|223:247|223:247|243:194|243:194|248:138|248:138|265:84|265:84|292:34|292:34|305:124|305:124,1,1880,10|0,0:0|0:0,0:0:0:0:
110,36,69962,2,0,B|86:116|86:116|64:197|64:197|40:277|40:277|40:361|40:361|34:277|34:277|24:194|24:194|43:112|43:112|50:230|50:230,1,705
368,173,70962,6,0,B|406:240|406:240|423:315|423:315|439:240|439:240|430:164|430:164|417:88|417:88|401:13|401:13|352:72|352:72|345:148|345:148|347:225|347:225|342:301|342:301|321:375|321:375|316:299|316:299|307:223|307:223|288:149|288:149|287:72|287:72|271:147|271:147|266:223|266:223|266:300|266:300|217:359|217:359|194:286|194:286|173:212|173:212|130:149|130:149|148:74|148:74|157:150|157:150|183:222|183:222|217:290|217:290|248:360|248:360|238:284|238:284|200:218|200:218|209:142|209:142|180:71|180:71|182:148|182:148|195:221|195:221|224:289|224:289|257:355|257:355|281:285|281:285|282:211|282:211|312:144|312:144|305:71|305:71|341:6|341:6|360:77|360:77|376:149|376:149|394:221|394:221|398:295|398:295|401:369|401:369|401:295|401:295|377:225|377:225|348:111|348:111,1,3675.000014019,10|0,0:0|0:0,0:0:0:0:
138,64,74962,6,0,B|154:120|154:120|174:175|174:175|189:232|189:232|189:291|189:291|211:345|211:345|225:288|225:288|236:230|236:230|263:178|263:178|266:119|266:119|292:66|292:66|307:9|307:9|314:67|314:67|336:121|336:121|340:180|340:180|372:229|372:229|380:287|380:287|364:341|364:341|339:290|339:290|336:233|336:233|317:179|317:179|316:122|316:122|295:70|295:70|272:18|272:18|274:75|274:75|257:129|257:129|233:180|233:180|213:233|213:233|199:288|199:288|186:343|186:343|178:287|178:287|165:232|165:232|138:146|138:146,2,940,10|8|0,0:0|0:0|0:0,0:0:0:0:
258,327,78962,6,0,L|218:260|218:260|194:186|194:186|153:120|153:120|133:45|133:45|157:107|157:107|190:164|190:164|203:229|203:229|258:325|258:325,2,310,12|0|0,0:0|0:0|0:0,0:0:0:0:
354,200,79962,2,0,L|331:274|331:274|316:350|316:350|278:282|278:282|266:205|266:205|273:139|273:139|309:84|309:84|315:18|315:18|354:122|354:122,2,310
467,139,80962,2,0,L|475:216|475:216|457:291|457:291|460:368|460:368|467:291|467:291|474:225|474:225|460:160|460:160|457:94|457:94|467:205|467:205,2,310,8|0|0,0:0|0:0|0:0,0:0:0:0:
159,97,82962,6,0,L|116:162|116:162|90:235|90:235|65:308|65:308|34:379|34:379|70:324|70:324|86:260|86:260|117:201|117:201|159:98|159:98,2,310,10|0|0,0:0|0:0|0:0,0:0:0:0:
352,235,83962,2,0,L|382:307|382:307|400:382|400:382|414:306|414:306|440:233|440:233|413:173|413:173|406:107|406:107|374:49|374:49|352:158|352:158,2,310
157,360,84962,2,0,L|163:283|163:283|164:206|164:206|148:130|148:130|157:53|157:53|152:119|152:119|156:185|156:185|152:251|152:251|157:362|157:362,2,310,8|0|0,0:0|0:0|0:0,0:0:0:0:
353,97,86962,6,0,L|385:168|385:168|424:235|424:235|458:305|458:305|478:380|478:380|458:317|458:317|430:257|430:257|401:197|401:197|353:97|353:97,2,310,12|0|0,0:0|0:0|0:0,0:0:0:0:
160,235,87962,2,0,L|139:309|139:309|120:384|120:384|82:316|82:316|72:239|72:239|94:176|94:176|111:112|111:112|119:46|119:46|160:149|160:149,2,310
355,360,88962,2,0,L|351:283|351:283|345:206|345:206|346:129|346:129|355:52|355:52|358:118|358:118|356:184|356:184|347:250|347:250|355:361|355:361,2,310,8|0|0,0:0|0:0|0:0,0:0:0:0:
254,57,90962,6,0,L|294:124|294:124|324:196|324:196|349:269|349:269|379:340|379:340|352:280|352:280|327:219|327:219|301:158|301:158|254:57|254:57,2,310,8|0|0,0:0|0:0|0:0,0:0:0:0:
158,184,91962,2,0,L|178:259|178:259|196:334|196:334|222:261|222:261|246:187|246:187|233:122|233:122|203:63|203:63|179:1|179:1|158:110|158:110,2,310
45,245,92962,2,0,L|40:322|40:322|34:245|34:245|53:170|53:170|45:93|45:93|47:27|47:27|38:93|38:93|50:158|50:158|45:269|45:269,2,310,8|0|0,0:0|0:0|0:0,0:0:0:0:
155,330,94962,5,8,0:0:0:0:
107,243,95189,1,0,0:0:0:0:
252,258,95416,1,0,0:0:0:0:
204,171,95643,1,0,0:0:0:0:
354,151,95871,1,8,0:0:0:0:
405,243,96098,1,0,0:0:0:0:
357,330,96325,1,0,0:0:0:0:
255,376,96552,1,0,0:0:0:0:
418,8,96780,1,8,0:0:0:0:
104,345,97462,5,0,0:0:0:0:
66,257,97689,1,0,0:0:0:0:
107,166,97916,1,0,0:0:0:0:
228,122,98144,1,0,0:0:0:0:
29,95,98371,1,0,0:0:0:0:
328,253,98598,6,0,B|335:345|335:345|353:254|353:254|352:162|352:162|344:70|344:70|346:162|346:162|323:252|323:252|286:337|286:337|230:209|230:209,1,786.666642659507,12|0,0:0|0:0,0:0:0:0:
343,33,99355,1,2,0:0:0:0:
229,55,99507,2,0,B|200:143|200:143|161:227|161:227|124:312|124:312|112:220|112:220|98:129|98:129|103:37|103:37|97:129|97:129|133:263|133:263,1,786.666642659507,8|2,0:0|0:0,0:0:0:0:
256,324,100264,1,2,0:0:0:0:
380,277,100416,2,0,B|395:368|395:368|400:276|400:276|403:184|403:184|393:92|393:92|387:184|387:184|372:275|372:275|331:358|331:358|282:228|282:228,1,786.666642659507,8|2,0:0|0:0,0:0:0:0:
395,55,101174,1,2,0:0:0:0:
264,336,101325,6,0,L|269:261|269:261|272:139|272:139,1,196.666660664877,8|0,0:0|0:0,0:0:0:0:
140,174,101628,2,0,L|144:249|144:249|148:371|148:371,1,196.666660664877,8|0,0:0|0:0,0:0:0:0:
17,335,101931,2,0,L|17:260|17:260|25:139|25:139,1,196.666660664877,8|0,0:0|0:0,0:0:0:0:
322,344,102234,6,0,B|360:260|360:260|389:172|389:172|413:83|413:83|425:175|425:175|447:265|447:265|451:357|451:357|440:265|440:265|420:127|420:127,1,786.666642659507,2|0,0:0|0:0,0:0:0:0:
308,121,102992,1,2,0:0:0:0:
430,127,103143,2,0,B|458:215|458:215|464:307|464:307|459:215|459:215|462:123|462:123|447:32|447:32|402:113|402:113|385:204|385:204|333:333|333:333,1,786.666642659507,8|2,0:0|0:0,0:0:0:0:
221,348,103901,1,2,0:0:0:0:
344,353,104052,2,0,B|377:267|377:267|415:183|415:183|439:94|439:94|452:2|452:2|463:94|463:94|481:185|481:185|475:277|475:277|442:142|442:142,1,786.666642659507,8|2,0:0|0:0,0:0:0:0:
330,123,104810,1,2,0:0:0:0:
461,34,104962,6,0,L|473:108|473:108|469:230|469:230,1,196.666660664877,8|0,0:0|0:0,0:0:0:0:
337,196,105265,2,0,L|337:271|337:271|345:150|345:150,1,196.666660664877,8|0,0:0|0:0,0:0:0:0:
214,19,105568,1,8,0:0:0:0:
202,57,105643,1,0,0:0:0:0:
219,94,105719,1,0,0:0:0:0:
256,109,105795,1,0,0:0:0:0:
105,348,105871,6,0,B|62:266|62:266|43:175|43:175|19:86|19:86|14:178|14:178|17:270|17:270|30:362|30:362|57:274|57:274|104:143|104:143,1,786.666642659507,6|0,0:0|0:0,0:0:0:0:
223,157,106628,1,2,0:0:0:0:
344,273,106780,2,0,B|342:365|342:365|317:276|317:276|294:186|294:186|261:99|261:99|227:13|227:13|208:103|208:103|177:190|177:190|165:329|165:329,1,786.666642659507,8|2,0:0|0:0,0:0:0:0:
289,157,107537,1,2,0:0:0:0:
407,348,107689,2,0,B|435:260|435:260|457:170|457:170|484:81|484:81|487:173|487:173|492:265|492:265|468:354|468:354|452:263|452:263|408:131|408:131,1,786.666642659507,8|2,0:0|0:0,0:0:0:0:
289,157,108446,1,2,0:0:0:0:
420,320,108598,6,0,L|430:246|430:246|428:124|428:124,1,196.666660664877,8|0,0:0|0:0,0:0:0:0:
298,153,108901,2,0,L|306:228|306:228|290:349|290:349,1,196.666660664877,8|0,0:0|0:0,0:0:0:0:
422,142,109204,2,0,L|425:217|425:217|430:339|430:339,1,196.666660664877,8|0,0:0|0:0,0:0:0:0:
190,40,109507,6,0,B|151:124|151:124|130:214|130:214|103:302|103:302|83:212|83:212|64:122|64:122|65:30|65:30|62:122|62:122|92:258|92:258,1,786.666642659507,2|0,0:0|0:0,0:0:0:0:
204,263,110265,1,0,0:0:0:0:
82,257,110416,2,0,L|101:322|101:322|129:384|129:384|154:321|154:321|175:256|175:256|205:195|205:195|236:135|236:135|254:70|254:70|306:173|306:173,1,589.999979293824,8|0,0:0|0:0,0:0:0:0:
181,219,111023,1,2,0:0:0:0:
169,181,111098,1,0,0:0:0:0:
186,144,111174,1,0,0:0:0:0:
223,129,111250,1,0,0:0:0:0:
298,99,111326,6,0,L|269:193|269:193|224:280|224:280|243:353|243:353|298:244|298:244,2,196.666660664877,8|2|2,0:0|0:0|0:0,0:0:0:0:
58,52,111780,2,0,L|93:131|93:131|124:212|124:212|167:287|167:287|207:160|207:160,1,393.333321329752,8|0,0:0|0:0,0:0:0:0:
327,358,112234,6,0,L|288:281|288:281|270:196|270:196|223:123|223:123|178:249|178:249,1,393.333321329752,8|8,0:0|0:0,0:0:0:0:
421,159,112840,2,0,L|428:257|428:257,1,98.3333303324384,8|0,0:0|0:0,0:0:0:0:
355,99,112992,2,0,L|353:197|353:197,1,98.3333303324384,8|0,0:0|0:0,0:0:0:0:
184,131,113143,6,0,B|169:222|169:222|164:314|164:314|160:222|160:222|152:130|152:130|176:41|176:41|205:129|205:129|227:219|227:219|282:347|282:347,1,786.666642659507,6|0,0:0|0:0,0:0:0:0:
169,351,113900,1,2,0:0:0:0:
283,329,114052,2,0,B|321:245|321:245|355:159|355:159|373:68|373:68|398:157|398:157|401:249|401:249|408:341|408:341|413:249|413:249|379:114|379:114,1,786.666642659507,8|2,0:0|0:0,0:0:0:0:
256,60,114809,1,2,0:0:0:0:
132,107,114961,2,0,B|109:197|109:197|107:289|107:289|108:381|108:381|114:289|114:289|115:197|115:197|154:113|154:113|179:24|179:24|230:154|230:154,1,786.666642659507,8|2,0:0|0:0,0:0:0:0:
117,329,115719,1,2,0:0:0:0:
248,48,115870,6,0,L|245:123|245:123|240:245|240:245,1,196.666660664877,8|0,0:0|0:0,0:0:0:0:
371,210,116173,2,0,L|359:284|359:284|363:162|363:162,1,196.666660664877,8|0,0:0|0:0,0:0:0:0:
494,49,116476,2,0,L|491:124|491:124|486:246|486:246,1,196.666660664877,8|0,0:0|0:0,0:0:0:0:
190,40,116779,6,0,B|164:129|164:129|115:208|115:208|87:296|87:296|80:204|80:204|73:112|73:112|60:20|60:20|58:112|58:112|92:247|92:247,1,786.666642659507,2|0,0:0|0:0,0:0:0:0:
204,263,117537,1,2,0:0:0:0:
82,257,117688,2,0,B|61:347|61:347|48:255|48:255|59:163|59:163|56:71|56:71|77:161|77:161|98:251|98:251|117:341|117:341|179:217|179:217,1,786.666642659507,8|2,0:0|0:0,0:0:0:0:
291,36,118446,1,2,0:0:0:0:
168,31,118597,2,0,B|135:117|135:117|102:203|102:203|64:287|64:287|45:377|45:377|40:285|40:285|29:193|29:193|35:101|35:101|70:236|70:236,1,786.666642659507,8|2,0:0|0:0,0:0:0:0:
182,261,119355,1,2,0:0:0:0:
51,350,119507,6,0,L|47:275|47:275|43:153|43:153,1,196.666660664877,8|0,0:0|0:0,0:0:0:0:
175,188,119810,2,0,L|164:262|164:262|167:384|167:384,1,196.666660664877,8|0,0:0|0:0,0:0:0:0:
298,365,120113,1,8,0:0:0:0:
310,327,120188,1,0,0:0:0:0:
293,290,120264,1,0,0:0:0:0:
256,275,120340,1,0,0:0:0:0:
411,77,120416,6,0,L|370:160|370:160|341:248|341:248|298:330|298:330|279:240|279:240|240:156|240:156|206:70|206:70|163:152|163:152|112:281|112:281,1,786.666642659507,6|0,0:0|0:0,0:0:0:0:
230,101,121174,1,2,0:0:0:0:
108,280,121325,2,0,B|83:369|83:369|43:285|43:285|17:196|17:196|29:104|29:104|21:12|21:12|35:103|35:103|51:194|51:194|110:320|110:320,1,786.666642659507,8|2,0:0|0:0,0:0:0:0:
230,101,122083,1,2,0:0:0:0:
352,281,122234,2,0,B|381:369|381:369|412:282|412:282|433:192|433:192|442:100|442:100|434:8|434:8|430:100|430:100|402:188|402:188|350:317|350:317,1,786.666642659507,8|2,0:0|0:0,0:0:0:0:
227,101,122992,1,2,0:0:0:0:
357,356,123143,6,0,L|350:281|350:281|365:160|365:160,1,196.666660664877,8|0,0:0|0:0,0:0:0:0:
234,194,123446,2,0,L|238:269|238:269|242:147|242:147,1,196.666660664877,8|0,0:0|0:0,0:0:0:0:
111,355,123749,2,0,L|116:280|116:280|119:158|119:158,1,196.666660664877,8|0,0:0|0:0,0:0:0:0:
404,280,124052,6,0,B|443:364|443:364|477:278|477:278|476:186|476:186|489:94|489:94|492:2|492:2|471:92|471:92|452:183|452:183|402:313|402:313,1,786.666642659507,2|0,0:0|0:0,0:0:0:0:
279,101,124810,1,2,0:0:0:0:
402,307,124962,2,0,L|365:364|365:364|350:298|350:298|327:234|327:234|308:169|308:169|263:118|263:118|248:52|248:52|221:114|221:114|177:220|177:220,1,589.999981994629,8|0,0:0|0:0,0:0:0:0:
301,270,125568,1,2,0:0:0:0:
313,232,125643,1,0,0:0:0:0:
296,195,125719,1,0,0:0:0:0:
259,180,125795,1,0,0:0:0:0:
184,150,125871,6,0,L|223:240|223:240|258:332|258:332|228:263|228:263|184:150|184:150,2,196.666660664877,8|2|2,0:0|0:0|0:0,0:0:0:0:
418,39,126325,2,0,L|415:126|415:126|428:212|428:212|430:299|430:299|433:166|433:166,1,393.333321329752,8|0,0:0|0:0,0:0:0:0:
312,360,126780,2,0,L|319:274|319:274|305:188|305:188|293:102|293:102|297:235|297:235,1,393.333321329752,8|8,0:0|0:0,0:0:0:0:
76,132,127386,1,8,0:0:0:0:
64,94,127461,1,0,0:0:0:0:
81,57,127537,1,8,0:0:0:0:
118,42,127613,1,0,0:0:0:0:
290,344,127689,6,0,B|351:221|351:221|426:49|426:49,1,325.000009918213,8|2,0:0|0:0,0:0:0:0:
506,260,128030,2,0,B|439:379|439:379|370:204|370:204,1,325.000009918213,4|8,0:0|0:0,0:0:0:0:
290,224,128371,1,2,0:0:0:0:
87,355,128598,6,0,L|77:193|77:193,1,162.500004959107,8|4,0:0|0:0,0:0:0:0:
187,295,128825,2,0,L|197:133|197:133,1,162.500004959107,2|8,0:0|0:0,0:0:0:0:
307,209,129052,1,0,0:0:0:0:
109,33,129280,2,0,L|119:195|119:195,1,162.500004959107,2|8,0:0|0:0,0:0:0:0:
345,20,129507,6,0,B|386:150|386:150|409:337|409:337,1,325.000009918213,8|2,0:0|0:0,0:0:0:0:
324,178,129848,2,0,B|264:301|264:301|187:129|187:129,1,325.000009918213,4|8,0:0|0:0,0:0:0:0:
252,205,130189,1,2,0:0:0:0:
469,265,130416,6,0,L|479:103|479:103,1,162.500004959107,8|4,0:0|0:0,0:0:0:0:
368,205,130643,2,0,L|358:367|358:367,1,162.500004959107,2|8,0:0|0:0,0:0:0:0:
248,119,130870,1,0,0:0:0:0:
412,343,131098,2,0,L|343:196|343:196,1,162.500004959107,2|8,0:0|0:0,0:0:0:0:
84,329,131325,6,0,B|79:192|79:192|141:14|141:14,1,325.000009918213,8|2,0:0|0:0,0:0:0:0:
249,243,131666,2,0,L|248:380|248:380|260:192|260:192,1,325.000009918213,4|8,0:0|0:0,0:0:0:0:
147,120,132007,1,2,0:0:0:0:
299,351,132234,5,8,0:0:0:0:
192,327,132348,1,4,0:0:0:0:
276,309,132462,1,2,0:0:0:0:
360,287,132576,1,8,0:0:0:0:
256,269,132690,1,0,0:0:0:0:
78,33,132916,2,0,L|146:180|146:180,1,162.500004959107,2|8,0:0|0:0,0:0:0:0:
363,31,133143,6,0,B|403:162|403:162|427:349|427:349,1,325.000009918213,8|2,0:0|0:0,0:0:0:0:
315,237,133484,2,0,B|379:358|379:358|452:184|452:184,1,325.000009918213,4|8,0:0|0:0,0:0:0:0:
387,210,133825,1,2,0:0:0:0:
189,353,134052,5,8,0:0:0:0:
296,329,134166,1,4,0:0:0:0:
212,311,134280,1,2,0:0:0:0:
128,289,134394,1,8,0:0:0:0:
232,271,134508,1,0,0:0:0:0:
392,25,134734,2,0,L|416:186|416:186,1,162.500004959107,2|8,0:0|0:0,0:0:0:0:
150,38,134962,6,0,B|100:159|100:159|40:335|40:335,1,317.499990310669,8|0,0:0|0:0,0:0:0:0:
127,143,135274,1,4,0:0:0:0:
214,176,135378,2,0,B|183:304|183:304|103:136|103:136,1,317.499990310669,8|2,0:0|0:0,0:0:0:0:
257,165,135795,5,8,0:0:0:0:
256,100,135899,1,0,0:0:0:0:
221,45,136003,1,2,0:0:0:0:
163,15,136107,1,4,0:0:0:0:
245,28,136212,1,8,0:0:0:0:
78,233,136420,1,2,0:0:0:0:
357,103,136628,6,0,B|401:227|401:227|467:53|467:53,1,317.499990310669,8|2,0:0|0:0,0:0:0:0:
380,208,136940,1,4,0:0:0:0:
293,241,137044,2,0,B|338:364|338:364|404:190|404:190,1,317.499990310669,8|2,0:0|0:0,0:0:0:0:
103,349,137462,5,8,0:0:0:0:
86,287,137566,1,0,0:0:0:0:
113,228,137670,1,2,0:0:0:0:
171,201,137774,1,0,0:0:0:0:
353,331,137878,2,0,L|418:186|418:186,1,158.749995155335,8|0,0:0|0:0,0:0:0:0:
159,331,138087,2,0,L|94:186|94:186,1,158.749995155335,2|0,0:0|0:0,0:0:0:0:
378,43,138295,6,0,L|308:161|308:161|235:342|235:342,1,332.500006341935,12|4,0:0|0:0,0:0:0:0:
148,55,138607,1,2,0:0:0:0:
235,53,138712,1,8,0:0:0:0:
148,83,138816,1,0,0:0:0:0:
114,171,138920,1,4,0:0:0:0:
148,253,139024,1,0,0:0:0:0:
319,317,139128,5,8,0:0:0:0:
408,305,139232,1,8,0:0:0:0:
319,317,139337,1,6,0:0:0:0:
408,305,139441,1,8,0:0:0:0:
498,293,139545,2,0,B|482:156|482:156|414:339|414:339,1,332.500006341935,8|0,0:0|0:0,0:0:0:0:
341,185,139857,1,0,0:0:0:0:
145,58,139962,6,0,L|204:182|204:182|288:358|288:358,1,332.500006341935,0|4,0:0|0:0,0:0:0:0:
373,84,140274,1,2,0:0:0:0:
288,76,140379,1,8,0:0:0:0:
375,106,140483,1,0,0:0:0:0:
409,194,140587,1,4,0:0:0:0:
375,276,140691,1,0,0:0:0:0:
197,317,140795,5,8,0:0:0:0:
106,296,140899,1,2,0:0:0:0:
197,317,141004,1,4,0:0:0:0:
106,296,141108,1,2,0:0:0:0:
16,78,141212,2,0,L|69:205|69:205|159:378|159:378,1,332.500006341935,8|0,0:0|0:0,0:0:0:0:
81,126,141524,1,2,0:0:0:0:
310,100,141628,6,0,B|304:237|304:237|247:51|247:51,1,332.500006341935,2|4,0:0|0:0,0:0:0:0:
173,223,141941,1,2,0:0:0:0:
287,187,142045,1,8,0:0:0:0:
328,209,142149,1,0,0:0:0:0:
320,255,142253,1,4,0:0:0:0:
273,262,142357,1,0,0:0:0:0:
89,339,142462,5,8,0:0:0:0:
165,331,142566,1,8,0:0:0:0:
89,339,142670,2,0,L|76:173|76:173,1,166.250003170967,6|8,0:0|0:0,0:0:0:0:
283,78,142878,2,0,L|220:200|220:200|140:378|140:378,1,332.500006341935,8|6,0:0|0:0,0:0:0:0:
214,32,143191,1,0,0:0:0:0:
450,249,143295,6,0,B|438:112|438:112|372:295|372:295,1,332.500006341935,0|4,0:0|0:0,0:0:0:0:
292,359,143608,1,2,0:0:0:0:
214,363,143712,1,8,0:0:0:0:
292,359,143816,1,0,0:0:0:0:
371,353,143920,1,4,0:0:0:0:
292,359,144024,1,0,0:0:0:0:
113,164,144128,5,8,0:0:0:0:
189,172,144232,1,2,0:0:0:0:
113,164,144336,2,0,L|100:330|100:330,1,166.250003170967,4|2,0:0|0:0,0:0:0:0:
300,106,144545,2,0,L|234:227|234:227|157:48|157:48,1,332.500006341935,8|0,0:0|0:0,0:0:0:0:
229,61,144858,1,2,0:0:0:0:
428,85,144962,6,0,L|440:222|440:222|445:27|445:27,1,332.500006341935,2|4,0:0|0:0,0:0:0:0:
371,267,145274,1,2,0:0:0:0:
299,303,145378,1,8,0:0:0:0:
158,249,145587,1,4,0:0:0:0:
475,205,145795,5,8,0:0:0:0:
485,135,145899,1,2,0:0:0:0:
451,73,146003,1,6,0:0:0:0:
388,43,146107,1,8,0:0:0:0:
193,141,146212,2,0,B|244:269|244:269|336:97|336:97,1,332.500006341935,8|0,0:0|0:0,0:0:0:0:
259,95,146524,1,0,0:0:0:0:
84,85,146628,6,0,L|69:222|69:222|67:27|67:27,1,332.500006341935,0|4,0:0|0:0,0:0:0:0:
141,267,146940,1,2,0:0:0:0:
67,227,147044,1,8,0:0:0:0:
229,176,147253,1,4,0:0:0:0:
40,311,147462,5,8,0:0:0:0:
30,241,147566,1,2,0:0:0:0:
64,179,147670,1,4,0:0:0:0:
127,149,147774,1,2,0:0:0:0:
339,272,147878,2,0,L|344:135|344:135|356:330|356:330,1,332.500006341935,8|4,0:0|0:0,0:0:0:0:
282,90,148190,1,2,0:0:0:0:
71,215,148295,6,0,B|78:352|78:352|134:165|134:165,1,332.500006341935,2|4,0:0|0:0,0:0:0:0:
221,362,148607,1,2,0:0:0:0:
134,339,148712,1,8,0:0:0:0:
207,318,148816,1,0,0:0:0:0:
247,247,148920,1,4,0:0:0:0:
218,176,149024,1,0,0:0:0:0:
35,21,149128,5,8,0:0:0:0:
111,29,149232,1,8,0:0:0:0:
35,21,149336,2,0,L|22:187|22:187,1,166.250003170967,6|8,0:0|0:0,0:0:0:0:
245,153,149545,2,0,L|189:279|189:279|102:105|102:105,1,332.500006341935,8|0,0:0|0:0,0:0:0:0:
175,115,149858,1,0,0:0:0:0:
357,313,149962,6,0,L|306:185|306:185|214:13|214:13,1,332.500006341935,0|4,0:0|0:0,0:0:0:0:
136,333,150274,1,2,0:0:0:0:
202,294,150378,1,8,0:0:0:0:
214,223,150482,1,0,0:0:0:0:
176,160,150587,1,4,0:0:0:0:
95,157,150691,1,0,0:0:0:0:
298,149,150795,6,0,L|311:315|311:315,1,166.250003170967,8|2,0:0|0:0,0:0:0:0:
206,149,151003,2,0,L|193:315|193:315,1,166.250003170967,4|2,0:0|0:0,0:0:0:0:
385,147,151212,2,0,B|370:284|370:284|307:100|307:100,1,332.500006341935,8|0,0:0|0:0,0:0:0:0:
227,37,151525,1,2,0:0:0:0:
441,215,151628,6,0,B|421:351|421:351|378:161|378:161,1,332.500006341935,2|4,0:0|0:0,0:0:0:0:
291,362,151940,1,2,0:0:0:0:
378,339,152045,1,8,0:0:0:0:
305,318,152149,1,0,0:0:0:0:
265,247,152253,1,4,0:0:0:0:
294,176,152357,1,0,0:0:0:0:
477,21,152461,5,8,0:0:0:0:
401,29,152565,1,8,0:0:0:0:
477,21,152670,2,0,L|490:187|490:187,1,166.250003170967,6|8,0:0|0:0,0:0:0:0:
279,191,152878,1,8,0:0:0:0:
200,169,152982,1,0,0:0:0:0:
279,163,153087,1,6,0:0:0:0:
358,157,153191,1,0,0:0:0:0:
157,75,153295,6,0,L|216:199|216:199|300:375|300:375,1,332.500006341935,0|4,0:0|0:0,0:0:0:0:
223,33,153607,1,2,0:0:0:0:
390,230,153712,2,0,L|338:357|338:357|247:185|247:185,1,332.500006341935,8|4,0:0|0:0,0:0:0:0:
319,178,154024,1,0,0:0:0:0:
484,206,154128,5,8,0:0:0:0:
498,137,154232,1,2,0:0:0:0:
464,75,154336,1,4,0:0:0:0:
399,49,154440,1,2,0:0:0:0:
193,328,154545,1,8,0:0:0:0:
45,284,154753,2,0,L|58:118|58:118,1,166.250003170967,0|2,0:0|0:0,0:0:0:0:
236,20,154962,6,0,B|296:144|296:144|298:339|298:339,1,332.500006341935,2|4,0:0|0:0,0:0:0:0:
113,33,155275,1,2,0:0:0:0:
320,70,155379,1,8,0:0:0:0:
325,140,155483,1,0,0:0:0:0:
286,199,155587,1,4,0:0:0:0:
220,225,155691,1,0,0:0:0:0:
406,220,155795,6,0,L|424:385|424:385,1,166.250003170967,8|8,0:0|0:0,0:0:0:0:
326,306,156003,2,0,L|308:141|308:141,1,166.250003170967,6|8,0:0|0:0,0:0:0:0:
115,315,156212,2,0,B|118:178|118:178|178:364|178:364,1,332.500006341935,8|0,0:0|0:0,0:0:0:0:
359,220,156524,1,0,0:0:0:0:
168,362,156629,6,0,B|125:231|125:231|106:37|106:37,1,332.500006341935,0|4,0:0|0:0,0:0:0:0:
297,347,156942,1,2,0:0:0:0:
93,335,157046,1,8,0:0:0:0:
88,265,157150,1,0,0:0:0:0:
127,206,157254,1,4,0:0:0:0:
193,180,157358,1,0,0:0:0:0:
375,141,157462,6,0,L|304:291|304:291,1,166.250003170967,8|2,0:0|0:0,0:0:0:0:
227,104,157670,2,0,L|298:254|298:254,1,166.250003170967,4|2,0:0|0:0,0:0:0:0:
482,123,157878,2,0,B|492:260|492:260|419:79|419:79,1,332.500006341935,8|0,0:0|0:0,0:0:0:0:
345,15,158191,1,2,0:0:0:0:
172,350,158295,6,0,L|238:229|238:229|314:50|314:50,1,332.500006341935,2|4,0:0|0:0,0:0:0:0:
149,384,158608,1,2,0:0:0:0:
323,353,158711,1,8,0:0:0:0:
328,283,158815,1,0,0:0:0:0:
289,224,158919,1,4,0:0:0:0:
223,198,159023,1,0,0:0:0:0:
53,138,159128,5,8,0:0:0:0:
128,155,159232,1,8,0:0:0:0:
42,135,159336,1,6,0:0:0:0:
211,174,159440,1,8,0:0:0:0:
34,131,159545,2,0,B|17:267|17:267|75:81|75:81,1,332.500006341935,8|0,0:0|0:0,0:0:0:0:
147,24,159857,1,0,0:0:0:0:
403,100,159962,6,0,L|348:226|348:226|261:52|261:52,1,332.500006341935,0|4,0:0|0:0,0:0:0:0:
426,134,160275,1,2,0:0:0:0:
243,106,160378,2,0,L|234:272|234:272,1,166.250003170967,8|0,0:0|0:0,0:0:0:0:
141,169,160587,2,0,L|132:335|132:335,1,166.250003170967,4|0,0:0|0:0,0:0:0:0:
326,191,160795,6,0,L|335:357|335:357,1,166.250003170967,8|2,0:0|0:0,0:0:0:0:
428,254,161004,2,0,L|437:88|437:88,1,166.250003170967,4|2,0:0|0:0,0:0:0:0:
224,261,161212,2,0,B|211:124|211:124|287:304|287:304,1,332.500006341935,8|0,0:0|0:0,0:0:0:0:
361,369,161525,1,2,0:0:0:0:
183,55,161628,6,0,B|236:182|236:182|326:355|326:355,1,332.500006341935,2|4,0:0|0:0,0:0:0:0:
250,17,161941,1,2,0:0:0:0:
46,154,162045,2,0,B|32:291|32:291|97:107|97:107,1,332.500006341935,8|4,0:0|0:0,0:0:0:0:
176,72,162358,1,0,0:0:0:0:
361,154,162462,6,0,L|352:320|352:320,1,166.250003170967,8|8,0:0|0:0,0:0:0:0:
173,190,162670,1,6,0:0:0:0:
352,225,162774,1,8,0:0:0:0:
173,190,162879,1,8,0:0:0:0:
273,309,163087,2,0,L|203:158|203:158,1,166.250003170967,6|0,0:0|0:0,0:0:0:0:
365,72,163295,6,0,B|316:200|316:200|222:371|222:371,1,332.500006341935,0|4,0:0|0:0,0:0:0:0:
298,34,163608,1,2,0:0:0:0:
484,180,163712,2,0,B|485:318|485:318|433:130|433:130,1,332.500006341935,8|4,0:0|0:0,0:0:0:0:
354,98,164025,1,0,0:0:0:0:
178,225,164128,6,0,L|169:59|169:59,1,166.250003170967,8|2,0:0|0:0,0:0:0:0:
357,190,164336,1,4,0:0:0:0:
178,225,164440,1,2,0:0:0:0:
357,190,164545,1,8,0:0:0:0:
254,320,164753,2,0,L|324:169|324:169,1,166.250003170967,0|2,0:0|0:0,0:0:0:0:
141,31,164962,6,0,L|204:153|204:153|284:331|284:331,1,332.500006341935,2|4,0:0|0:0,0:0:0:0:
371,43,165274,1,2,0:0:0:0:
284,41,165379,1,8,0:0:0:0:
299,116,165483,1,0,0:0:0:0:
353,179,165587,1,4,0:0:0:0:
434,207,165691,1,0,0:0:0:0:
260,311,165795,5,8,0:0:0:0:
171,299,165899,1,8,0:0:0:0:
260,311,166004,1,6,0:0:0:0:
171,299,166108,1,8,0:0:0:0:
81,287,166212,2,0,B|88:150|88:150|165:329|165:329,1,332.500006341935,8|0,0:0|0:0,0:0:0:0:
238,179,166524,1,0,0:0:0:0:
53,19,166628,6,0,L|53:157|53:157|32:351|32:351,1,332.500006341935,0|4,0:0|0:0,0:0:0:0:
108,148,166941,1,2,0:0:0:0:
183,134,167045,1,8,0:0:0:0:
31,161,167253,1,4,0:0:0:0:
334,254,167462,6,0,L|263:104|263:104,1,166.250003170967,8|2,0:0|0:0,0:0:0:0:
359,299,167671,2,0,L|348:133|348:133,1,166.250003170967,4|2,0:0|0:0,0:0:0:0:
113,20,167878,2,0,L|102:186|102:186,1,166.250003170967,8|8,0:0|0:0,0:0:0:0:
197,32,168087,2,0,L|126:183|126:183,1,166.250003170967,4|2,0:0|0:0,0:0:0:0:
337,38,168295,6,0,P|319:203|319:203,1,166.250003170967,4|0,0:0|0:0,0:0:0:0:
193,84,168607,2,0,P|194:250|194:250,1,166.250003170967,4|8,0:0|0:0,0:0:0:0:
66,187,168920,1,10,0:0:0:0:
81,238,169024,6,0,B|118:370|118:370|187:188|187:188,1,332.500006341935,4|8,0:0|0:0,0:0:0:0:
286,283,169337,1,6,0:0:0:0:
74,162,169545,1,8,0:0:0:0:
97,229,169649,1,0,0:0:0:0:
145,281,169753,1,2,0:0:0:0:
210,311,169857,1,4,0:0:0:0:
315,46,169962,6,0,P|297:211|297:211,1,166.250003170967,8|0,0:0|0:0,0:0:0:0:
171,92,170274,2,0,P|172:258|172:258,1,166.250003170967,4|8,0:0|0:0,0:0:0:0:
44,194,170587,1,10,0:0:0:0:
59,245,170691,6,0,B|86:380|86:380|165:202|165:202,1,332.500006341935,4|8,0:0|0:0,0:0:0:0:
65,336,171003,1,6,0:0:0:0:
335,62,171212,2,0,L|264:212|264:212,1,166.250003170967,8|8,0:0|0:0,0:0:0:0:
349,38,171421,2,0,L|278:188|278:188,1,166.250003170967,2|4,0:0|0:0,0:0:0:0:
105,40,171628,6,0,P|123:205|123:205,1,166.250003170967,8|0,0:0|0:0,0:0:0:0:
249,86,171940,2,0,P|248:252|248:252,1,166.250003170967,4|8,0:0|0:0,0:0:0:0:
376,189,172253,1,10,0:0:0:0:
366,243,172357,1,4,0:0:0:0:
332,289,172461,1,0,0:0:0:0:
257,336,172565,1,8,0:0:0:0:
375,307,172670,6,0,B|399:172|399:172|379:366|379:366,1,332.500006341935,6|8,0:0|0:0,0:0:0:0:
306,158,172982,1,0,0:0:0:0:
233,143,173086,1,2,0:0:0:0:
306,158,173191,1,4,0:0:0:0:
143,49,173295,6,0,P|161:214|161:214,1,166.250003170967,8|0,0:0|0:0,0:0:0:0:
287,95,173607,2,0,P|286:261|286:261,1,166.250003170967,4|8,0:0|0:0,0:0:0:0:
415,202,173920,1,10,0:0:0:0:
405,256,174024,1,4,0:0:0:0:
371,302,174128,1,0,0:0:0:0:
296,349,174232,1,8,0:0:0:0:
415,295,174337,6,0,B|428:158|428:158|419:353|419:353,1,332.500006341935,6|8,0:0|0:0,0:0:0:0:
346,146,174649,1,8,0:0:0:0:
273,131,174753,1,2,0:0:0:0:
346,146,174858,1,4,0:0:0:0:
164,42,174962,6,0,L|96:144|96:144,1,122.500003738404,8|0,0:0|0:0,0:0:0:0:
247,205,175254,2,0,L|179:307|179:307,1,122.500003738404,4|8,0:0|0:0,0:0:0:0:
328,42,175546,1,10,0:0:0:0:
256,57,175643,1,4,0:0:0:0:
335,84,175741,5,0,0:0:0:0:
367,155,175838,1,8,0:0:0:0:
335,232,175936,1,6,0:0:0:0:
256,261,176033,1,0,0:0:0:0:
335,232,176130,1,8,0:0:0:0:
367,155,176228,1,0,0:0:0:0:
335,84,176325,1,2,0:0:0:0:
256,57,176423,1,4,0:0:0:0:
72,76,176520,6,0,L|140:178|140:178,1,122.500003738404,8|0,0:0|0:0,0:0:0:0:
295,175,176812,2,0,L|227:277|227:277,1,122.500003738404,4|8,0:0|0:0,0:0:0:0:
378,331,177104,1,10,0:0:0:0:
306,316,177201,1,4,0:0:0:0:
124,83,177299,6,0,L|180:175|180:175,1,107.499996719361,8|0,0:0|0:0,0:0:0:0:
387,83,177494,2,0,L|331:175|331:175,1,107.499996719361,10|0,0:0|0:0,0:0:0:0:
164,58,177689,2,0,L|108:150|108:150,1,107.499996719361,8|0,0:0|0:0,0:0:0:0:
348,58,177884,2,0,L|404:150|404:150,1,107.499996719361,2|0,0:0|0:0,0:0:0:0:
103,166,178078,6,0,L|157:242|157:242|228:359|228:359,1,230,4|0,0:0|0:0,0:0:0:0:
227,202,178338,1,0,0:0:0:0:
205,245,178403,1,0,0:0:0:0:
169,271,178468,1,4,0:0:0:0:
113,291,178533,1,0,0:0:0:0:
391,176,178663,6,0,B|399:251|399:251|396:327|396:327|379:253|379:253|320:151|320:151,1,345,10|0,0:0|0:0,0:0:0:0:
219,359,179052,2,0,L|281:262|281:262,1,115,2|0,0:0|0:0,0:0:0:0:
386,288,179247,2,0,L|324:385|324:385,1,115,4|0,0:0|0:0,0:0:0:0:
136,318,179442,1,10,0:0:0:0:
73,312,179539,1,8,0:0:0:0:
268,9,179637,5,4,0:0:0:0:
316,67,179734,1,0,0:0:0:0:
291,141,179832,1,2,0:0:0:0:
188,166,179929,1,0,0:0:0:0:
163,240,180027,1,8,0:0:0:0:
252,249,180124,1,0,0:0:0:0:
57,338,180221,6,0,B|33:266|33:266|10:194|10:194|22:119|22:119|81:17|81:17,1,345,2|0,0:0|0:0,0:0:0:0:
174,314,180611,1,2,0:0:0:0:
102,307,180708,1,0,0:0:0:0:
29,299,180806,1,4,0:0:0:0:
86,179,180903,1,0,0:0:0:0:
269,252,181000,2,0,L|330:349|330:349,1,115,10|8,0:0|0:0,0:0:0:0:
152,28,181195,6,0,L|207:104|207:104|275:222|275:222,1,230,4|2,0:0|0:0,0:0:0:0:
284,86,181455,1,0,0:0:0:0:
269,130,181520,1,0,0:0:0:0:
234,168,181585,1,4,0:0:0:0:
183,185,181650,1,0,0:0:0:0:
442,349,181780,6,0,B|414:279|414:279|402:204|402:204|348:151|348:151|294:46|294:46,1,345,10|0,0:0|0:0,0:0:0:0:
374,123,182169,1,2,0:0:0:0:
441,157,182266,1,0,0:0:0:0:
362,176,182363,1,4,0:0:0:0:
322,242,182461,1,0,0:0:0:0:
340,318,182558,1,10,0:0:0:0:
411,360,182656,1,8,0:0:0:0:
170,105,182754,5,4,0:0:0:0:
214,174,182852,1,0,0:0:0:0:
304,196,182949,1,2,0:0:0:0:
214,218,183046,1,0,0:0:0:0:
170,287,183144,1,8,0:0:0:0:
342,105,183338,5,2,0:0:0:0:
298,174,183436,1,0,0:0:0:0:
208,196,183533,1,4,0:0:0:0:
298,218,183630,1,0,0:0:0:0:
342,287,183728,1,2,0:0:0:0:
181,369,183923,6,0,L|120:272|120:272,1,115,4|0,0:0|0:0,0:0:0:0:
201,346,184117,2,0,L|140:249|140:249,1,115,10|8,0:0|0:0,0:0:0:0:
337,47,184312,6,0,L|294:130|294:130|213:240|213:240,1,230,4|2,0:0|0:0,0:0:0:0:
223,107,184572,1,0,0:0:0:0:
246,145,184637,1,0,0:0:0:0:
287,178,184702,1,4,0:0:0:0:
334,190,184767,1,0,0:0:0:0:
61,347,184897,6,0,B|31:277|31:277|32:201|32:201|37:126|37:126|96:24|96:24,1,345,10|0,0:0|0:0,0:0:0:0:
179,165,185286,2,0,L|119:263|119:263,1,115,2|0,0:0|0:0,0:0:0:0:
32,89,185481,2,0,L|92:187|92:187,1,115,4|0,0:0|0:0,0:0:0:0:
254,35,185676,2,0,L|193:132|193:132,1,115,10|8,0:0|0:0,0:0:0:0:
351,348,185871,5,4,0:0:0:0:
378,281,185968,1,0,0:0:0:0:
350,208,186065,1,2,0:0:0:0:
277,182,186163,1,0,0:0:0:0:
188,293,186260,2,0,L|249:195|249:195,1,115,8|0,0:0|0:0,0:0:0:0:
441,335,186455,6,0,B|488:276|488:276|499:201|499:201|469:132|469:132|420:25|420:25,1,345,2|0,0:0|0:0,0:0:0:0:
331,355,186845,2,0,L|392:258|392:258,1,115,2|0,0:0|0:0,0:0:0:0:
488,180,187039,2,0,L|427:277|427:277,1,115,4|0,0:0|0:0,0:0:0:0:
242,197,187234,2,0,L|181:295|181:295,1,115,10|8,0:0|0:0,0:0:0:0:
387,24,187429,6,0,L|330:98|330:98|264:217|264:217,1,230,4|2,0:0|0:0,0:0:0:0:
310,62,187689,1,0,0:0:0:0:
357,76,187754,1,0,0:0:0:0:
310,95,187819,1,4,0:0:0:0:
263,114,187884,1,0,0:0:0:0:
16,260,188013,6,0,B|28:335|28:335|55:264|55:264|75:191|75:191|147:97|147:97,1,345,10|0,0:0|0:0,0:0:0:0:
257,260,188403,2,0,L|268:374|268:374,1,115,2|0,0:0|0:0,0:0:0:0:
382,145,188598,1,4,0:0:0:0:
447,186,188695,1,0,0:0:0:0:
468,259,188792,1,10,0:0:0:0:
424,327,188890,1,8,0:0:0:0:
181,338,188987,5,4,0:0:0:0:
107,323,189085,1,0,0:0:0:0:
185,300,189182,1,2,0:0:0:0:
221,226,189279,1,0,0:0:0:0:
182,156,189377,1,8,0:0:0:0:
342,105,189572,5,2,0:0:0:0:
298,174,189670,1,0,0:0:0:0:
208,196,189767,1,4,0:0:0:0:
298,218,189864,1,0,0:0:0:0:
342,287,189962,1,2,0:0:0:0:
189,46,190156,6,0,L|206:160|206:160,1,115,4|0,0:0|0:0,0:0:0:0:
314,22,190351,2,0,L|331:136|331:136,1,115,10|8,0:0|0:0,0:0:0:0:
89,72,190546,6,0,B|53:158|53:158|41:294|41:294,1,230,4|2,0:0|0:0,0:0:0:0:
124,158,190806,1,0,0:0:0:0:
175,175,190871,1,0,0:0:0:0:
210,213,190936,1,4,0:0:0:0:
220,258,191001,1,0,0:0:0:0:
467,340,191130,6,0,B|474:265|474:265|461:191|461:191|444:117|444:117|389:13|389:13,1,345,10|0,0:0|0:0,0:0:0:0:
307,222,191520,2,0,L|368:319|368:319,1,115,2|0,0:0|0:0,0:0:0:0:
466,117,191715,2,0,L|404:214|404:214,1,115,4|0,0:0|0:0,0:0:0:0:
217,323,191910,2,0,L|278:226|278:226,1,115,10|8,0:0|0:0,0:0:0:0:
98,362,192104,5,4,0:0:0:0:
56,296,192201,1,0,0:0:0:0:
91,222,192299,1,2,0:0:0:0:
169,204,192396,1,0,0:0:0:0:
89,196,192494,1,8,0:0:0:0:
169,204,192591,1,0,0:0:0:0:
388,6,192689,6,0,L|344:67|344:67|307:133|307:133|276:202|276:202|204:295|204:295,1,345,2|0,0:0|0:0,0:0:0:0:
292,41,193078,1,2,0:0:0:0:
370,59,193175,1,0,0:0:0:0:
405,133,193273,1,4,0:0:0:0:
363,199,193370,1,0,0:0:0:0:
153,291,193468,2,0,L|215:194|215:194,1,115,10|8,0:0|0:0,0:0:0:0:
392,384,193663,6,0,B|437:302|437:302|440:166|440:166,1,230,4|2,0:0|0:0,0:0:0:0:
357,298,193923,1,0,0:0:0:0:
306,281,193988,1,0,0:0:0:0:
271,243,194053,1,4,0:0:0:0:
261,198,194118,1,0,0:0:0:0:
43,128,194247,6,0,B|22:201|22:201|54:269|54:269|92:335|92:335|159:237|159:237,1,345,10|0,0:0|0:0,0:0:0:0:
314,88,194637,2,0,L|303:202|303:202,1,115,2|0,0:0|0:0,0:0:0:0:
96,185,194832,1,4,0:0:0:0:
57,124,194929,1,0,0:0:0:0:
81,59,195026,1,10,0:0:0:0:
147,38,195124,1,8,0:0:0:0:
312,26,195221,5,4,0:0:0:0:
251,40,195319,1,0,0:0:0:0:
331,56,195416,1,2,0:0:0:0:
411,76,195513,1,0,0:0:0:0:
349,92,195611,1,8,0:0:0:0:
170,105,195806,5,2,0:0:0:0:
214,174,195904,1,0,0:0:0:0:
304,196,196001,1,4,0:0:0:0:
214,218,196098,1,0,0:0:0:0:
170,287,196196,1,2,0:0:0:0:
316,189,196390,6,0,L|377:286|377:286,1,115,4|0,0:0|0:0,0:0:0:0:
196,189,196585,2,0,L|135:286|135:286,1,115,10|8,0:0|0:0,0:0:0:0:
335,43,196780,6,0,B|392:118|392:118|458:237|458:237,1,230,4|2,0:0|0:0,0:0:0:0:
387,101,197072,1,0,0:0:0:0:
197,349,197169,1,4,0:0:0:0:
139,326,197266,1,0,0:0:0:0:
124,258,197363,1,2,0:0:0:0:
245,247,197559,5,4,0:0:0:0:
61,221,197656,1,4,0:0:0:0:
69,171,197754,1,2,0:0:0:0:
228,161,197851,1,4,0:0:0:0:
14,125,197949,1,4,0:0:0:0:
27,69,198046,1,8,0:0:0:0:
69,26,198143,1,10,0:0:0:0:
141,7,198241,1,8,0:0:0:0:
348,332,198338,6,0,B|389:248|389:248|426:117|426:117,1,230,4|2,0:0|0:0,0:0:0:0:
363,184,198630,1,0,0:0:0:0:
163,352,198728,2,0,B|103:254|103:254|163:156|163:156,2,115,4|0|2,0:0|0:0|0:0,0:0:0:0:
292,42,199117,5,4,0:0:0:0:
95,106,199215,1,4,0:0:0:0:
80,183,199312,1,2,0:0:0:0:
119,245,199410,1,4,0:0:0:0:
298,30,199507,1,4,0:0:0:0:
457,193,199604,1,8,0:0:0:0:
432,267,199702,1,10,0:0:0:0:
349,286,199799,1,8,0:0:0:0:
157,320,199897,6,0,L|114:237|114:237|33:128|33:128,1,230,4|2,0:0|0:0,0:0:0:0:
85,151,200189,1,0,0:0:0:0:
315,349,200286,1,4,0:0:0:0:
373,326,200383,1,0,0:0:0:0:
388,258,200480,1,2,0:0:0:0:
267,247,200676,5,4,0:0:0:0:
451,221,200773,1,4,0:0:0:0:
443,171,200871,1,2,0:0:0:0:
284,161,200968,1,4,0:0:0:0:
498,125,201065,1,4,0:0:0:0:
485,69,201162,1,8,0:0:0:0:
443,26,201259,1,10,0:0:0:0:
371,7,201357,1,8,0:0:0:0:
177,28,201455,6,0,B|132:110|132:110|99:242|99:242,1,230,4|2,0:0|0:0,0:0:0:0:
162,176,201747,1,0,0:0:0:0:
363,309,201845,2,0,B|424:212|424:212|363:115|363:115,2,115,4|0|2,0:0|0:0|0:0,0:0:0:0:
206,315,202234,5,4,0:0:0:0:
221,280,202299,1,0,0:0:0:0:
259,255,202364,1,0,0:0:0:0:
418,224,202429,1,2,0:0:0:0:
456,199,202494,1,0,0:0:0:0:
471,164,202559,1,0,0:0:0:0:
456,90,202624,1,4,0:0:0:0:
374,71,202721,1,8,0:0:0:0:
456,90,202819,1,10,0:0:0:0:
374,71,202916,1,8,0:0:0:0:
187,370,203013,6,0,L|184:276|184:276|170:140|170:140,1,230,4|2,0:0|0:0,0:0:0:0:
272,230,203273,1,0,0:0:0:0:
278,198,203338,1,0,0:0:0:0:
283,168,203403,1,4,0:0:0:0:
288,138,203468,1,0,0:0:0:0:
57,45,203598,6,0,B|52:120|52:120|35:194|35:194|56:267|56:267|128:361|128:361,1,345,10|0,0:0|0:0,0:0:0:0:
344,254,203987,2,0,L|355:368|355:368,1,115,2|0,0:0|0:0,0:0:0:0:
253,185,204182,2,0,L|246:300|246:300,1,115,4|0,0:0|0:0,0:0:0:0:
144,127,204377,2,0,L|119:239|119:239,1,115,10|8,0:0|0:0,0:0:0:0:
315,37,204572,6,0,P|253:134|253:134,1,115,4|0,0:0|0:0,0:0:0:0:
324,52,204767,1,2,0:0:0:0:
387,99,204864,1,0,0:0:0:0:
406,178,204961,1,8,0:0:0:0:
375,248,205059,1,0,0:0:0:0:
212,349,205156,6,0,B|170:286|170:286|133:220|133:220|145:145|145:145|157:28|157:28,1,345,2|0,0:0|0:0,0:0:0:0:
208,153,205546,1,2,0:0:0:0:
283,95,205643,1,0,0:0:0:0:
377,93,205741,1,4,0:0:0:0:
288,103,205838,1,0,0:0:0:0:
199,113,205936,1,10,0:0:0:0:
110,125,206033,1,8,0:0:0:0:
313,1,206130,6,0,L|325:94|325:94|330:230|330:230,1,230,4|2,0:0|0:0,0:0:0:0:
228,203,206390,1,0,0:0:0:0:
222,235,206455,1,0,0:0:0:0:
217,265,206520,1,4,0:0:0:0:
212,295,206585,1,0,0:0:0:0:
439,256,206715,6,0,B|466:327|466:327|459:252|459:252|434:181|434:181|368:83|368:83,1,345,10|0,0:0|0:0,0:0:0:0:
160,95,207104,2,0,L|149:209|149:209,1,115,2|0,0:0|0:0,0:0:0:0:
246,161,207299,2,0,L|253:276|253:276,1,115,4|0,0:0|0:0,0:0:0:0:
352,227,207494,2,0,L|377:339|377:339,1,115,10|8,0:0|0:0,0:0:0:0:
169,88,207689,5,4,0:0:0:0:
213,157,207786,1,0,0:0:0:0:
304,182,207884,1,2,0:0:0:0:
213,201,207981,1,0,0:0:0:0:
169,270,208078,1,8,0:0:0:0:
344,89,208273,5,2,0:0:0:0:
300,158,208371,1,0,0:0:0:0:
129,188,208468,1,4,0:0:0:0:
300,202,208565,1,0,0:0:0:0:
344,271,208663,1,2,0:0:0:0:
171,345,208858,6,0,L|193:232|193:232,1,115,4|0,0:0|0:0,0:0:0:0:
391,344,209052,2,0,L|369:231|369:231,1,115,10|8,0:0|0:0,0:0:0:0:
116,30,209247,6,0,B|82:114|82:114|104:244|104:244,1,222.499994058609,4|0,0:0|0:0,0:0:0:0:
199,172,209539,2,0,L|201:263|201:263|184:132|184:132,1,222.499994058609,8|0,0:0|0:0,0:0:0:0:
289,323,209832,2,0,L|230:229|230:229,1,111.249997029305,4|0,0:0|0:0,0:0:0:0:
328,186,210026,5,0,0:0:0:0:
351,121,210124,1,0,0:0:0:0:
320,59,210221,1,0,0:0:0:0:
249,34,210319,1,0,0:0:0:0:
80,133,210416,1,8,0:0:0:0:
251,349,210513,2,0,L|259:259|259:259|267:127|267:127,1,222.499994058609,4|0,0:0|0:0,0:0:0:0:
101,27,210806,6,0,B|79:115|79:115|89:246|89:246,1,222.499994058609,2|0,0:0|0:0,0:0:0:0:
184,169,211098,2,0,L|174:259|174:259|169:127|169:127,1,222.499994058609,8|0,0:0|0:0,0:0:0:0:
274,320,211391,2,0,L|215:226|215:226,1,111.249997029305,4|0,0:0|0:0,0:0:0:0:
313,183,211585,5,0,0:0:0:0:
336,118,211683,1,0,0:0:0:0:
305,56,211780,1,0,0:0:0:0:
234,31,211878,1,0,0:0:0:0:
65,130,211975,1,8,0:0:0:0:
228,355,212072,2,0,L|246:266|246:266|244:134|244:134,1,222.499994058609,4|0,0:0|0:0,0:0:0:0:
411,357,212364,6,0,B|451:275|451:275|423:146|423:146,1,222.499994058609,2|0,0:0|0:0,0:0:0:0:
323,235,212656,2,0,B|370:312|370:312|440:200|440:200,1,222.499994058609,8|0,0:0|0:0,0:0:0:0:
335,260,212949,2,0,L|322:370|322:370,1,111.249997029305,4|0,0:0|0:0,0:0:0:0:
422,145,213143,6,0,L|436:256|436:254,1,111.250000084877
333,74,213338,2,0,L|321:184|321:183,1,111.250000084877
420,42,213533,1,8,0:0:0:0:
262,20,213630,2,0,L|258:111|258:111|246:242|246:242,1,222.499994058609,4|0,0:0|0:0,0:0:0:0:
431,356,213923,6,0,B|460:270|460:270|443:139|443:139,1,222.499994058609,2|0,0:0|0:0,0:0:0:0:
343,234,214215,2,0,B|399:305|399:305|460:188|460:188,1,222.499994058609,8|0,0:0|0:0,0:0:0:0:
353,264,214508,2,0,L|340:374|340:374,1,111.249997029305,4|0,0:0|0:0,0:0:0:0:
440,144,214702,6,0,L|453:254|453:254,1,111.249997029305
351,73,214897,2,0,L|338:183|338:183,1,111.249997029305
438,41,215092,1,8,0:0:0:0:
263,339,215189,2,0,B|312:263|312:263|380:150|380:150,1,222.499994058609,4|0,0:0|0:0,0:0:0:0:
211,215,215481,6,0,B|171:296|171:296|126:172|126:172,1,222.499994058609,2|0,0:0|0:0,0:0:0:0:
21,143,215773,2,0,B|40:232|40:232|86:355|86:355,1,222.499994058609,8|0,0:0|0:0,0:0:0:0:
180,60,216066,2,0,L|238:155|238:155,1,111.249997029305,4|0,0:0|0:0,0:0:0:0:
145,244,216260,5,0,0:0:0:0:
122,179,216358,1,0,0:0:0:0:
153,117,216455,1,0,0:0:0:0:
224,92,216553,1,0,0:0:0:0:
393,191,216650,1,8,0:0:0:0:
213,256,216747,2,0,L|196:345|196:345|198:213|198:213,1,222.499994058609,4|0,0:0|0:0,0:0:0:0:
387,213,217039,6,0,L|389:263|389:263|391:313|391:313|399:363|399:363|392:282|392:282,1,232.5,2|8,0:0|0:0,0:0:0:0:
199,184,217404,2,0,B|205:276|205:276|251:146|251:146,1,230,2|4,0:0|0:0,0:0:0:0:
309,83,217679,1,0,0:0:0:0:
125,213,217770,6,0,L|121:263|121:263|127:313|127:313|122:363|122:363|119:281|119:281,1,232.499990776062,2|0,0:0|0:0,0:0:0:0:
313,184,218136,2,0,B|320:276|320:276|261:152|261:152,1,230,10|0,0:0|0:0,0:0:0:0:
203,83,218411,1,0,0:0:0:0:
398,233,218502,6,0,L|400:283|400:283|390:333|390:333|402:382|402:382|403:301|403:301,1,232.5,2|12,0:0|0:0,0:0:0:0:
186,344,218868,2,0,L|190:252|190:252|174:115|174:115,1,230,2|4,0:0|0:0,0:0:0:0:
336,270,219142,1,0,0:0:0:0:
158,266,219234,6,0,L|154:343|154:343,1,77.5,2|0,0:0|0:0,0:0:0:0:
258,129,219417,2,0,L|254:206|254:206,1,77.5,2|0,0:0|0:0,0:0:0:0:
357,264,219599,2,0,L|352:342|352:342,1,77.4999969253541,10|0,0:0|0:0,0:0:0:0:
135,264,219782,2,0,L|130:341|131:339,1,77.4999969253541,2|0,0:0|0:0,0:0:0:0:
458,31,219965,6,0,B|446:132|446:132|405:277|405:277,1,252.500004816056,4|0,0:0|0:0,0:0:0:0:
232,128,220240,1,8,0:0:0:0:
308,248,220331,2,0,L|253:333|253:333|166:210|166:210,1,252.500004816056,8|4,0:0|0:0,0:0:0:0:
266,226,220606,5,0,0:0:0:0:
302,294,220697,1,8,0:0:0:0:
256,359,220788,1,0,0:0:0:0:
175,359,220880,1,0,0:0:0:0:
129,294,220971,1,0,0:0:0:0:
167,216,221063,1,8,0:0:0:0:
366,61,221154,2,0,L|314:148|314:148|224:269|224:269,1,252.500004816056,4|0,0:0|0:0,0:0:0:0:
449,217,221429,6,0,B|496:307|496:307|454:162|454:162,1,252.500004816056,8|0,0:0|0:0,0:0:0:0:
373,219,221703,1,8,0:0:0:0:
449,217,221795,2,0,B|490:310|490:310|454:163|454:163,1,252.500004816056,8|4,0:0|0:0,0:0:0:0:
128,306,222160,6,0,L|197:200|197:200,1,126.250002408028,12|0,0:0|0:0,0:0:0:0:
414,365,222344,1,8,0:0:0:0:
447,319,222435,1,0,0:0:0:0:
447,262,222527,1,8,0:0:0:0:
414,216,222618,1,4,0:0:0:0:
361,198,222710,1,0,0:0:0:0:
54,31,222892,6,0,B|62:132|62:132|107:276|107:276,1,252.500004816056,4|0,0:0|0:0,0:0:0:0:
280,128,223167,1,8,0:0:0:0:
216,217,223258,2,0,L|262:307|262:307|358:190|358:190,1,252.500004816056,8|4,0:0|0:0,0:0:0:0:
395,263,223533,5,0,0:0:0:0:
349,328,223624,1,8,0:0:0:0:
268,328,223716,1,0,0:0:0:0:
222,263,223807,1,0,0:0:0:0:
258,195,223898,1,0,0:0:0:0:
341,194,223990,1,8,0:0:0:0:
155,65,224081,2,0,L|214:148|214:148|297:274|297:274,1,252.500004816056,4|0,0:0|0:0,0:0:0:0:
107,198,224356,6,0,B|64:290|64:290|102:144|102:144,1,252.500004816056,8|0,0:0|0:0,0:0:0:0:
183,196,224630,1,8,0:0:0:0:
107,198,224722,2,0,B|73:293|73:293|102:145|102:145,1,252.500004816056,8|4,0:0|0:0,0:0:0:0:
384,306,225087,6,0,L|315:200|315:200,1,126.250002408028,12|0,0:0|0:0,0:0:0:0:
98,365,225271,1,8,0:0:0:0:
65,319,225362,1,0,0:0:0:0:
65,262,225454,1,8,0:0:0:0:
98,216,225545,1,4,0:0:0:0:
151,198,225637,1,0,0:0:0:0:
442,143,225819,6,0,B|450:244|450:244|390:383|390:383,1,252.500004816056,4|0,0:0|0:0,0:0:0:0:
206,66,226093,1,8,0:0:0:0:
129,99,226185,2,0,L|175:189|175:189|271:306|271:306,1,252.500004816056,8|4,0:0|0:0,0:0:0:0:
197,149,226459,5,0,0:0:0:0:
123,178,226551,1,8,0:0:0:0:
198,195,226642,1,0,0:0:0:0:
228,267,226734,1,0,0:0:0:0:
198,337,226825,1,0,0:0:0:0:
123,352,226917,1,8,0:0:0:0:
307,284,227008,2,0,L|258:373|258:373|164:254|164:254,1,252.500004816056,4|0,0:0|0:0,0:0:0:0:
343,179,227282,6,0,B|369:277|369:277|348:127|348:127,1,252.500004816056,8|0,0:0|0:0,0:0:0:0:
267,181,227556,1,8,0:0:0:0:
177,255,227648,2,0,L|231:341|231:341|319:218|319:218,1,252.500004816056,8|4,0:0|0:0,0:0:0:0:
64,41,228014,6,0,L|135:145|135:145,1,126.250002408028,12|0,0:0|0:0,0:0:0:0:
350,28,228197,1,8,0:0:0:0:
383,74,228288,1,0,0:0:0:0:
383,131,228380,1,8,0:0:0:0:
350,177,228471,1,4,0:0:0:0:
297,195,228563,1,0,0:0:0:0:
35,286,228746,6,0,B|16:386|16:386|87:253|87:253,1,252.500004816056,4|0,0:0|0:0,0:0:0:0:
271,209,229020,1,8,0:0:0:0:
348,242,229112,2,0,L|293:327|293:327|206:204|206:204,1,252.500004816056,8|4,0:0|0:0,0:0:0:0:
278,293,229386,5,0,0:0:0:0:
195,266,229478,1,8,0:0:0:0:
158,192,229569,1,0,0:0:0:0:
181,112,229660,1,0,0:0:0:0:
243,69,229752,1,0,0:0:0:0:
321,65,229843,1,8,0:0:0:0:
147,348,229935,2,0,L|213:271|213:271|290:141|290:141,1,252.500004816056,4|0,0:0|0:0,0:0:0:0:
107,71,230209,5,8,0:0:0:0:
237,107,230392,2,0,L|272:160|272:160,1,63.1250012040138,2|0,0:0|0:0,0:0:0:0:
159,207,230575,2,0,L|174:268|174:268,1,63.1250012040138,10|0,0:0|0:0,0:0:0:0:
55,239,230758,2,0,L|49:302|49:302,1,63.1250012040138,6|0,0:0|0:0,0:0:0:0:
337,162,230941,5,14,0:0:0:0:
45,9,231124,2,0,B|37:110|37:110|97:249|97:249,1,252.500004816056,10|8,0:0|0:0,0:0:0:0:
177,99,231398,1,4,0:0:0:0:
97,114,231490,1,8,0:0:0:0:
177,99,231581,1,4,0:0:0:0:
363,242,231673,6,0,L|295:317|295:317|219:186|219:186,1,252.500004816056,4|0,0:0|0:0,0:0:0:0:
406,0,231947,1,8,0:0:0:0:
478,28,232039,2,0,B|479:129|479:129|426:270|426:270,1,252.500004816056,8|4,0:0|0:0,0:0:0:0:
350,159,232313,5,0,0:0:0:0:
314,235,232404,1,8,0:0:0:0:
330,317,232496,1,0,0:0:0:0:
402,364,232587,1,0,0:0:0:0:
475,372,232679,1,0,0:0:0:0:
389,384,232770,1,8,0:0:0:0:
182,301,232862,2,0,B|171:200|171:200|234:63|234:63,1,252.500004816056,4|0,0:0|0:0,0:0:0:0:
418,66,233136,6,0,L|365:152|365:152|274:273|274:273,1,252.500004816056,8|0,0:0|0:0,0:0:0:0:
354,105,233410,1,8,0:0:0:0:
435,133,233502,2,0,B|436:234|436:234|383:375|383:375,1,252.500004816056,8|4,0:0|0:0,0:0:0:0:
129,33,233868,6,0,L|201:137|201:137,1,126.250002408028,12|0,0:0|0:0,0:0:0:0:
403,56,234052,1,8,0:0:0:0:
456,74,234142,1,0,0:0:0:0:
489,120,234235,1,8,0:0:0:0:
489,177,234325,1,4,0:0:0:0:
456,223,234418,1,0,0:0:0:0:
138,376,234599,6,0,L|200:296|200:296|282:169|282:169,1,252.500004816056,4|0,0:0|0:0,0:0:0:0:
95,164,234873,1,8,0:0:0:0:
23,192,234965,2,0,B|4:292|4:292|75:159|75:159,1,252.500004816056,8|4,0:0|0:0,0:0:0:0:
169,287,235240,5,0,0:0:0:0:
261,273,235331,1,8,0:0:0:0:
265,224,235423,1,0,0:0:0:0:
175,198,235514,1,0,0:0:0:0:
169,144,235606,1,0,0:0:0:0:
266,193,235697,1,8,0:0:0:0:
95,124,235789,2,0,B|75:223|75:223|147:356|147:356,1,252.500004816056,4|0,0:0|0:0,0:0:0:0:
311,78,236063,5,8,0:0:0:0:
177,160,236246,2,0,L|213:212|213:212,1,63.1250012040138,2|0,0:0|0:0,0:0:0:0:
341,225,236429,2,0,L|305:277|305:277,1,63.1250012040138,10|0,0:0|0:0,0:0:0:0:
172,290,236612,2,0,L|208:342|208:342,1,63.1250012040138,6|0,0:0|0:0,0:0:0:0:
355,377,236795,5,14,0:0:0:0:
45,9,236978,2,0,B|45:110|45:110|97:252|97:252,1,252.500004816056,10|8,0:0|0:0,0:0:0:0:
180,99,237252,1,4,0:0:0:0:
97,114,237344,1,8,0:0:0:0:
180,99,237435,1,4,0:0:0:0:
378,58,237526,6,0,L|373:159|373:159|384:310|384:310,1,252.500004816056,4|0,0:0|0:0,0:0:0:0:
192,181,237801,1,8,0:0:0:0:
117,162,237892,2,0,L|104:263|104:263|111:112|111:112,1,252.500004816056,8|4,0:0|0:0,0:0:0:0:
199,294,238167,5,0,0:0:0:0:
285,279,238258,1,8,0:0:0:0:
199,264,238349,1,0,0:0:0:0:
113,249,238441,1,0,0:0:0:0:
199,234,238532,1,0,0:0:0:0:
285,219,238624,1,8,0:0:0:0:
95,26,238715,2,0,L|103:127|103:127|89:277|89:277,1,252.500004816056,4|0,0:0|0:0,0:0:0:0:
291,363,238990,6,0,L|287:262|287:262|285:111|285:111,1,252.500004816056,8|0,0:0|0:0,0:0:0:0:
372,240,239265,1,8,0:0:0:0:
458,259,239356,2,0,L|465:360|465:360|464:209|464:209,1,252.500004816056,8|4,0:0|0:0,0:0:0:0:
165,255,239721,6,0,L|159:381|159:381,1,126.250002408028,12|0,0:0|0:0,0:0:0:0:
399,181,239905,1,8,0:0:0:0:
452,199,239997,1,0,0:0:0:0:
485,245,240088,1,8,0:0:0:0:
485,302,240180,1,4,0:0:0:0:
452,348,240271,1,0,0:0:0:0:
134,58,240453,6,0,L|138:159|138:159|128:310|128:310,1,252.500004816056,4|0,0:0|0:0,0:0:0:0:
320,181,240728,1,8,0:0:0:0:
247,192,240819,2,0,L|239:293|239:293|241:142|241:142,1,252.500004816056,8|4,0:0|0:0,0:0:0:0:
154,349,241093,5,0,0:0:0:0:
241,335,241185,1,8,0:0:0:0:
154,321,241276,1,0,0:0:0:0:
67,307,241368,1,0,0:0:0:0:
154,293,241459,1,0,0:0:0:0:
241,279,241551,1,8,0:0:0:0:
50,15,241642,2,0,L|45:116|45:116|44:267|44:267,1,252.500004816056,4|0,0:0|0:0,0:0:0:0:
246,72,241917,5,8,0:0:0:0:
117,139,242099,2,0,L|88:195|88:195,1,63.1250012040138,2|0,0:0|0:0,0:0:0:0:
206,200,242282,2,0,L|195:262|195:262,1,63.1250012040138,10|0,0:0|0:0,0:0:0:0:
303,269,242465,2,0,L|307:332|307:332,1,63.1250012040138,6|0,0:0|0:0,0:0:0:0:
183,319,242648,6,0,L|179:382|179:382,1,63.1250012040138,14|0,0:0|0:0,0:0:0:0:
290,200,242831,2,0,L|301:262|301:262,1,63.1250012040138,10|0,0:0|0:0,0:0:0:0:
418,88,243014,1,8,0:0:0:0:
336,80,243106,1,4,0:0:0:0:
418,88,243197,1,8,0:0:0:0:
336,80,243289,1,4,0:0:0:0:
163,13,243380,6,0,B|98:91|98:91|53:235|53:235,1,252.500004816056,4|0,0:0|0:0,0:0:0:0:
213,157,243655,1,8,0:0:0:0:
286,122,243746,2,0,L|220:199|220:199|144:329|144:329,1,252.500004816056,8|4,0:0|0:0,0:0:0:0:
64,129,244020,5,0,0:0:0:0:
26,206,244112,1,8,0:0:0:0:
55,284,244203,1,0,0:0:0:0:
136,315,244295,1,0,0:0:0:0:
58,334,244386,1,0,0:0:0:0:
136,315,244478,1,8,0:0:0:0:
306,88,244569,2,0,L|249:172|249:172|164:297|164:297,1,252.500004816056,4|0,0:0|0:0,0:0:0:0:
331,358,244843,6,0,L|398:282|398:282|473:151|473:151,1,252.500004816056,8|0,0:0|0:0,0:0:0:0:
398,310,245117,1,8,0:0:0:0:
473,271,245209,2,0,L|406:347|406:347|331:216|331:216,1,252.500004816056,8|4,0:0|0:0,0:0:0:0:
20,369,245575,6,0,L|90:264|90:264,1,126.250002408028,12|0,0:0|0:0,0:0:0:0:
260,331,245758,1,8,0:0:0:0:
207,313,245850,1,0,0:0:0:0:
174,267,245941,1,8,0:0:0:0:
174,210,246033,1,4,0:0:0:0:
207,164,246124,1,0,0:0:0:0:
469,350,246307,6,0,L|403:273|403:273|327:143|327:143,1,252.500004816056,4|0,0:0|0:0,0:0:0:0:
126,171,246581,1,8,0:0:0:0:
53,206,246673,2,0,L|101:295|101:295|195:177|195:177,1,252.500004816056,8|4,0:0|0:0,0:0:0:0:
275,219,246947,5,0,0:0:0:0:
343,178,247039,1,8,0:0:0:0:
369,104,247130,1,0,0:0:0:0:
333,42,247222,1,0,0:0:0:0:
257,19,247313,1,0,0:0:0:0:
333,42,247404,1,8,0:0:0:0:
146,97,247496,2,0,L|205:179|205:179|288:305|288:305,1,252.500004816056,4|0,0:0|0:0,0:0:0:0:
108,183,247770,5,8,0:0:0:0:
372,101,247953,2,0,L|369:164|369:164,1,63.1250012040138,2|0,0:0|0:0,0:0:0:0:
247,292,248136,2,0,L|244:355|244:355,1,63.1250012040138,10|0,0:0|0:0,0:0:0:0:
125,104,248319,2,0,L|122:167|122:167,1,63.1250012040138,6|0,0:0|0:0,0:0:0:0:
414,83,248502,6,0,L|378:135|378:135,1,63.1250012040138,14|0,0:0|0:0,0:0:0:0:
103,346,248685,2,0,L|139:294|139:294,1,63.1250012040138,10|0,0:0|0:0,0:0:0:0:
464,155,248868,2,0,L|435:278|435:278,1,126.250002408028,8|4,0:0|0:0,0:0:0:0:
278,349,249051,2,0,L|249:226|249:226,1,126.250002408028,8|4,0:0|0:0,0:0:0:0:
89,37,249234,6,0,B|54:119|54:119|53:252|53:252,1,222.499994058609,4|0,0:0|0:0,0:0:0:0:
105,194,249508,2,0,L|160:264|160:264|223:381|223:381,1,222.499994058609,4|0,0:0|0:0,0:0:0:0:
168,157,249782,1,4,0:0:0:0:
326,123,249965,1,2,0:0:0:0:
390,85,250057,2,0,L|349:164|349:164|272:273|272:273,1,222.499994058609
121,308,250331,2,0,L|63:213|63:213|121:118|121:118,2,111.249997029305,8|4|4,0:0|0:0|0:0,0:0:0:0:
393,228,250697,6,0,B|417:314|417:314|429:181|429:181,1,222.499994058609,10|0,0:0|0:0,0:0:0:0:
336,295,250971,2,0,L|295:374|295:374|218:265|218:265,1,222.499994058609,4|0,0:0|0:0,0:0:0:0:
144,359,251246,1,4,0:0:0:0:
291,19,251429,1,2,0:0:0:0:
353,58,251520,2,0,L|313:138|313:138|235:246|235:246,1,222.499994058609
391,308,251795,2,0,L|449:213|449:213|391:118|391:118,2,111.249997029305,8|4|4,0:0|0:0|0:0,0:0:0:0:
89,37,252160,6,0,B|51:118|51:118|53:251|53:251,1,222.499994058609,10|0,0:0|0:0,0:0:0:0:
105,194,252435,2,0,L|151:271|151:271|223:383|223:383,1,222.499994058609,4|0,0:0|0:0,0:0:0:0:
168,157,252708,1,4,0:0:0:0:
321,361,252892,2,0,L|307:251|307:251,1,111.249997029305,2|0,0:0|0:0,0:0:0:0:
203,345,253075,2,0,L|189:235|189:235,1,111.249997029305
85,307,253258,2,0,L|27:212|27:212|85:117|85:117,2,111.249997029305,8|4|4,0:0|0:0|0:0,0:0:0:0:
423,347,253624,6,0,B|464:268|464:268|459:135|459:135,1,222.499994058609,10|0,0:0|0:0,0:0:0:0:
407,190,253898,2,0,L|361:266|361:266|289:378|289:378,1,222.499994058609,4|0,0:0|0:0,0:0:0:0:
344,227,254172,1,4,0:0:0:0:
186,261,254355,1,2,0:0:0:0:
122,299,254447,2,0,L|165:378|165:378|240:268|240:268,1,222.499994058609
81,91,254722,2,0,L|23:186|23:186|81:281|81:281,2,111.249997029305,8|4|4,0:0|0:0|0:0,0:0:0:0:
423,37,255087,6,0,B|465:116|465:116|459:249|459:249,1,222.499994058609,10|0,0:0|0:0,0:0:0:0:
407,194,255362,2,0,L|349:262|349:262|289:381|289:381,1,222.499994058609,4|0,0:0|0:0,0:0:0:0:
344,157,255635,1,4,0:0:0:0:
190,360,255819,2,0,L|204:250|204:250,1,111.249997029305,2|0,0:0|0:0,0:0:0:0:
308,344,256002,2,0,L|322:234|322:234,1,111.249997029305
427,306,256185,2,0,L|485:211|485:211|427:116|427:116,2,111.249997029305,8|4|4,0:0|0:0|0:0,0:0:0:0:
87,33,256551,6,0,L|82:124|82:124|67:262|67:262,1,230,2|0,0:0|0:0,0:0:0:0:
132,150,256806,1,4,0:0:0:0:
27,246,256891,1,2,0:0:0:0:
4,302,256976,1,0,0:0:0:0:
33,356,257061,1,4,0:0:0:0:
92,367,257146,1,8,0:0:0:0:
261,228,257232,6,0,L|258:319|258:319|281:182|281:182,1,230,2|0,0:0|0:0,0:0:0:0:
206,333,257488,1,0,0:0:0:0:
298,165,257573,2,0,L|304:280|304:280,1,115,2|8,0:0|0:0,0:0:0:0:
214,165,257744,2,0,L|208:280|208:280,1,115,4|0,0:0|0:0,0:0:0:0:
399,149,257914,6,0,L|395:240|395:240|416:378|416:378,1,230,2|0,0:0|0:0,0:0:0:0:
350,37,258170,1,4,0:0:0:0:
454,366,258255,1,2,0:0:0:0:
477,310,258340,1,0,0:0:0:0:
448,256,258425,1,4,0:0:0:0:
389,245,258510,1,8,0:0:0:0:
173,273,258596,6,0,L|129:379|129:379,1,115,2|0,0:0|0:0,0:0:0:0:
348,282,258766,2,0,L|352:167|352:167,1,115
183,270,258937,2,0,L|187:385|187:385,1,115,2|0,0:0|0:0,0:0:0:0:
364,283,259107,2,0,L|408:177|408:177,1,115,4|0,0:0|0:0,0:0:0:0:
100,0,259278,6,0,B|89:96|89:96|143:234|143:234,1,245.000007476807,4|0,0:0|0:0,0:0:0:0:
216,124,259533,1,8,0:0:0:0:
374,18,259619,2,0,L|385:140|385:140,1,122.500003738404,4|0,0:0|0:0,0:0:0:0:
216,124,259789,1,4,0:0:0:0:
349,335,259960,6,0,L|281:233|281:233,1,122.500003738404,4|0,0:0|0:0,0:0:0:0:
114,274,260130,2,0,L|127:152|127:152,1,122.500003738404
311,308,260301,2,0,L|379:206|379:206|311:104|311:104,2,122.500003738404,8|8|4,0:0|0:0|0:0,0:0:0:0:
188,32,260641,6,0,L|120:134|120:134,1,122.500003738404,4|0,0:0|0:0,0:0:0:0:
287,149,260812,2,0,L|355:251|355:251,1,122.500003738404,8|4,0:0|0:0,0:0:0:0:
187,306,260982,2,0,L|119:204|119:204,1,122.500003738404
346,382,261153,5,4,0:0:0:0:
384,321,261238,1,0,0:0:0:0:
388,252,261323,1,0,0:0:0:0:
353,192,261408,1,0,0:0:0:0:
282,166,261494,1,8,0:0:0:0:
356,149,261579,1,0,0:0:0:0:
162,27,261664,2,0,B|112:109|112:109|98:257|98:257,1,245.000007476807,8|0,0:0|0:0,0:0:0:0:
170,188,261920,1,0,0:0:0:0:
412,0,262005,6,0,B|427:95|427:95|369:232|369:232,1,245.000007476807,4|0,0:0|0:0,0:0:0:0:
296,124,262261,1,8,0:0:0:0:
138,18,262347,2,0,L|127:140|127:140,1,122.500003738404,4|0,0:0|0:0,0:0:0:0:
296,124,262517,1,4,0:0:0:0:
163,335,262688,6,0,L|231:233|231:233,1,122.500003738404,4|0,0:0|0:0,0:0:0:0:
398,274,262858,2,0,L|385:152|385:152,1,122.500003738404
201,308,263029,2,0,L|133:206|133:206|201:104|201:104,2,122.500003738404,8|8|4,0:0|0:0|0:0,0:0:0:0:
324,32,263369,6,0,L|392:134|392:134,1,122.500003738404,4|0,0:0|0:0,0:0:0:0:
225,149,263540,2,0,L|157:251|157:251,1,122.500003738404,8|4,0:0|0:0,0:0:0:0:
325,306,263710,2,0,L|393:204|393:204,1,122.500003738404
166,382,263881,5,4,0:0:0:0:
128,321,263966,1,0,0:0:0:0:
124,252,264051,1,0,0:0:0:0:
159,192,264136,1,0,0:0:0:0:
230,166,264222,1,8,0:0:0:0:
156,149,264307,1,0,0:0:0:0:
331,208,264391,2,0,B|341:304|341:304|277:170|277:170,1,245.000007476807,8|0,0:0|0:0,0:0:0:0:
209,273,264647,1,0,0:0:0:0:
365,20,264732,6,0,B|413:104|413:104|433:251|433:251,1,245.000007476807,4|0,0:0|0:0,0:0:0:0:
281,92,264988,1,8,0:0:0:0:
433,285,265073,2,0,L|491:177|491:177|433:69|433:69,2,122.500003738404,4|0|4,0:0|0:0|0:0,0:0:0:0:
299,367,265414,6,0,L|249:255|249:255,1,122.500003738404,4|0,0:0|0:0,0:0:0:0:
58,228,265585,1,0,0:0:0:0:
34,164,265670,1,0,0:0:0:0:
49,98,265755,1,8,0:0:0:0:
96,50,265840,1,8,0:0:0:0:
163,35,265925,1,4,0:0:0:0:
409,190,266096,6,0,L|362:274|362:274|273:155|273:155,1,245.000007476807,4|8,0:0|0:0,0:0:0:0:
344,146,266352,1,4,0:0:0:0:
503,109,266437,2,0,L|491:231|491:231,1,122.500003738404
337,134,266607,5,4,0:0:0:0:
398,152,266693,1,0,0:0:0:0:
448,189,266778,1,0,0:0:0:0:
459,251,266863,1,0,0:0:0:0:
448,313,266948,1,8,0:0:0:0:
401,356,267033,1,0,0:0:0:0:
232,266,267119,2,0,L|276:352|276:352|368:236|368:236,1,245.000007476807,8|0,0:0|0:0,0:0:0:0:
303,242,267375,1,0,0:0:0:0:
132,17,267460,6,0,B|77:96|77:96|64:244|64:244,1,245.000007476807,4|0,0:0|0:0,0:0:0:0:
216,89,267716,1,8,0:0:0:0:
64,282,267801,2,0,L|6:174|6:174|64:66|64:66,2,122.500003738404,4|0|4,0:0|0:0|0:0,0:0:0:0:
199,366,268141,6,0,L|248:254|248:254,1,122.500003738404,4|0,0:0|0:0,0:0:0:0:
450,224,268312,1,0,0:0:0:0:
474,160,268397,1,0,0:0:0:0:
459,94,268482,1,8,0:0:0:0:
412,46,268567,1,8,0:0:0:0:
345,31,268652,1,4,0:0:0:0:
107,206,268823,6,0,L|86:327|86:327,1,122.500003738404,4|0,0:0|0:0,0:0:0:0:
188,275,268994,2,0,L|209:154|209:154,1,122.500003738404,8|4,0:0|0:0,0:0:0:0:
392,59,269164,2,0,L|413:180|413:180,1,122.500003738404
347,158,269335,5,4,0:0:0:0:
313,210,269420,1,0,0:0:0:0:
320,273,269505,1,0,0:0:0:0:
371,312,269590,1,0,0:0:0:0:
437,325,269676,1,8,0:0:0:0:
359,364,269761,1,0,0:0:0:0:
199,69,269846,2,0,B|154:155|154:155|150:303|150:303,1,245.000007476807,8|0,0:0|0:0,0:0:0:0:
228,218,270102,1,0,0:0:0:0:
63,52,270187,6,0,L|111:136|111:136|199:255|199:255,1,245.000007476807,4|0,0:0|0:0,0:0:0:0:
122,94,270443,1,8,0:0:0:0:
296,177,270528,1,4,0:0:0:0:
352,164,270613,1,0,0:0:0:0:
296,177,270698,1,4,0:0:0:0:
178,345,270869,6,0,L|246:243|246:243,1,122.500003738404,4|0,0:0|0:0,0:0:0:0:
66,69,271039,1,0,0:0:0:0:
29,144,271125,1,0,0:0:0:0:
37,220,271210,1,8,0:0:0:0:
86,289,271295,1,8,0:0:0:0:
174,308,271380,1,4,0:0:0:0:
464,355,271551,6,0,L|479:233|479:233,1,122.500003738404,4|0,0:0|0:0,0:0:0:0:
384,271,271721,2,0,L|369:149|369:149,1,122.500003738404,8|4,0:0|0:0,0:0:0:0:
274,352,271891,2,0,L|289:230|289:230,1,122.500003738404
194,268,272061,2,0,L|179:146|179:146,1,122.500003738404,4|0,0:0|0:0,0:0:0:0:
385,182,272232,5,0,0:0:0:0:
403,117,272317,1,0,0:0:0:0:
372,57,272402,1,8,0:0:0:0:
308,35,272487,1,0,0:0:0:0:
145,40,272573,2,0,L|102:126|102:126|8:241|8:241,1,245.000007476807,8|0,0:0|0:0,0:0:0:0:
75,96,272829,1,0,0:0:0:0:
262,180,272914,6,0,B|309:264|309:264|330:117|330:117,1,245.000007476807,4|0,0:0|0:0,0:0:0:0:
177,252,273170,1,8,0:0:0:0:
329,308,273255,2,0,L|387:200|387:200|329:92|329:92,2,122.500003738404,4|0|4,0:0|0:0|0:0,0:0:0:0:
187,50,273596,6,0,L|255:152|255:152,1,122.500003738404,4|0,0:0|0:0,0:0:0:0:
422,111,273766,2,0,L|409:233|409:233,1,122.500003738404
225,77,273937,2,0,L|157:179|157:179|225:281|225:281,2,122.500003738404,8|8|4,0:0|0:0|0:0,0:0:0:0:
362,223,274278,6,0,L|383:344|383:344,1,122.500003738404,4|0,0:0|0:0,0:0:0:0:
281,292,274449,2,0,L|260:171|260:171,1,122.500003738404,8|4,0:0|0:0,0:0:0:0:
77,76,274619,2,0,L|56:197|56:197,1,122.500003738404
122,175,274790,5,4,0:0:0:0:
156,227,274875,1,0,0:0:0:0:
149,290,274960,1,0,0:0:0:0:
98,329,275045,1,0,0:0:0:0:
32,342,275131,1,8,0:0:0:0:
110,381,275216,1,0,0:0:0:0:
294,49,275301,2,0,L|234:125|234:125|158:252|158:252,1,245.000007476807,8|0,0:0|0:0,0:0:0:0:
224,95,275557,1,0,0:0:0:0:
389,37,275641,6,0,B|432:124|432:124|457:270|457:270,1,245.000007476807,4|0,0:0|0:0,0:0:0:0:
303,174,275897,1,8,0:0:0:0:
466,300,275982,2,0,L|450:178|450:178,1,122.500003738404,4|0,0:0|0:0,0:0:0:0:
291,167,276153,1,4,0:0:0:0:
395,359,276323,6,0,L|380:237|380:237,1,122.500003738404,4|0,0:0|0:0,0:0:0:0:
193,36,276494,2,0,L|124:137|124:137,1,122.500003738404
90,161,276664,2,0,L|158:263|158:263|90:365|90:365,2,122.500003738404,8|8|4,0:0|0:0|0:0,0:0:0:0:
373,54,277005,6,0,B|315:131|315:131|243:261|243:261,1,245.000007476807,4|8,0:0|0:0,0:0:0:0:
399,140,277261,1,4,0:0:0:0:
225,64,277346,2,0,L|240:186|240:186,1,122.500003738404
315,180,277516,2,0,L|330:302|330:302,1,122.500003738404,4|0,0:0|0:0,0:0:0:0:
164,244,277687,6,0,L|179:366|179:366,1,122.500003738404,4|0,0:0|0:0,0:0:0:0:
254,128,277857,2,0,L|269:250|269:250,1,122.500003738404,8|0,0:0|0:0,0:0:0:0:
101,58,278028,2,0,L|116:180|116:180,1,122.500003738404,8|0,0:0|0:0,0:0:0:0:
313,351,278198,2,0,L|328:229|328:229,1,122.500003738404,8|8,0:0|0:0,0:0:0:0:
123,347,278369,6,0,B|69:267|69:267|55:119|55:119,1,245.000007476807,4|0,0:0|0:0,0:0:0:0:
209,210,278625,1,8,0:0:0:0:
46,84,278710,2,0,L|62:206|62:206,1,122.500003738404,4|0,0:0|0:0,0:0:0:0:
221,217,278881,1,4,0:0:0:0:
117,25,279051,6,0,L|132:147|132:147,1,122.500003738404,4|0,0:0|0:0,0:0:0:0:
319,36,279221,2,0,L|388:137|388:137,1,122.500003738404
422,161,279391,2,0,L|353:263|353:263|422:364|422:364,2,122.500003738404,8|8|4,0:0|0:0|0:0,0:0:0:0:
135,334,279732,6,0,B|179:248|179:248|265:127|265:127,1,245.000007476807,4|8,0:0|0:0,0:0:0:0:
109,248,279988,1,4,0:0:0:0:
283,324,280073,2,0,L|268:202|268:202,1,122.500003738404
193,208,280243,2,0,L|178:330|178:330,1,122.500003738404,4|0,0:0|0:0,0:0:0:0:
344,144,280414,6,0,L|329:266|329:266,1,122.500003738404,4|0,0:0|0:0,0:0:0:0:
254,260,280584,2,0,L|239:382|239:382,1,122.500003738404,8|0,0:0|0:0,0:0:0:0:
406,353,280755,2,0,L|391:231|391:231,1,122.500003738404,8|0,0:0|0:0,0:0:0:0:
312,360,280925,2,0,L|379:257|379:257,1,122.500003738404,8|8,0:0|0:0,0:0:0:0:
176,62,281096,6,0,B|166:158|166:158|219:297|219:297,1,245.000007476807,4|0,0:0|0:0,0:0:0:0:
382,192,281351,1,8,0:0:0:0:
226,7,281437,2,0,L|217:129|217:129,1,122.500003738404,4|0,0:0|0:0,0:0:0:0:
379,169,281607,1,4,0:0:0:0:
256,254,281778,6,0,L|271:376|271:376,1,122.500003738404,4|0,0:0|0:0,0:0:0:0:
460,201,281949,2,0,L|475:323|475:323,1,122.500003738404
401,263,282119,2,0,L|332:364|332:364|401:263|401:263,2,122.500003738404,8|8|4,0:0|0:0|0:0,0:0:0:0:
111,52,282460,6,0,B|60:134|60:134|70:282|70:282,1,245.000007476807,4|8,0:0|0:0,0:0:0:0:
138,175,282715,1,4,0:0:0:0:
321,90,282801,2,0,L|252:191|252:191,1,122.500003738404
94,22,282971,5,4,0:0:0:0:
28,53,283056,1,0,0:0:0:0:
0,121,283141,1,0,0:0:0:0:
8,196,283226,1,0,0:0:0:0:
55,254,283311,1,8,0:0:0:0:
132,273,283397,1,0,0:0:0:0:
298,335,283482,2,0,L|240:258|240:258|161:132|161:132,1,245.000007476807,8|0,0:0|0:0,0:0:0:0:
235,287,283738,1,0,0:0:0:0:
429,163,283823,6,0,B|427:260|427:260|379:120|379:120,1,245.000007476807,4|0,0:0|0:0,0:0:0:0:
222,46,284078,1,8,0:0:0:0:
387,236,284164,2,0,L|407:357|407:357,1,122.500003738404,4|0,0:0|0:0,0:0:0:0:
234,71,284334,1,4,0:0:0:0:
354,30,284505,6,0,L|339:152|339:152,1,122.500003738404,4|0,0:0|0:0,0:0:0:0:
86,344,284676,2,0,L|71:222|71:222,1,122.500003738404
145,282,284846,2,0,L|214:383|214:383|145:282|145:282,2,122.500003738404,8|8|4,0:0|0:0|0:0,0:0:0:0:
7,136,285187,6,0,L|76:238|76:238,1,122.500003738404,4|0,0:0|0:0,0:0:0:0:
233,201,285358,2,0,L|252:322|252:322,1,122.500003738404,8|4,0:0|0:0,0:0:0:0:
461,317,285528,2,0,L|392:215|392:215,1,122.500003738404
235,382,285699,2,0,L|216:261|216:261,1,122.500003738404,4|0,0:0|0:0,0:0:0:0:
435,314,285869,5,0,0:0:0:0:
457,251,285954,1,0,0:0:0:0:
427,191,286039,1,8,0:0:0:0:
362,173,286124,1,0,0:0:0:0:
182,71,286210,2,0,L|113:173|113:173,1,122.500003738404,8|0,0:0|0:0,0:0:0:0:
267,161,286380,1,0,0:0:0:0:
114,66,286465,1,0,0:0:0:0:
308,83,286551,5,6,0:0:0:0:
256,192,286891,12,0,290641,0:0:0:0:
400,192,296096,5,4,0:0:0:0:
256,192,296437,12,0,298482,0:0:0:0:
112,192,298823,5,4,0:0:0:0:
256,192,299164,12,0,301295,0:0:0:0:
326,45,301551,5,4,0:0:0:0:
179,30,301785,1,0,0:0:0:0:
158,104,301902,1,0,0:0:0:0:
208,171,302019,1,0,0:0:0:0:
288,186,302136,1,8,0:0:0:0:
212,203,302254,1,2,0:0:0:0:
137,220,302371,1,0,0:0:0:0:
342,362,302488,5,8,0:0:0:0:
400,345,302605,1,8,0:0:0:0:
432,293,302722,1,2,0:0:0:0:
419,234,302839,1,8,0:0:0:0:
317,235,302957,1,4,0:0:0:0:
305,175,303074,1,0,0:0:0:0:
337,123,303191,1,2,0:0:0:0:
411,112,303308,1,8,0:0:0:0:
186,339,303426,5,4,0:0:0:0:
317,349,303660,1,10,0:0:0:0:
337,283,303777,1,4,0:0:0:0:
298,217,303894,1,0,0:0:0:0:
203,199,304011,2,0,L|169:269|169:269|141:341|141:341|203:199|203:199,2,155,8|2|0,0:0|0:0|0:0,0:0:0:0:
477,116,304363,6,0,L|443:267|443:267,1,155,8|0,0:0|0:0,0:0:0:0:
317,164,304597,2,0,L|283:315|283:315,1,155,2|0,0:0|0:0,0:0:0:0:
35,116,304832,2,0,L|69:267|69:267,1,155,4|0,0:0|0:0,0:0:0:0:
195,164,305066,2,0,L|229:315|229:315,1,155,2|0,0:0|0:0,0:0:0:0:
441,68,305301,5,4,0:0:0:0:
497,118,305418,1,0,0:0:0:0:
498,194,305535,1,2,0:0:0:0:
451,251,305652,1,2,0:0:0:0:
372,254,305769,1,8,0:0:0:0:
454,271,305886,1,2,0:0:0:0:
349,276,306004,1,8,0:0:0:0:
431,293,306121,1,0,0:0:0:0:
211,201,306238,5,2,0:0:0:0:
295,178,306355,1,8,0:0:0:0:
379,155,306472,1,2,0:0:0:0:
295,141,306590,1,2,0:0:0:0:
88,41,306707,1,4,0:0:0:0:
70,127,306824,1,8,0:0:0:0:
178,53,306941,1,4,0:0:0:0:
96,36,307058,1,8,0:0:0:0:
327,19,307176,6,0,B|381:156|381:156|392:356|392:356,1,347.5,8|2,0:0|0:0,0:0:0:0:
315,162,307527,1,8,0:0:0:0:
405,212,307644,2,0,L|411:386|411:386,1,173.75,2|2,0:0|0:0,0:0:0:0:
318,257,307879,2,0,L|396:102|396:102,1,173.75,8|0,0:0|0:0,0:0:0:0:
199,71,308113,6,0,L|277:226|277:226,1,173.75,2|8,0:0|0:0,0:0:0:0:
173,97,308347,2,0,L|167:271|167:271,1,173.75,4|8,0:0|0:0,0:0:0:0:
417,32,308582,1,8,0:0:0:0:
430,108,308699,1,0,0:0:0:0:
394,176,308816,1,8,0:0:0:0:
325,209,308933,1,8,0:0:0:0:
75,83,309051,5,4,0:0:0:0:
170,103,309168,1,0,0:0:0:0:
91,106,309285,1,2,0:0:0:0:
44,163,309402,1,2,0:0:0:0:
45,239,309519,1,8,0:0:0:0:
101,289,309636,1,2,0:0:0:0:
294,348,309754,1,8,0:0:0:0:
376,365,309871,1,0,0:0:0:0:
267,322,309988,5,2,0:0:0:0:
253,240,310105,1,8,0:0:0:0:
366,198,310222,1,2,0:0:0:0:
284,215,310339,1,2,0:0:0:0:
493,134,310457,1,4,0:0:0:0:
332,105,310691,1,4,0:0:0:0:
414,122,310808,1,8,0:0:0:0:
183,300,310926,6,0,L|237:163|237:163|338:336|338:336,1,347.5,8|2,0:0|0:0,0:0:0:0:
262,244,311277,1,8,0:0:0:0:
330,205,311394,1,2,0:0:0:0:
356,130,311511,1,2,0:0:0:0:
316,61,311629,1,8,0:0:0:0:
189,323,311863,6,0,P|266:167|266:167,1,173.75,2|8,0:0|0:0,0:0:0:0:
139,265,312097,2,0,L|149:91|149:91,1,173.750005302429,4|8,0:0|0:0,0:0:0:0:
391,239,312332,2,0,P|314:83|314:83,1,173.75,8|0,0:0|0:0,0:0:0:0:
81,74,312566,2,0,P|158:230|158:230,1,173.75,8|8,0:0|0:0,0:0:0:0:
398,17,312801,6,0,B|333:149|333:149|297:346|297:346,1,347.5,4|2,0:0|0:0,0:0:0:0:
302,193,313152,1,2,0:0:0:0:
345,262,313269,1,8,0:0:0:0:
432,284,313386,1,2,0:0:0:0:
348,338,313504,1,8,0:0:0:0:
432,284,313621,1,0,0:0:0:0:
211,174,313738,6,0,L|204:348|204:348,1,173.75,2|8,0:0|0:0,0:0:0:0:
302,364,313972,2,0,L|309:190|309:190,1,173.75,2|2,0:0|0:0,0:0:0:0:
111,234,314207,1,4,0:0:0:0:
195,257,314324,1,8,0:0:0:0:
279,280,314441,1,4,0:0:0:0:
195,294,314559,1,8,0:0:0:0:
430,313,314676,6,0,B|412:167|412:167|329:350|329:350,1,347.5,8|2,0:0|0:0,0:0:0:0:
407,195,315027,1,8,0:0:0:0:
446,124,315144,1,2,0:0:0:0:
412,49,315261,1,2,0:0:0:0:
328,37,315379,1,8,0:0:0:0:
412,49,315496,1,0,0:0:0:0:
198,367,315613,5,2,0:0:0:0:
276,356,315730,1,8,0:0:0:0:
354,343,315847,1,4,0:0:0:0:
276,324,315964,1,8,0:0:0:0:
180,246,316082,2,0,L|171:72|171:72,1,173.75,8|0,0:0|0:0,0:0:0:0:
371,240,316316,2,0,L|379:66|379:66,1,173.75,8|8,0:0|0:0,0:0:0:0:
114,367,316551,6,0,B|184:238|184:238|215:40|215:40,1,347.5,4|2,0:0|0:0,0:0:0:0:
210,191,316902,1,2,0:0:0:0:
167,122,317019,1,8,0:0:0:0:
80,100,317136,1,2,0:0:0:0:
164,46,317254,1,8,0:0:0:0:
80,100,317371,1,0,0:0:0:0:
301,174,317488,6,0,L|308:348|308:348,1,173.75,2|8,0:0|0:0,0:0:0:0:
210,364,317722,2,0,L|203:190|203:190,1,173.75,2|2,0:0|0:0,0:0:0:0:
401,234,317957,1,4,0:0:0:0:
233,280,318191,1,4,0:0:0:0:
317,294,318309,1,8,0:0:0:0:
133,30,318426,5,8,0:0:0:0:
95,94,318543,1,0,0:0:0:0:
123,164,318660,1,0,0:0:0:0:
195,185,318777,1,0,0:0:0:0:
427,322,318894,2,0,L|378:217|378:217|324:115|324:115|369:38|369:38|427:168|427:168,2,231.666666666667,4|4|4,0:0|0:0|0:0,0:0:0:0:
161,208,319363,6,0,L|168:297|168:297|150:156|150:156,1,231.666666666667,4|0,0:0|0:0,0:0:0:0:
423,208,319676,2,0,L|420:297|420:297|434:155|434:155,1,231.666666666667,12|0,0:0|0:0,0:0:0:0:
278,111,319988,2,0,L|264:226|264:226,1,115.833333333333,8|0,0:0|0:0,0:0:0:0:
339,111,320144,2,0,L|353:226|353:226,1,115.833333333333,2|0,0:0|0:0,0:0:0:0:
177,296,320301,6,0,B|122:160|122:160|22:334|22:334,1,347.5,4|2,0:0|0:0,0:0:0:0:
114,258,320652,1,2,0:0:0:0:
147,189,320769,1,8,0:0:0:0:
98,187,320886,1,2,0:0:0:0:
140,259,321004,1,8,0:0:0:0:
235,294,321121,1,0,0:0:0:0:
147,272,321238,5,2,0:0:0:0:
98,187,321356,1,8,0:0:0:0:
106,96,321472,1,2,0:0:0:0:
180,40,321590,1,2,0:0:0:0:
434,315,321707,2,0,L|362:157|362:157,1,173.75,4|8,0:0|0:0,0:0:0:0:
169,334,321941,2,0,L|96:176|96:176,1,173.75,4|8,0:0|0:0,0:0:0:0:
348,22,322176,6,0,L|283:154|283:154|194:334|194:334,1,347.5,8|2,0:0|0:0,0:0:0:0:
271,79,322527,1,8,0:0:0:0:
306,152,322644,1,2,0:0:0:0:
271,219,322761,1,2,0:0:0:0:
189,244,322879,1,8,0:0:0:0:
249,295,322996,1,0,0:0:0:0:
342,273,323113,5,2,0:0:0:0:
261,259,323230,1,8,0:0:0:0:
179,252,323348,1,4,0:0:0:0:
358,280,323465,1,8,0:0:0:0:
175,272,323582,1,8,0:0:0:0:
199,205,323699,1,0,0:0:0:0:
252,144,323816,1,8,0:0:0:0:
322,128,323933,1,8,0:0:0:0:
118,40,324051,6,0,L|196:195|196:195,1,173.75,4|0,0:0|0:0,0:0:0:0:
101,68,324285,2,0,L|90:241|90:241,1,173.75,2|2,0:0|0:0,0:0:0:0:
208,373,324519,1,8,0:0:0:0:
206,296,324636,1,2,0:0:0:0:
157,237,324753,1,8,0:0:0:0:
82,222,324870,1,0,0:0:0:0:
257,108,324988,5,2,0:0:0:0:
173,122,325106,1,8,0:0:0:0:
257,145,325223,1,2,0:0:0:0:
341,168,325340,1,2,0:0:0:0:
142,23,325457,2,0,L|203:157|203:157|298:334|298:334,1,347.5,4|4,0:0|0:0,0:0:0:0:
375,62,325808,1,8,0:0:0:0:
97,320,325926,6,0,B|78:174|78:174|79:374|79:374,1,347.5,8|2,0:0|0:0,0:0:0:0:
157,182,326277,1,8,0:0:0:0:
235,197,326394,1,2,0:0:0:0:
157,182,326511,1,2,0:0:0:0:
80,166,326629,1,8,0:0:0:0:
416,154,326863,6,0,L|343:311|343:311,1,173.75,2|8,0:0|0:0,0:0:0:0:
146,154,327097,2,0,L|219:312|219:312,1,173.75,4|8,0:0|0:0,0:0:0:0:
340,50,327332,2,0,L|267:208|267:208,1,173.75,8|0,0:0|0:0,0:0:0:0:
70,261,327566,2,0,L|143:103|143:103,1,173.75,8|8,0:0|0:0,0:0:0:0:
335,296,327801,6,0,B|406:167|406:167|490:349|490:349,1,347.5,4|2,0:0|0:0,0:0:0:0:
398,258,328152,1,2,0:0:0:0:
365,189,328269,1,8,0:0:0:0:
414,187,328386,1,2,0:0:0:0:
372,259,328504,1,8,0:0:0:0:
277,294,328621,1,0,0:0:0:0:
476,305,328738,5,2,0:0:0:0:
273,19,328855,2,0,L|276:166|276:166|255:365|255:365,1,347.5,8|2,0:0|0:0,0:0:0:0:
355,36,329207,2,0,L|347:210|347:210,1,173.75,4|8,0:0|0:0,0:0:0:0:
163,314,329441,2,0,P|241:159|241:159,1,173.75,4|8,0:0|0:0,0:0:0:0:
43,18,329676,6,0,L|97:155|97:155|197:329|197:329,1,347.5,8|2,0:0|0:0,0:0:0:0:
120,75,330027,1,8,0:0:0:0:
83,148,330144,1,2,0:0:0:0:
120,215,330261,1,2,0:0:0:0:
201,248,330379,1,8,0:0:0:0:
118,227,330496,1,0,0:0:0:0:
325,354,330613,5,2,0:0:0:0:
248,325,330730,1,8,0:0:0:0:
211,252,330847,1,4,0:0:0:0:
248,185,330964,1,8,0:0:0:0:
329,152,331082,1,8,0:0:0:0:
126,50,331316,1,8,0:0:0:0:
204,61,331433,1,8,0:0:0:0:
418,61,331551,6,0,L|424:235|424:235,1,173.75,4|0,0:0|0:0,0:0:0:0:
238,64,331785,1,2,0:0:0:0:
439,62,331902,1,2,0:0:0:0:
445,139,332019,1,8,0:0:0:0:
400,210,332136,1,2,0:0:0:0:
311,248,332254,1,8,0:0:0:0:
394,227,332371,1,0,0:0:0:0:
189,354,332488,5,2,0:0:0:0:
394,324,332605,1,8,0:0:0:0:
415,356,332839,1,2,0:0:0:0:
164,318,332957,1,4,0:0:0:0:
285,221,333191,1,4,0:0:0:0:
57,183,333309,1,8,0:0:0:0:
291,19,333426,6,0,B|353:152|353:152|364:352|364:352,1,347.5,8|0,0:0|0:0,0:0:0:0:
292,186,333777,1,0,0:0:0:0:
85,322,333894,2,0,L|144:222|144:222|188:115|188:115|149:35|149:35|85:162|85:162,2,231.666666666667,4|4|4,0:0|0:0|0:0,0:0:0:0:
357,209,334363,6,0,L|364:298|364:298|368:156|368:156,1,231.666666666667,4|0,0:0|0:0,0:0:0:0:
95,209,334676,2,0,L|88:298|88:298|84:156|84:156,1,231.666666666667,12|0,0:0|0:0,0:0:0:0:
240,115,334988,2,0,L|254:230|254:230,1,115.833333333333,8|0,0:0|0:0,0:0:0:0:
179,115,335144,2,0,L|165:230|165:230,1,115.833333333333,2|0,0:0|0:0,0:0:0:0:
365,268,335301,6,0,B|423:133|423:133|425:333|425:333,1,347.5,4|0,0:0|0:0,0:0:0:0:
213,237,335652,1,2,0:0:0:0:
289,223,335769,1,8,0:0:0:0:
213,203,335886,1,2,0:0:0:0:
176,133,336004,1,8,0:0:0:0:
214,64,336121,1,0,0:0:0:0:
404,61,336238,5,2,0:0:0:0:
223,33,336355,2,0,B|170:170|170:170|163:370|163:370,1,347.5,8|2,0:0|0:0,0:0:0:0:
352,360,336707,2,0,L|372:187|372:187,1,173.75,4|8,0:0|0:0,0:0:0:0:
158,358,336941,2,0,L|138:185|138:185,1,173.75,4|8,0:0|0:0,0:0:0:0:
404,187,337176,6,0,B|331:314|331:314|248:131|248:131,1,347.5,8|2,0:0|0:0,0:0:0:0:
235,115,337528,1,8,0:0:0:0:
352,295,337645,1,2,0:0:0:0:
366,373,337762,1,2,0:0:0:0:
252,215,337879,1,8,0:0:0:0:
349,274,337996,1,0,0:0:0:0:
148,49,338113,6,0,L|226:204|226:204,1,173.75,2|8,0:0|0:0,0:0:0:0:
109,151,338347,2,0,L|187:306|187:306,1,173.75,4|8,0:0|0:0,0:0:0:0:
70,333,338582,1,8,0:0:0:0:
79,256,338699,1,0,0:0:0:0:
128,196,338816,1,8,0:0:0:0:
200,169,338933,1,8,0:0:0:0:
440,44,339051,5,4,0:0:0:0:
349,64,339168,1,0,0:0:0:0:
425,72,339285,1,2,0:0:0:0:
484,118,339402,1,2,0:0:0:0:
497,188,339519,1,8,0:0:0:0:
463,251,339636,1,2,0:0:0:0:
339,41,339754,1,8,0:0:0:0:
440,26,339871,1,0,0:0:0:0:
260,334,339988,5,2,0:0:0:0:
233,269,340105,1,8,0:0:0:0:
259,203,340222,1,2,0:0:0:0:
328,186,340340,1,2,0:0:0:0:
97,334,340457,2,0,L|157:200|157:200|252:24|252:24,1,347.5,4|4,0:0|0:0,0:0:0:0:
174,382,340808,1,8,0:0:0:0:
382,366,340926,6,0,B|433:228|433:228|456:29|456:29,1,347.5,8|2,0:0|0:0,0:0:0:0:
379,273,341277,1,8,0:0:0:0:
300,253,341394,1,2,0:0:0:0:
264,188,341511,1,2,0:0:0:0:
273,113,341629,2,0,L|350:269|350:269,1,173.75,8|0,0:0|0:0,0:0:0:0:
103,45,341863,5,2,0:0:0:0:
187,36,341980,1,8,0:0:0:0:
100,56,342097,1,4,0:0:0:0:
185,52,342215,1,8,0:0:0:0:
364,196,342332,1,8,0:0:0:0:
444,187,342449,1,0,0:0:0:0:
170,213,342566,1,8,0:0:0:0:
90,222,342683,1,8,0:0:0:0:
348,237,342801,6,0,B|340:384|340:384|283:192|283:192,1,347.5,4|2,0:0|0:0,0:0:0:0:
205,355,343152,1,2,0:0:0:0:
289,350,343269,1,8,0:0:0:0:
209,333,343386,1,2,0:0:0:0:
172,255,343504,1,8,0:0:0:0:
216,180,343621,1,0,0:0:0:0:
289,350,343738,5,2,0:0:0:0:
209,333,343855,1,8,0:0:0:0:
172,255,343972,1,2,0:0:0:0:
216,180,344090,1,2,0:0:0:0:
426,88,344207,2,0,L|349:244|349:244,1,173.75,4|8,0:0|0:0,0:0:0:0:
98,88,344441,2,0,L|175:244|175:244,1,173.75,4|8,0:0|0:0,0:0:0:0:
443,223,344676,6,0,B|454:370|454:370|382:183|382:183,1,347.5,8|2,0:0|0:0,0:0:0:0:
194,101,345027,1,8,0:0:0:0:
265,132,345144,1,2,0:0:0:0:
318,189,345261,1,2,0:0:0:0:
343,264,345379,1,8,0:0:0:0:
327,341,345496,1,0,0:0:0:0:
194,341,345613,5,2,0:0:0:0:
271,303,345730,1,8,0:0:0:0:
205,254,345848,1,4,0:0:0:0:
136,213,345965,1,8,0:0:0:0:
397,80,346082,1,8,0:0:0:0:
276,53,346316,1,8,0:0:0:0:
367,75,346433,1,8,0:0:0:0:
149,251,346551,6,0,B|153:104|153:104|224:292|224:292,1,347.5,4|2,0:0|0:0,0:0:0:0:
307,355,346902,1,2,0:0:0:0:
223,350,347019,1,8,0:0:0:0:
303,333,347136,1,2,0:0:0:0:
340,255,347254,1,8,0:0:0:0:
296,180,347371,1,0,0:0:0:0:
223,350,347488,5,2,0:0:0:0:
303,333,347605,1,8,0:0:0:0:
340,255,347722,1,2,0:0:0:0:
296,180,347840,1,2,0:0:0:0:
86,88,347957,2,0,L|163:244|163:244,1,173.75,4|8,0:0|0:0,0:0:0:0:
414,88,348191,2,0,L|337:244|337:244,1,173.75,4|8,0:0|0:0,0:0:0:0:
75,324,348426,6,0,B|67:177|67:177|132:367|132:367,1,347.5,8|0,0:0|0:0,0:0:0:0:
276,224,348738,2,0,L|292:339|292:339|276:224|276:224,2,115.833333333333,8|0|4,0:0|0:0|0:0,0:0:0:0:
147,284,349051,1,4,0:0:0:0:
303,315,349207,1,4,0:0:0:0:
71,84,349363,6,0,L|113:163|113:163|174:292|174:292,1,231.666666666667,4|0,0:0|0:0,0:0:0:0:
441,84,349676,2,0,L|401:164|401:164|338:292|338:292,1,231.666666666667,12|0,0:0|0:0,0:0:0:0:
186,178,349988,2,0,L|237:282|237:282,1,115.833333333333,8|0,0:0|0:0,0:0:0:0:
392,257,350144,2,0,L|443:361|443:361,1,115.833333333333,2|0,0:0|0:0,0:0:0:0:
234,375,350301,6,0,B|175:240|175:240|174:40|174:40,1,347.5,4|2,0:0|0:0,0:0:0:0:
386,344,350652,1,2,0:0:0:0:
310,330,350769,1,8,0:0:0:0:
386,310,350886,1,2,0:0:0:0:
423,240,351004,1,8,0:0:0:0:
385,171,351121,1,0,0:0:0:0:
210,317,351239,5,2,0:0:0:0:
408,102,351356,2,0,B|332:228|332:228|252:44|252:44,1,347.5,8|2,0:0|0:0,0:0:0:0:
294,175,351707,1,4,0:0:0:0:
366,208,351824,1,8,0:0:0:0:
444,214,351941,2,0,L|366:369|366:369,1,173.75,4|8,0:0|0:0,0:0:0:0:
134,103,352176,6,0,B|151:249|151:249|233:66|233:66,1,347.5,8|2,0:0|0:0,0:0:0:0:
301,36,352527,1,8,0:0:0:0:
221,82,352644,1,2,0:0:0:0:
307,121,352761,1,2,0:0:0:0:
211,168,352879,1,8,0:0:0:0:
313,213,352996,1,0,0:0:0:0:
59,334,353113,6,0,L|50:245|50:245|42:103|42:103,1,231.666666666667,4|0,0:0|0:0,0:0:0:0:
263,82,353426,2,0,L|261:171|261:171|246:313|246:313,1,231.666666666667,4|0,0:0|0:0,0:0:0:0:
464,335,353738,2,0,L|464:246|464:246|447:104|447:104,1,231.666666666667,4|0,0:0|0:0,0:0:0:0:
168,44,354051,5,4,0:0:0:0:
259,64,354168,1,0,0:0:0:0:
183,72,354285,1,2,0:0:0:0:
124,118,354402,1,2,0:0:0:0:
111,188,354519,1,8,0:0:0:0:
145,251,354636,1,2,0:0:0:0:
340,45,354754,1,8,0:0:0:0:
154,26,354871,1,0,0:0:0:0:
344,340,354988,5,2,0:0:0:0:
253,320,355105,1,8,0:0:0:0:
329,312,355222,1,2,0:0:0:0:
388,266,355339,1,2,0:0:0:0:
401,196,355456,1,4,0:0:0:0:
367,133,355573,1,8,0:0:0:0:
243,343,355691,1,4,0:0:0:0:
344,358,355808,1,8,0:0:0:0:
130,18,355926,6,0,B|76:155|76:155|56:354|56:354,1,347.5,8|2,0:0|0:0,0:0:0:0:
139,157,356277,1,8,0:0:0:0:
56,138,356394,1,2,0:0:0:0:
139,157,356511,1,2,0:0:0:0:
222,176,356629,1,8,0:0:0:0:
139,157,356746,1,0,0:0:0:0:
357,57,356863,6,0,L|393:139|393:139|460:265|460:265,1,231.666666666667,4|0,0:0|0:0,0:0:0:0:
192,188,357176,2,0,L|158:271|158:271|89:146|89:146,1,231.666666666667,4|0,0:0|0:0,0:0:0:0:
360,321,357488,2,0,L|399:241|399:241|463:114|463:114,1,231.666666666667,4|0,0:0|0:0,0:0:0:0:
229,376,357801,6,0,L|151:221|151:221,1,173.75,4|0,0:0|0:0,0:0:0:0:
270,233,358035,2,0,L|279:59|279:59,1,173.75,2|2,0:0|0:0,0:0:0:0:
398,242,358269,1,8,0:0:0:0:
432,177,358386,1,2,0:0:0:0:
394,104,358503,1,8,0:0:0:0:
321,91,358621,1,0,0:0:0:0:
100,110,358738,5,2,0:0:0:0:
179,127,358856,1,8,0:0:0:0:
208,197,358973,1,2,0:0:0:0:
177,261,359090,1,2,0:0:0:0:
84,293,359207,2,0,L|162:138|162:138,1,173.75,4|8,0:0|0:0,0:0:0:0:
337,180,359441,2,0,L|259:335|259:335,1,173.75,4|8,0:0|0:0,0:0:0:0:
436,53,359676,6,0,B|365:182|365:182|282:364|282:364,1,347.5,8|2,0:0|0:0,0:0:0:0:
367,94,360027,1,8,0:0:0:0:
450,131,360144,1,2,0:0:0:0:
367,94,360261,1,2,0:0:0:0:
281,71,360379,1,8,0:0:0:0:
367,94,360496,1,0,0:0:0:0:
149,43,360613,6,0,L|103:119|103:119|45:249|45:249,1,231.666666666667,4|0,0:0|0:0,0:0:0:0:
301,113,360926,2,0,L|262:193|262:193|197:320|197:320,1,231.666666666667,4|0,0:0|0:0,0:0:0:0:
452,189,361238,2,0,L|420:272|420:272|348:149|348:149,1,231.666666666667,4|0,0:0|0:0,0:0:0:0:
46,212,361551,6,0,B|36:359|36:359|94:167|94:167,1,347.5,4|2,0:0|0:0,0:0:0:0:
170,330,361902,1,2,0:0:0:0:
364,302,362019,2,0,B|388:157|388:157|316:344|316:344,1,347.5,8|8,0:0|0:0,0:0:0:0:
240,184,362370,1,0,0:0:0:0:
434,117,362487,6,0,L|356:273|356:273,1,173.75,2|8,0:0|0:0,0:0:0:0:
452,82,362722,2,0,L|374:238|374:238,1,173.75,2|8,0:0|0:0,0:0:0:0:
121,155,362957,2,0,B|120:302|120:302|182:111|182:111,1,347.5,4|4,0:0|0:0,0:0:0:0:
317,298,363269,6,0,L|337:184|337:184|317:70|317:70,2,115.833333333333,0|0|8,0:0|0:0|0:0,0:0:0:0:
186,322,363582,1,4,0:0:0:0:
476,150,363777,1,4,0:0:0:0:
279,58,363894,2,0,B|320:168|320:168|372:273|372:273|388:157|388:157|369:326|369:326,1,521.25,4|0,0:0|0:0,0:0:0:0:
70,331,364363,6,0,L|105:249|105:249|174:124|174:124,1,231.666666666667,4|0,0:0|0:0,0:0:0:0:
427,77,364676,2,0,L|380:153|380:153|323:284|323:284,1,231.666666666667,12|0,0:0|0:0,0:0:0:0:
175,185,364988,2,0,L|226:289|226:289,1,115.833333333333,8|0,0:0|0:0,0:0:0:0:
399,275,365144,2,0,L|348:379|348:379,1,115.833333333333,2|0,0:0|0:0,0:0:0:0:
158,350,365301,6,0,L|128:291|128:291|101:231|101:231|89:166|89:166|33:69|33:69,1,309.999987701417,4|0,0:0|0:0,0:0:0:0:
125,317,365676,1,2,0:0:0:0:
33,338,365801,1,8,0:0:0:0:
13,267,365926,1,2,0:0:0:0:
45,197,366051,1,8,0:0:0:0:
127,178,366176,1,0,0:0:0:0:
252,45,366301,5,2,0:0:0:0:
170,64,366426,1,8,0:0:0:0:
261,78,366551,1,2,0:0:0:0:
281,149,366676,1,2,0:0:0:0:
174,157,366801,1,4,0:0:0:0:
256,176,366926,1,8,0:0:0:0:
165,190,367051,1,4,0:0:0:0:
145,261,367176,1,0,0:0:0:0:
354,350,367301,6,0,L|389:294|389:294|410:231|410:231|430:168|430:168|478:68|478:68,1,310,8|2,0:0|0:0,0:0:0:0:
387,317,367676,1,8,0:0:0:0:
479,338,367801,1,2,0:0:0:0:
499,267,367926,1,2,0:0:0:0:
467,197,368051,1,8,0:0:0:0:
385,178,368176,1,0,0:0:0:0:
285,334,368301,5,2,0:0:0:0:
259,288,368426,1,8,0:0:0:0:
275,235,368551,1,4,0:0:0:0:
332,217,368676,1,8,0:0:0:0:
403,200,368801,1,8,0:0:0:0:
448,142,368926,1,0,0:0:0:0:
438,67,369051,1,8,0:0:0:0:
376,26,369176,1,8,0:0:0:0:
158,35,369319,6,0,L|133:96|133:96|98:151|98:151|90:216|90:216|40:309|40:309,1,302.499991922379,4|0,0:0|0:0,0:0:0:0:
29,117,369728,1,0,0:0:0:0:
110,134,369864,1,0,0:0:0:0:
99,208,370000,1,0,0:0:0:0:
181,228,370137,1,8,0:0:0:0:
170,302,370273,1,0,0:0:0:0:
101,124,370409,5,8,0:0:0:0:
90,198,370545,1,2,0:0:0:0:
172,218,370682,1,0,0:0:0:0:
161,292,370818,1,2,0:0:0:0:
243,320,370955,1,4,0:0:0:0:
161,292,371091,1,0,0:0:0:0:
236,310,371228,1,8,0:0:0:0:
154,282,371364,1,8,0:0:0:0:
303,81,371500,5,8,0:0:0:0:
379,122,371637,1,0,0:0:0:0:
403,199,371774,1,2,0:0:0:0:
351,270,371910,1,2,0:0:0:0:
229,301,372046,1,8,0:0:0:0:
153,260,372183,1,2,0:0:0:0:
129,183,372320,1,8,0:0:0:0:
181,112,372456,1,0,0:0:0:0:
303,11,372591,5,4,0:0:0:0:
314,85,372727,1,8,0:0:0:0:
397,84,372864,1,8,0:0:0:0:
408,158,373000,1,8,0:0:0:0:
488,150,373137,1,4,0:0:0:0:
499,224,373273,1,0,0:0:0:0:
410,170,373409,1,8,0:0:0:0:
502,236,373546,1,8,0:0:0:0:
255,332,373674,6,0,L|279:272|279:272|313:217|313:217|337:157|337:157|366:60|366:60,1,294.999990997316,4|0,0:0|0:0,0:0:0:0:
450,327,374115,1,0,0:0:0:0:
489,249,374262,1,8,0:0:0:0:
468,165,374409,1,0,0:0:0:0:
399,114,374556,1,0,0:0:0:0:
312,112,374703,1,0,0:0:0:0:
443,188,374850,5,4,0:0:0:0:
454,236,374997,1,0,0:0:0:0:
442,283,375144,1,8,0:0:0:0:
408,318,375291,1,0,0:0:0:0:
361,330,375438,2,0,L|352:385|352:385|352:293|352:293,1,147.499995498657,8|0,0:0|0:0,0:0:0:0:
493,81,375732,2,0,L|493:137|493:137|483:228|483:228,1,147.499995498657
249,79,376026,6,0,L|234:142|234:142|205:200|205:200|172:256|172:256|138:351|138:351,1,294.999990997316,4|8,0:0|0:0,0:0:0:0:
217,98,376467,1,0,0:0:0:0:
256,176,376614,1,8,0:0:0:0:
235,260,376761,1,0,0:0:0:0:
166,311,376908,1,0,0:0:0:0:
79,313,377056,1,0,0:0:0:0:
209,373,377203,5,4,0:0:0:0:
242,316,377350,1,0,0:0:0:0:
222,252,377497,1,8,0:0:0:0:
153,230,377644,1,0,0:0:0:0:
67,211,377791,1,8,0:0:0:0:
13,141,377938,1,0,0:0:0:0:
26,50,378085,1,0,0:0:0:0:
100,0,378232,1,0,0:0:0:0:
430,215,378369,6,0,B|459:272|459:272|460:336|460:336|466:273|466:273|463:177|463:177,1,287.500005483628,4|0,0:0|0:0,0:0:0:0:
321,240,379007,2,0,L|334:302|334:302|361:360|361:360|388:302|388:302|427:214|427:214,1,287.500005483628,8|0,0:0|0:0,0:0:0:0:
347,271,379486,1,0,0:0:0:0:
433,334,379645,6,0,L|437:278|437:278|439:190|439:190,1,143.750002741814,4|0,0:0|0:0,0:0:0:0:
322,66,379964,2,0,L|310:120|310:120|316:208|316:208,1,143.750002741814,8|0,0:0|0:0,0:0:0:0:
462,174,380283,1,8,0:0:0:0:
472,122,380442,1,0,0:0:0:0:
449,76,380602,1,0,0:0:0:0:
402,53,380761,1,0,0:0:0:0:
91,274,380922,6,0,B|70:334|70:334|59:271|59:271|48:208|48:208|49:112|49:112,1,287.500005483628,4|8,0:0|0:0,0:0:0:0:
89,132,381400,1,0,0:0:0:0:
172,104,381560,1,8,0:0:0:0:
89,132,381720,1,0,0:0:0:0:
49,195,381879,1,0,0:0:0:0:
276,36,382198,5,0,0:0:0:0:
268,80,382358,1,0,0:0:0:0:
260,124,382517,1,0,0:0:0:0:
252,168,382677,1,0,0:0:0:0:
131,118,382837,1,0,0:0:0:0:
139,162,382997,1,0,0:0:0:0:
147,206,383156,1,0,0:0:0:0:
155,250,383316,1,0,0:0:0:0:
402,351,383475,6,0,L|395:289|395:289|407:227|407:227|421:166|421:166|415:75|415:75,1,280,4|0,0:0|0:0,0:0:0:0:
330,269,383998,1,0,0:0:0:0:
245,286,384172,2,0,L|243:349|243:349|247:286|247:286|247:223|247:223|232:133|232:133,1,280,8|0,0:0|0:0,0:0:0:0:
317,169,384695,1,0,0:0:0:0:
231,186,384870,5,4,0:0:0:0:
155,143,385044,1,0,0:0:0:0:
136,62,385219,1,8,0:0:0:0:
193,1,385393,1,0,0:0:0:0:
317,169,385568,1,8,0:0:0:0:
393,212,385742,1,0,0:0:0:0:
412,293,385917,1,0,0:0:0:0:
355,354,386091,1,0,0:0:0:0:
110,351,386265,6,0,L|103:289|103:289|100:226|100:226|97:163|97:163|97:71|97:71,1,280,4|8,0:0|0:0,0:0:0:0:
173,235,386788,1,0,0:0:0:0:
250,219,386963,1,8,0:0:0:0:
325,203,387137,1,0,0:0:0:0:
401,187,387312,1,0,0:0:0:0:
176,145,387661,6,0,L|176:215|176:215|193:283|193:283|178:351|178:351|176:281|176:281|192:228|192:228|193:144|193:144,3,140
336,145,388358,2,0,L|324:214|324:214|319:284|319:284|335:352|335:352|336:282|336:282|329:227|329:227|319:143|319:143,3,140
63,345,389056,6,0,L|91:290|91:290|104:230|104:230|130:174|130:174|156:91|156:91,1,272.500010395051,4|0,0:0|0:0,0:0:0:0:
254,312,389632,1,0,0:0:0:0:
155,330,389825,1,8,0:0:0:0:
254,312,390017,1,0,0:0:0:0:
155,330,390209,2,0,L|146:385|146:385|148:304|148:304,1,136.250005197525
425,141,390594,6,0,L|437:195|437:195|442:276|442:276,1,136.250005197525,4|0,0:0|0:0,0:0:0:0:
335,183,390979,2,0,L|332:238|332:238|318:318|318:318,1,136.250005197525,8|0,0:0|0:0,0:0:0:0:
201,130,391363,2,0,L|204:185|204:185|218:265|218:265,1,136.250005197525,8|0,0:0|0:0,0:0:0:0:
111,172,391748,2,0,L|112:227|112:227|94:306|94:306,1,136.250005197525
395,336,392132,6,0,L|366:281|366:281|345:223|345:223|340:161|340:161|302:83|302:83,1,272.500010395051,4|8,0:0|0:0,0:0:0:0:
386,316,392709,1,0,0:0:0:0:
467,280,392902,2,0,B|464:342|464:342|453:281|453:281|447:220|447:220|421:137|421:137,1,272.500010395051,8|0,0:0|0:0,0:0:0:0:
141,46,393671,6,0,B|124:105|124:105|105:164|105:164|82:221|82:221|81:308|81:308,1,272.500010395051
100,189,394248,1,0,0:0:0:0:
171,246,394440,1,0,0:0:0:0:
257,262,394632,1,0,0:0:0:0:
170,274,394825,1,0,0:0:0:0:
259,240,395017,1,0,0:0:0:0:
437,103,395209,6,0,B|425:200|425:200|430:297|430:297|396:206|396:206|378:75|378:75,1,424.99998703003,4|0,0:0|0:0,0:0:0:0:
256,102,395861,1,0,0:0:0:0:
134,45,396078,2,0,B|106:138|106:138|96:235|96:235|78:331|78:331|74:198|74:198,1,424.99998703003,8|0,0:0|0:0,0:0:0:0:
114,184,396730,1,0,0:0:0:0:
334,204,396948,6,0,B|342:301|342:301|367:207|367:207|384:111|384:111|393:244|393:244,1,424.99998703003,4|8,0:0|0:0,0:0:0:0:
177,204,397805,2,0,B|168:301|168:301|148:206|148:206|123:112|123:112|119:245|119:245,1,424.99998703003,8|0,0:0|0:0,0:0:0:0:
446,102,398662,6,0,L|451:146|451:146|467:187|467:187|468:231|468:231|474:306|474:306,1,208.749990444184,4|0,0:0|0:0,0:0:0:0:
348,104,399145,2,0,L|340:148|340:148|345:192|345:192|352:236|352:236|356:311|356:311,1,208.749990444184,8|0,0:0|0:0,0:0:0:0:
253,146,399629,2,0,L|244:190|244:190|247:234|247:234|244:278|244:278|243:353|243:353,1,208.749990444184,8|0,0:0|0:0,0:0:0:0:
141,260,400113,2,0,L|144:304|144:304|121:342|121:342|115:298|115:298|113:222|113:222,1,208.749993470192
308,344,400597,6,0,L|298:281|298:281|267:226|267:226|249:165|249:165|231:104|231:104|214:43|214:43|182:98|182:98|165:159|165:159|152:221|152:221|164:283|164:283|190:341|190:341|216:283|216:283|229:221|229:221|254:163|254:163|259:100|259:100|283:41|283:41|308:99|308:99|289:154|289:154|274:211|274:211|254:266|254:266|237:322|237:322|225:380|225:380|203:326|203:326|171:277|171:277|152:182|152:182,3,507.5
423,226,402532,6,0,L|413:269|413:269|415:314|415:314|410:358|410:358|417:287|417:287,1,204.999993743897,4|0,0:0|0:0,0:0:0:0:
266,204,403087,2,0,L|264:249|264:249|258:293|258:293|260:338|260:338|259:267|259:267,1,204.999993743897,8|0,0:0|0:0,0:0:0:0:
121,310,403643,2,0,L|119:358|119:358|124:310|124:310|110:264|110:264|113:216|113:216|102:169|102:169|109:122|109:122|114:74|114:74|106:148|106:148,1,409.999987487793,8|0,0:0|0:0,0:0:0:0:
225,275,404476,1,0,0:0:0:0:
66,102,404754,6,0,L|53:145|53:145|59:189|59:189|61:234|61:234|41:302|41:302,1,204.999993743897,4|0,0:0|0:0,0:0:0:0:
164,104,405309,2,0,L|173:148|173:148|162:191|162:191|154:235|154:235|155:306|155:306,1,204.999993743897,8|0,0:0|0:0,0:0:0:0:
259,146,405865,2,0,L|259:191|259:191|270:234|270:234|259:277|259:277|268:348|268:348,1,204.999993743897,8|0,0:0|0:0,0:0:0:0:
371,260,406420,2,0,L|373:305|373:305|387:347|387:347|382:303|382:303|399:234|399:234,1,204.999993743897
230,357,406976,6,0,L|242:304|242:304|249:250|249:250|277:203|277:203|275:149|275:149|290:97|290:97|299:44|299:44|301:98|301:98|324:147|324:147|323:201|323:201|306:252|306:252|295:305|295:305|268:352|268:352|273:298|273:298|250:249|250:249|238:196|238:196|230:143|230:143|241:93|241:93|253:43|253:43|271:91|271:91|280:141|280:141|276:192|276:192|303:235|303:235|299:286|299:286|324:357|324:357,3,432.500016498566,4|0|0|0,0:0|0:0|0:0|0:0,0:0:0:0:
82,315,409584,5,0,0:0:0:0:
47,232,409910,1,0,0:0:0:0:
78,148,410236,1,0,0:0:0:0:
159,109,410562,1,0,0:0:0:0:
351,303,410889,1,0,0:0:0:0:
432,264,411215,1,0,0:0:0:0:
463,180,411541,1,0,0:0:0:0:
428,97,411867,1,0,0:0:0:0:
39,52,412193,5,2,0:0:0:0:
131,255,414802,1,8,0:0:0:0:
473,52,417410,1,4,0:0:0:0:
381,255,420019,1,2,0:0:0:0:
96,316,422628,2,0,B|98:365|98:365|99:316|99:316|100:267|100:267|98:218|98:218|80:173|80:173|80:124|80:124|71:76|71:76|70:27|70:27|87:73|87:73|70:119|70:119|71:168|71:168|68:217|68:217|85:263|85:263|79:311|79:311|77:360|77:360|81:311|81:311|67:264|67:264|76:216|76:216|78:167|78:167|89:119|89:119|76:72|76:72|92:26|92:26|92:75|92:75|93:124|93:124|75:169|75:169|76:218|76:218|78:267|78:267|100:310|100:310|100:359|100:359|101:310|101:310|98:261|98:261|102:191|102:191,1,1580,2|0,0:0|0:0,0:0:0:0:
473,332,427845,5,2,0:0:0:0:
381,129,430454,1,8,0:0:0:0:
39,332,433062,1,4,0:0:0:0:
131,129,435671,1,2,0:0:0:0:
416,68,438280,2,0,B|424:116|424:116|419:164|419:164|425:212|425:212|432:260|432:260|425:308|425:308|435:356|435:356|428:308|428:308|423:260|423:260|431:212|431:212|430:163|430:163|425:115|425:115|433:67|433:67|428:19|428:19|436:67|436:67|427:115|427:115|433:163|433:163|426:211|426:211|438:258|438:258|435:307|435:307|441:355|441:355|427:308|427:308|434:260|434:260|441:212|441:212|433:164|433:164|421:117|421:117|425:68|425:68|425:19|425:19|428:68|428:68|412:114|412:114|428:160|428:160|411:205|411:205|410:275|410:275,1,1580,8|0,0:0|0:0,0:0:0:0:
69,69,443497,5,2,0:0:0:0:
298,234,446106,1,8,0:0:0:0:
214,150,448715,1,4,0:0:0:0:
443,69,451323,1,2,0:0:0:0:
120,273,453932,5,8,0:0:0:0:
437,330,456541,2,0,B|433:379|433:379|426:331|426:331|419:283|419:283|419:234|419:234|405:187|405:187|402:138|402:138|414:91|414:91|413:42|413:42|414:91|414:91|393:135|393:135|392:184|392:184|396:233|396:233|407:280|407:280|401:328|401:328|396:376|396:376|395:327|395:327|384:280|384:280|403:235|403:235|384:190|384:190|406:147|406:147|400:99|400:99|407:51|407:51|398:3|398:3|396:52|396:52|406:100|406:100|401:148|401:148|416:194|416:194|413:243|413:243|417:292|417:292|420:341|420:341|441:385|441:385|437:315|437:315,1,1580,8|0,0:0|0:0,0:0:0:0:
256,190,461758,5,2,0:0:0:0:
75,330,464367,2,0,B|91:376|91:376|75:330|75:330|83:282|83:282|87:233|87:233|92:185|92:185|96:136|96:136|109:89|109:89|105:40|105:40|100:88|100:88|117:134|117:134|119:183|119:183|107:230|107:230|115:278|115:278|109:326|109:326|117:374|117:374|111:326|111:326|108:277|108:277|110:228|110:228|125:182|125:182|106:137|106:137|118:90|118:90|108:42|108:42|118:90|118:90|110:138|110:138|95:184|95:184|100:232|100:232|91:280|91:280|101:328|101:328|80:372|80:372|97:326|97:326|77:282|77:282|75:212|75:212,1,1580,4|0,0:0|0:0,0:0:0:0:
