osu file format v14

[General]
AudioFilename: Pascal.mp3
AudioLeadIn: 0
PreviewTime: 377
Countdown: 0
SampleSet: None
StackLeniency: 0.7
Mode: 3
LetterboxInBreaks: 0
SpecialStyle: 0
WidescreenStoryboard: 0

[Editor]
DistanceSpacing: 0.8
BeatDivisor: 3
GridSize: 16
TimelineZoom: 1

[Metadata]
Title:Pascal
TitleUnicode:Pascal
Artist:Keiichi Okabe
ArtistUnicode:Keiichi Okabe
Creator:ATing
Version:Kal dis is mal
Source:NieR: Automata
Tags:
BeatmapID:2046178
BeatmapSetID:977654

[Difficulty]
HPDrainRate:8
CircleSize:4
OverallDifficulty:8
ApproachRate:5
SliderMultiplier:1.4
SliderTickRate:1

[Events]
//Background and Video events
0,0,"nier.jpg",0,0
//Break Periods
//Storyboard Layer 0 (Background)
//Storyboard Layer 1 (Fail)
//Storyboard Layer 2 (Pass)
//Storyboard Layer 3 (Foreground)
//Storyboard Sound Samples

[TimingPoints]
377.846527119632,652.173913043478,4,1,0,15,1,0

[HitObjects]
64,192,377,5,0,0:0:0:0:
448,192,377,1,0,0:0:0:0:
192,192,595,1,0,0:0:0:0:
320,192,812,1,0,0:0:0:0:
448,192,1030,1,0,0:0:0:0:
192,192,1030,1,0,0:0:0:0:
320,192,1247,1,0,0:0:0:0:
448,192,1464,1,0,0:0:0:0:
64,192,1682,1,0,0:0:0:0:
192,192,1682,1,0,0:0:0:0:
448,192,1899,1,0,0:0:0:0:
64,192,2116,1,0,0:0:0:0:
320,192,2116,1,0,0:0:0:0:
64,192,2334,1,0,0:0:0:0:
192,192,2334,1,0,0:0:0:0:
448,192,2551,1,0,0:0:0:0:
192,192,2769,1,0,0:0:0:0:
448,192,2986,1,0,0:0:0:0:
64,192,2986,1,0,0:0:0:0:
320,192,3203,1,0,0:0:0:0:
192,192,3421,1,0,0:0:0:0:
64,192,3638,1,0,0:0:0:0:
320,192,3638,1,0,0:0:0:0:
192,192,3856,1,0,0:0:0:0:
64,192,4073,1,0,0:0:0:0:
448,192,4290,1,0,0:0:0:0:
320,192,4290,1,0,0:0:0:0:
64,192,4508,1,0,0:0:0:0:
448,192,4508,1,0,0:0:0:0:
448,192,4725,1,0,0:0:0:0:
192,192,4725,1,0,0:0:0:0:
448,192,4943,1,0,0:0:0:0:
320,192,4943,1,0,0:0:0:0:
64,192,5160,1,0,0:0:0:0:
320,192,5377,1,0,0:0:0:0:
64,192,5595,1,0,0:0:0:0:
192,192,5595,1,0,0:0:0:0:
320,192,5812,1,0,0:0:0:0:
448,192,6030,1,0,0:0:0:0:
192,192,6030,1,0,0:0:0:0:
64,192,6247,1,0,0:0:0:0:
448,192,6247,1,0,0:0:0:0:
320,192,6464,1,0,0:0:0:0:
192,192,6682,1,0,0:0:0:0:
320,192,6899,1,0,0:0:0:0:
448,192,6899,1,0,0:0:0:0:
64,192,7116,1,0,0:0:0:0:
192,192,7334,1,0,0:0:0:0:
448,192,7334,1,0,0:0:0:0:
448,192,7551,1,0,0:0:0:0:
64,192,7551,1,0,0:0:0:0:
320,192,7769,1,0,0:0:0:0:
192,192,7986,1,0,0:0:0:0:
448,192,8203,1,0,0:0:0:0:
320,192,8203,1,0,0:0:0:0:
192,192,8421,1,0,0:0:0:0:
320,192,8638,1,0,0:0:0:0:
64,192,8856,1,0,0:0:0:0:
448,192,8856,1,0,0:0:0:0:
192,192,9073,1,0,0:0:0:0:
320,192,9290,1,0,0:0:0:0:
64,192,9508,1,0,0:0:0:0:
192,192,9508,1,0,0:0:0:0:
448,192,9725,1,0,0:0:0:0:
64,192,9725,1,0,0:0:0:0:
64,192,9943,1,0,0:0:0:0:
320,192,9943,1,0,0:0:0:0:
448,192,10160,1,0,0:0:0:0:
64,192,10160,1,0,0:0:0:0:
192,192,10377,1,0,0:0:0:0:
320,192,10595,1,0,0:0:0:0:
192,192,10812,1,0,0:0:0:0:
64,192,10812,1,0,0:0:0:0:
448,192,10812,1,0,0:0:0:0:
192,192,11030,1,0,0:0:0:0:
320,192,11247,1,0,0:0:0:0:
64,192,11247,1,0,0:0:0:0:
64,192,11464,1,0,0:0:0:0:
448,192,11464,1,0,0:0:0:0:
192,192,11682,1,0,0:0:0:0:
320,192,11899,1,0,0:0:0:0:
64,192,12116,1,0,0:0:0:0:
448,192,12116,1,0,0:0:0:0:
64,192,12334,1,0,0:0:0:0:
320,192,12334,1,0,0:0:0:0:
64,192,12551,1,0,0:0:0:0:
192,192,12551,1,0,0:0:0:0:
448,192,12769,1,0,0:0:0:0:
64,192,12769,1,0,0:0:0:0:
320,192,12986,1,0,0:0:0:0:
192,192,13203,1,0,0:0:0:0:
64,192,13421,1,0,0:0:0:0:
320,192,13421,1,0,0:0:0:0:
320,192,13638,1,0,0:0:0:0:
192,192,13856,1,0,0:0:0:0:
448,192,13856,1,0,0:0:0:0:
64,192,14073,1,0,0:0:0:0:
448,192,14073,1,0,0:0:0:0:
320,192,14290,1,0,0:0:0:0:
192,192,14508,1,0,0:0:0:0:
64,192,14725,1,0,0:0:0:0:
448,192,14725,1,0,0:0:0:0:
192,192,14943,1,0,0:0:0:0:
448,192,14943,1,0,0:0:0:0:
320,192,15160,1,0,0:0:0:0:
448,192,15160,1,0,0:0:0:0:
64,192,15377,1,0,0:0:0:0:
448,192,15377,1,0,0:0:0:0:
192,192,15595,1,0,0:0:0:0:
448,192,15595,1,0,0:0:0:0:
64,192,15812,1,0,0:0:0:0:
448,192,15812,1,0,0:0:0:0:
64,192,16030,1,0,0:0:0:0:
192,192,16030,1,0,0:0:0:0:
448,192,16030,1,0,0:0:0:0:
192,192,16247,1,0,0:0:0:0:
320,192,16464,1,0,0:0:0:0:
448,192,16464,1,0,0:0:0:0:
64,192,16682,1,0,0:0:0:0:
448,192,16682,1,0,0:0:0:0:
192,192,16899,1,0,0:0:0:0:
320,192,17116,1,0,0:0:0:0:
192,192,17334,1,0,0:0:0:0:
64,192,17334,1,0,0:0:0:0:
64,192,17551,1,0,0:0:0:0:
448,192,17551,1,0,0:0:0:0:
64,192,17769,1,0,0:0:0:0:
320,192,17769,1,0,0:0:0:0:
64,192,17986,1,0,0:0:0:0:
192,192,17986,1,0,0:0:0:0:
448,192,17986,1,0,0:0:0:0:
320,192,18203,1,0,0:0:0:0:
192,192,18421,1,0,0:0:0:0:
64,192,18638,1,0,0:0:0:0:
320,192,18638,1,0,0:0:0:0:
320,192,18856,1,0,0:0:0:0:
64,192,19073,1,0,0:0:0:0:
192,192,19073,1,0,0:0:0:0:
64,192,19290,1,0,0:0:0:0:
448,192,19290,1,0,0:0:0:0:
320,192,19508,1,0,0:0:0:0:
192,192,19725,1,0,0:0:0:0:
320,192,19943,1,0,0:0:0:0:
448,192,19943,1,0,0:0:0:0:
64,192,20160,1,0,0:0:0:0:
448,192,20160,1,0,0:0:0:0:
320,192,20377,1,0,0:0:0:0:
448,192,20377,1,0,0:0:0:0:
64,192,20595,1,0,0:0:0:0:
448,192,20595,1,0,0:0:0:0:
192,192,20595,1,0,0:0:0:0:
320,192,20812,1,0,0:0:0:0:
192,192,21030,1,0,0:0:0:0:
64,192,21247,1,0,0:0:0:0:
192,192,21247,1,0,0:0:0:0:
320,192,21247,1,0,0:0:0:0:
448,192,21247,1,0,0:0:0:0:
320,192,21464,1,0,0:0:0:0:
192,192,21682,1,0,0:0:0:0:
64,192,21682,1,0,0:0:0:0:
64,192,21899,1,0,0:0:0:0:
192,192,21899,1,0,0:0:0:0:
320,192,21899,1,0,0:0:0:0:
448,192,21899,1,0,0:0:0:0:
320,192,22116,1,0,0:0:0:0:
192,192,22334,1,0,0:0:0:0:
64,192,22551,1,0,0:0:0:0:
192,192,22551,1,0,0:0:0:0:
320,192,22551,1,0,0:0:0:0:
448,192,22551,1,0,0:0:0:0:
448,192,22769,1,0,0:0:0:0:
64,192,22769,1,0,0:0:0:0:
448,192,22986,1,0,0:0:0:0:
192,192,22986,1,0,0:0:0:0:
448,192,23203,1,0,0:0:0:0:
64,192,23203,1,0,0:0:0:0:
320,192,23203,1,0,0:0:0:0:
320,192,23421,1,0,0:0:0:0:
64,192,23638,1,0,0:0:0:0:
64,192,23856,1,0,0:0:0:0:
192,192,23856,1,0,0:0:0:0:
448,192,23856,1,0,0:0:0:0:
320,192,23856,1,0,0:0:0:0:
192,192,24073,1,0,0:0:0:0:
320,192,24290,1,0,0:0:0:0:
448,192,24290,1,0,0:0:0:0:
448,192,24508,1,0,0:0:0:0:
320,192,24508,1,0,0:0:0:0:
192,192,24508,1,0,0:0:0:0:
64,192,24508,1,0,0:0:0:0:
192,192,24725,1,0,0:0:0:0:
320,192,24943,1,0,0:0:0:0:
448,192,25160,1,0,0:0:0:0:
320,192,25160,1,0,0:0:0:0:
192,192,25160,1,0,0:0:0:0:
64,192,25160,1,0,0:0:0:0:
64,192,25377,1,0,0:0:0:0:
448,192,25377,1,0,0:0:0:0:
64,192,25595,1,0,0:0:0:0:
320,192,25595,1,0,0:0:0:0:
64,192,25812,1,0,0:0:0:0:
448,192,25812,1,0,0:0:0:0:
192,192,25812,1,0,0:0:0:0:
192,192,26030,1,0,0:0:0:0:
448,192,26247,1,0,0:0:0:0:
448,192,26464,1,0,0:0:0:0:
320,192,26464,1,0,0:0:0:0:
64,192,26464,1,0,0:0:0:0:
192,192,26464,1,0,0:0:0:0:
64,192,26682,1,0,0:0:0:0:
448,192,26899,1,0,0:0:0:0:
320,192,26899,1,0,0:0:0:0:
320,192,27116,1,0,0:0:0:0:
448,192,27116,1,0,0:0:0:0:
64,192,27116,1,0,0:0:0:0:
192,192,27116,1,0,0:0:0:0:
192,192,27334,1,0,0:0:0:0:
448,192,27551,1,0,0:0:0:0:
64,192,27769,1,0,0:0:0:0:
192,192,27769,1,0,0:0:0:0:
320,192,27769,1,0,0:0:0:0:
448,192,27769,1,0,0:0:0:0:
64,192,27986,1,0,0:0:0:0:
320,192,27986,1,0,0:0:0:0:
64,192,28203,1,0,0:0:0:0:
192,192,28203,1,0,0:0:0:0:
64,192,28421,1,0,0:0:0:0:
320,192,28421,1,0,0:0:0:0:
448,192,28421,1,0,0:0:0:0:
192,192,28638,1,0,0:0:0:0:
320,192,28856,1,0,0:0:0:0:
64,192,29073,1,0,0:0:0:0:
192,192,29073,1,0,0:0:0:0:
320,192,29073,1,0,0:0:0:0:
448,192,29073,1,0,0:0:0:0:
448,192,29290,1,0,0:0:0:0:
192,192,29508,1,0,0:0:0:0:
64,192,29508,1,0,0:0:0:0:
192,192,29725,1,0,0:0:0:0:
64,192,29725,1,0,0:0:0:0:
448,192,29725,1,0,0:0:0:0:
320,192,29725,1,0,0:0:0:0:
320,192,29943,1,0,0:0:0:0:
64,192,30160,1,0,0:0:0:0:
448,192,30377,1,0,0:0:0:0:
320,192,30377,1,0,0:0:0:0:
192,192,30377,1,0,0:0:0:0:
64,192,30377,1,0,0:0:0:0:
448,192,30595,1,0,0:0:0:0:
192,192,30595,1,0,0:0:0:0:
448,192,30812,1,0,0:0:0:0:
320,192,30812,1,0,0:0:0:0:
448,192,31030,1,0,0:0:0:0:
192,192,31030,1,0,0:0:0:0:
64,192,31030,1,0,0:0:0:0:
320,192,31247,1,0,0:0:0:0:
64,192,31247,1,0,0:0:0:0:
64,192,31464,1,0,0:0:0:0:
448,192,31464,1,0,0:0:0:0:
64,192,31682,1,0,0:0:0:0:
192,192,31682,1,0,0:0:0:0:
320,192,31682,1,0,0:0:0:0:
448,192,31682,1,0,0:0:0:0:
320,192,31899,1,0,0:0:0:0:
64,192,32116,1,0,0:0:0:0:
448,192,32116,1,0,0:0:0:0:
64,192,32334,1,0,0:0:0:0:
192,192,32334,1,0,0:0:0:0:
320,192,32334,1,0,0:0:0:0:
448,192,32334,1,0,0:0:0:0:
192,192,32551,1,0,0:0:0:0:
320,192,32769,1,0,0:0:0:0:
64,192,32986,1,0,0:0:0:0:
192,192,32986,1,0,0:0:0:0:
448,192,32986,1,0,0:0:0:0:
320,192,32986,1,0,0:0:0:0:
64,192,33203,1,0,0:0:0:0:
192,192,33203,1,0,0:0:0:0:
64,192,33421,1,0,0:0:0:0:
448,192,33421,1,0,0:0:0:0:
64,192,33638,1,0,0:0:0:0:
192,192,33638,1,0,0:0:0:0:
320,192,33638,1,0,0:0:0:0:
448,192,33638,1,0,0:0:0:0:
320,192,33856,1,0,0:0:0:0:
64,192,34073,1,0,0:0:0:0:
64,192,34290,1,0,0:0:0:0:
192,192,34290,1,0,0:0:0:0:
448,192,34290,1,0,0:0:0:0:
320,192,34290,1,0,0:0:0:0:
192,192,34508,1,0,0:0:0:0:
64,192,34725,1,0,0:0:0:0:
448,192,34725,1,0,0:0:0:0:
64,192,34943,1,0,0:0:0:0:
192,192,34943,1,0,0:0:0:0:
448,192,34943,1,0,0:0:0:0:
320,192,34943,1,0,0:0:0:0:
320,192,35160,1,0,0:0:0:0:
192,192,35377,1,0,0:0:0:0:
64,192,35595,1,0,0:0:0:0:
192,192,35595,1,0,0:0:0:0:
320,192,35595,1,0,0:0:0:0:
448,192,35595,1,0,0:0:0:0:
448,192,35812,1,0,0:0:0:0:
64,192,35812,1,0,0:0:0:0:
192,192,36030,1,0,0:0:0:0:
448,192,36030,1,0,0:0:0:0:
64,192,36247,1,0,0:0:0:0:
448,192,36247,1,0,0:0:0:0:
320,192,36247,1,0,0:0:0:0:
64,192,36464,1,0,0:0:0:0:
192,192,36464,1,0,0:0:0:0:
192,192,36682,1,0,0:0:0:0:
448,192,36682,1,0,0:0:0:0:
64,192,36899,1,0,0:0:0:0:
192,192,36899,1,0,0:0:0:0:
320,192,36899,1,0,0:0:0:0:
448,192,36899,1,0,0:0:0:0:
64,192,37116,1,0,0:0:0:0:
192,192,37334,1,0,0:0:0:0:
448,192,37334,1,0,0:0:0:0:
64,192,37551,1,0,0:0:0:0:
192,192,37551,1,0,0:0:0:0:
320,192,37551,1,0,0:0:0:0:
448,192,37551,1,0,0:0:0:0:
320,192,37769,1,0,0:0:0:0:
192,192,37986,1,0,0:0:0:0:
64,192,38203,1,0,0:0:0:0:
448,192,38203,1,0,0:0:0:0:
192,192,38203,1,0,0:0:0:0:
64,192,38421,1,0,0:0:0:0:
448,192,38421,1,0,0:0:0:0:
64,192,38638,1,0,0:0:0:0:
320,192,38638,1,0,0:0:0:0:
64,192,38856,1,0,0:0:0:0:
192,192,38856,1,0,0:0:0:0:
320,192,38856,1,0,0:0:0:0:
448,192,38856,1,0,0:0:0:0:
192,192,39073,1,0,0:0:0:0:
320,192,39290,1,0,0:0:0:0:
64,192,39508,1,0,0:0:0:0:
192,192,39508,1,0,0:0:0:0:
320,192,39508,1,0,0:0:0:0:
448,192,39508,1,0,0:0:0:0:
448,192,39725,1,0,0:0:0:0:
64,192,39943,1,0,0:0:0:0:
320,192,39943,1,0,0:0:0:0:
64,192,40160,1,0,0:0:0:0:
192,192,40160,1,0,0:0:0:0:
448,192,40160,1,0,0:0:0:0:
320,192,40377,1,0,0:0:0:0:
192,192,40595,1,0,0:0:0:0:
64,192,40812,1,0,0:0:0:0:
448,192,40812,1,0,0:0:0:0:
192,192,41030,1,0,0:0:0:0:
448,192,41030,1,0,0:0:0:0:
64,192,41247,1,0,0:0:0:0:
448,192,41247,1,0,0:0:0:0:
64,192,41464,1,0,0:0:0:0:
192,192,41464,1,0,0:0:0:0:
448,192,41464,1,0,0:0:0:0:
64,192,41682,1,0,0:0:0:0:
320,192,41682,1,0,0:0:0:0:
64,192,41899,1,0,0:0:0:0:
448,192,41899,1,0,0:0:0:0:
64,192,42116,1,0,0:0:0:0:
192,192,42116,1,0,0:0:0:0:
448,192,42116,1,0,0:0:0:0:
320,192,42116,1,0,0:0:0:0:
192,192,42334,1,0,0:0:0:0:
320,192,42551,1,0,0:0:0:0:
448,192,42551,1,0,0:0:0:0:
64,192,42769,1,0,0:0:0:0:
192,192,42769,1,0,0:0:0:0:
448,192,42769,1,0,0:0:0:0:
320,192,42769,1,0,0:0:0:0:
192,192,42986,1,0,0:0:0:0:
64,192,43203,1,0,0:0:0:0:
64,192,43421,1,0,0:0:0:0:
192,192,43421,1,0,0:0:0:0:
448,192,43421,1,0,0:0:0:0:
320,192,43421,1,0,0:0:0:0:
320,192,43638,1,0,0:0:0:0:
448,192,43638,1,0,0:0:0:0:
192,192,43856,1,0,0:0:0:0:
64,192,43856,1,0,0:0:0:0:
64,192,44073,1,0,0:0:0:0:
192,192,44073,1,0,0:0:0:0:
320,192,44073,1,0,0:0:0:0:
448,192,44073,1,0,0:0:0:0:
320,192,44290,1,0,0:0:0:0:
192,192,44508,1,0,0:0:0:0:
64,192,44725,1,0,0:0:0:0:
192,192,44725,1,0,0:0:0:0:
448,192,44725,1,0,0:0:0:0:
320,192,44725,1,0,0:0:0:0:
448,192,44943,1,0,0:0:0:0:
64,192,45160,1,0,0:0:0:0:
192,192,45160,1,0,0:0:0:0:
64,192,45377,1,0,0:0:0:0:
192,192,45377,1,0,0:0:0:0:
320,192,45377,1,0,0:0:0:0:
448,192,45377,1,0,0:0:0:0:
320,192,45595,1,0,0:0:0:0:
448,192,45812,1,0,0:0:0:0:
64,192,46030,1,0,0:0:0:0:
192,192,46030,1,0,0:0:0:0:
320,192,46030,1,0,0:0:0:0:
448,192,46030,1,0,0:0:0:0:
192,192,46247,1,0,0:0:0:0:
64,192,46247,1,0,0:0:0:0:
64,192,46464,1,0,0:0:0:0:
320,192,46464,1,0,0:0:0:0:
64,192,46682,1,0,0:0:0:0:
448,192,46682,1,0,0:0:0:0:
320,192,46682,1,0,0:0:0:0:
448,192,46899,1,0,0:0:0:0:
320,192,46899,1,0,0:0:0:0:
448,192,47116,1,0,0:0:0:0:
192,192,47116,1,0,0:0:0:0:
64,192,47334,1,0,0:0:0:0:
192,192,47334,1,0,0:0:0:0:
320,192,47334,1,0,0:0:0:0:
448,192,47334,1,0,0:0:0:0:
320,192,47551,1,0,0:0:0:0:
192,192,47769,1,0,0:0:0:0:
64,192,47769,1,0,0:0:0:0:
320,192,47986,1,0,0:0:0:0:
448,192,47986,1,0,0:0:0:0:
192,192,47986,1,0,0:0:0:0:
64,192,47986,1,0,0:0:0:0:
448,192,48203,1,0,0:0:0:0:
320,192,48421,1,0,0:0:0:0:
64,192,48638,1,0,0:0:0:0:
192,192,48638,1,0,0:0:0:0:
448,192,48638,1,0,0:0:0:0:
64,192,48856,1,0,0:0:0:0:
320,192,48856,1,0,0:0:0:0:
64,192,49073,1,0,0:0:0:0:
192,192,49073,1,0,0:0:0:0:
192,192,49290,1,0,0:0:0:0:
64,192,49290,1,0,0:0:0:0:
320,192,49290,1,0,0:0:0:0:
448,192,49290,1,0,0:0:0:0:
320,192,49508,1,0,0:0:0:0:
192,192,49725,1,0,0:0:0:0:
320,192,49943,1,0,0:0:0:0:
448,192,49943,1,0,0:0:0:0:
192,192,49943,1,0,0:0:0:0:
64,192,49943,1,0,0:0:0:0:
448,192,50160,1,0,0:0:0:0:
320,192,50377,1,0,0:0:0:0:
64,192,50377,1,0,0:0:0:0:
64,192,50595,1,0,0:0:0:0:
192,192,50595,1,0,0:0:0:0:
448,192,50595,1,0,0:0:0:0:
320,192,50812,1,0,0:0:0:0:
192,192,51030,1,0,0:0:0:0:
64,192,51247,1,0,0:0:0:0:
448,192,51247,1,0,0:0:0:0:
448,192,51464,1,0,0:0:0:0:
192,192,51464,1,0,0:0:0:0:
320,192,51682,1,0,0:0:0:0:
448,192,51682,1,0,0:0:0:0:
64,192,51899,1,0,0:0:0:0:
192,192,51899,1,0,0:0:0:0:
448,192,51899,1,0,0:0:0:0:
64,192,52116,1,0,0:0:0:0:
320,192,52116,1,0,0:0:0:0:
64,192,52334,1,0,0:0:0:0:
192,192,52334,1,0,0:0:0:0:
192,192,52551,1,0,0:0:0:0:
64,192,52551,1,0,0:0:0:0:
320,192,52551,1,0,0:0:0:0:
448,192,52551,1,0,0:0:0:0:
320,192,52769,1,0,0:0:0:0:
448,192,52986,1,0,0:0:0:0:
64,192,52986,1,0,0:0:0:0:
320,192,53203,1,0,0:0:0:0:
448,192,53203,1,0,0:0:0:0:
192,192,53203,1,0,0:0:0:0:
64,192,53203,1,0,0:0:0:0:
192,192,53421,1,0,0:0:0:0:
64,192,53638,1,0,0:0:0:0:
448,192,53638,1,0,0:0:0:0:
192,192,53856,1,0,0:0:0:0:
64,192,53856,1,0,0:0:0:0:
320,192,53856,1,0,0:0:0:0:
448,192,53856,1,0,0:0:0:0:
320,192,54073,1,0,0:0:0:0:
64,192,54073,1,0,0:0:0:0:
448,192,54290,1,0,0:0:0:0:
192,192,54290,1,0,0:0:0:0:
320,192,54508,1,0,0:0:0:0:
448,192,54508,1,0,0:0:0:0:
192,192,54508,1,0,0:0:0:0:
64,192,54508,1,0,0:0:0:0:
64,192,54725,1,0,0:0:0:0:
192,192,54725,1,0,0:0:0:0:
320,192,54943,1,0,0:0:0:0:
448,192,54943,1,0,0:0:0:0:
192,192,55160,1,0,0:0:0:0:
64,192,55160,1,0,0:0:0:0:
320,192,55160,1,0,0:0:0:0:
448,192,55160,1,0,0:0:0:0:
192,192,55377,1,0,0:0:0:0:
64,192,55595,1,0,0:0:0:0:
448,192,55595,1,0,0:0:0:0:
320,192,55812,1,0,0:0:0:0:
448,192,55812,1,0,0:0:0:0:
192,192,55812,1,0,0:0:0:0:
64,192,55812,1,0,0:0:0:0:
320,192,56030,1,0,0:0:0:0:
448,192,56247,1,0,0:0:0:0:
64,192,56247,1,0,0:0:0:0:
192,192,56464,1,0,0:0:0:0:
64,192,56464,1,0,0:0:0:0:
320,192,56464,1,0,0:0:0:0:
448,192,56464,1,0,0:0:0:0:
320,192,56682,1,0,0:0:0:0:
448,192,56682,1,0,0:0:0:0:
192,192,56899,1,0,0:0:0:0:
64,192,56899,1,0,0:0:0:0:
320,192,57116,1,0,0:0:0:0:
448,192,57116,1,0,0:0:0:0:
192,192,57116,1,0,0:0:0:0:
64,192,57116,1,0,0:0:0:0:
192,192,57334,1,0,0:0:0:0:
448,192,57334,1,0,0:0:0:0:
320,192,57551,1,0,0:0:0:0:
64,192,57551,1,0,0:0:0:0:
192,192,57769,1,0,0:0:0:0:
64,192,57769,1,0,0:0:0:0:
320,192,57769,1,0,0:0:0:0:
448,192,57769,1,0,0:0:0:0:
192,192,57986,1,0,0:0:0:0:
320,192,58203,1,0,0:0:0:0:
448,192,58203,1,0,0:0:0:0:
320,192,58421,1,0,0:0:0:0:
448,192,58421,1,0,0:0:0:0:
192,192,58421,1,0,0:0:0:0:
64,192,58421,1,0,0:0:0:0:
192,192,58638,1,0,0:0:0:0:
320,192,58856,1,0,0:0:0:0:
64,192,59073,1,0,0:0:0:0:
448,192,59073,1,0,0:0:0:0:
64,192,59290,1,0,0:0:0:0:
320,192,59290,1,0,0:0:0:0:
64,192,59508,1,0,0:0:0:0:
192,192,59508,1,0,0:0:0:0:
192,192,59725,1,0,0:0:0:0:
64,192,59725,1,0,0:0:0:0:
320,192,59725,1,0,0:0:0:0:
448,192,59725,1,0,0:0:0:0:
192,192,59943,1,0,0:0:0:0:
448,192,59943,1,0,0:0:0:0:
320,192,60160,1,0,0:0:0:0:
448,192,60160,1,0,0:0:0:0:
320,192,60377,1,0,0:0:0:0:
448,192,60377,1,0,0:0:0:0:
192,192,60377,1,0,0:0:0:0:
64,192,60377,1,0,0:0:0:0:
192,192,60595,1,0,0:0:0:0:
64,192,60812,1,0,0:0:0:0:
320,192,60812,1,0,0:0:0:0:
64,192,61030,1,0,0:0:0:0:
448,192,61030,1,0,0:0:0:0:
192,192,61030,1,0,0:0:0:0:
320,192,61247,1,0,0:0:0:0:
448,192,61464,1,0,0:0:0:0:
64,192,61682,1,0,0:0:0:0:
320,192,61682,1,0,0:0:0:0:
64,192,61899,1,0,0:0:0:0:
448,192,61899,1,0,0:0:0:0:
64,192,62116,1,0,0:0:0:0:
192,192,62116,1,0,0:0:0:0:
64,192,62334,1,0,0:0:0:0:
320,192,62334,1,0,0:0:0:0:
448,192,62334,1,0,0:0:0:0:
64,192,62551,1,0,0:0:0:0:
448,192,62551,1,0,0:0:0:0:
320,192,62769,1,0,0:0:0:0:
448,192,62769,1,0,0:0:0:0:
192,192,62986,1,0,0:0:0:0:
64,192,62986,1,0,0:0:0:0:
320,192,62986,1,0,0:0:0:0:
448,192,62986,1,0,0:0:0:0:
192,192,63203,1,0,0:0:0:0:
64,192,63421,1,0,0:0:0:0:
320,192,63421,1,0,0:0:0:0:
320,192,63638,1,0,0:0:0:0:
448,192,63638,1,0,0:0:0:0:
192,192,63638,1,0,0:0:0:0:
64,192,63638,1,0,0:0:0:0:
448,192,63856,1,0,0:0:0:0:
320,192,64073,1,0,0:0:0:0:
192,192,64073,1,0,0:0:0:0:
192,192,64290,1,0,0:0:0:0:
64,192,64290,1,0,0:0:0:0:
320,192,64290,1,0,0:0:0:0:
448,192,64290,1,0,0:0:0:0:
64,192,64508,1,0,0:0:0:0:
320,192,64508,1,0,0:0:0:0:
192,192,64725,1,0,0:0:0:0:
448,192,64725,1,0,0:0:0:0:
320,192,64943,1,0,0:0:0:0:
448,192,64943,1,0,0:0:0:0:
192,192,64943,1,0,0:0:0:0:
64,192,64943,1,0,0:0:0:0:
320,192,65160,1,0,0:0:0:0:
192,192,65377,1,0,0:0:0:0:
448,192,65377,1,0,0:0:0:0:
192,192,65595,1,0,0:0:0:0:
64,192,65595,1,0,0:0:0:0:
320,192,65595,1,0,0:0:0:0:
448,192,65595,1,0,0:0:0:0:
64,192,65812,1,0,0:0:0:0:
192,192,66030,1,0,0:0:0:0:
320,192,66030,1,0,0:0:0:0:
320,192,66247,1,0,0:0:0:0:
448,192,66247,1,0,0:0:0:0:
192,192,66247,1,0,0:0:0:0:
64,192,66247,1,0,0:0:0:0:
448,192,66464,1,0,0:0:0:0:
192,192,66682,1,0,0:0:0:0:
64,192,66682,1,0,0:0:0:0:
192,192,66899,1,0,0:0:0:0:
64,192,66899,1,0,0:0:0:0:
320,192,66899,1,0,0:0:0:0:
448,192,66899,1,0,0:0:0:0:
320,192,67116,1,0,0:0:0:0:
448,192,67116,1,0,0:0:0:0:
320,192,67334,1,0,0:0:0:0:
192,192,67334,1,0,0:0:0:0:
320,192,67551,1,0,0:0:0:0:
448,192,67551,1,0,0:0:0:0:
192,192,67551,1,0,0:0:0:0:
64,192,67551,1,0,0:0:0:0:
64,192,67769,1,0,0:0:0:0:
192,192,67769,1,0,0:0:0:0:
320,192,67986,1,0,0:0:0:0:
448,192,67986,1,0,0:0:0:0:
192,192,68203,1,0,0:0:0:0:
64,192,68203,1,0,0:0:0:0:
320,192,68203,1,0,0:0:0:0:
448,192,68203,1,0,0:0:0:0:
192,192,68421,1,0,0:0:0:0:
64,192,68638,1,0,0:0:0:0:
320,192,68638,1,0,0:0:0:0:
64,192,68856,1,0,0:0:0:0:
192,192,68856,1,0,0:0:0:0:
448,192,68856,1,0,0:0:0:0:
320,192,69073,1,0,0:0:0:0:
192,192,69290,1,0,0:0:0:0:
64,192,69508,1,0,0:0:0:0:
448,192,69508,1,0,0:0:0:0:
320,192,69508,1,0,0:0:0:0:
192,192,69725,1,0,0:0:0:0:
448,192,69725,1,0,0:0:0:0:
64,192,69943,1,0,0:0:0:0:
192,192,69943,1,0,0:0:0:0:
64,192,70160,1,0,0:0:0:0:
192,192,70160,1,0,0:0:0:0:
448,192,70160,1,0,0:0:0:0:
64,192,70377,1,0,0:0:0:0:
320,192,70377,1,0,0:0:0:0:
320,192,70595,1,0,0:0:0:0:
448,192,70595,1,0,0:0:0:0:
64,192,70812,1,0,0:0:0:0:
192,192,70812,1,0,0:0:0:0:
448,192,70812,1,0,0:0:0:0:
320,192,71030,1,0,0:0:0:0:
192,192,71247,1,0,0:0:0:0:
64,192,71247,1,0,0:0:0:0:
64,192,71464,1,0,0:0:0:0:
448,192,71464,1,0,0:0:0:0:
320,192,71464,1,0,0:0:0:0:
192,192,71682,1,0,0:0:0:0:
320,192,71899,1,0,0:0:0:0:
64,192,72116,1,0,0:0:0:0:
192,192,72116,1,0,0:0:0:0:
448,192,72116,1,0,0:0:0:0:
64,192,72334,5,0,0:0:0:0:
320,192,72334,1,0,0:0:0:0:
192,192,72551,1,0,0:0:0:0:
320,192,72551,1,0,0:0:0:0:
64,192,72769,1,0,0:0:0:0:
320,192,72769,1,0,0:0:0:0:
448,192,72769,1,0,0:0:0:0:
192,192,72986,1,0,0:0:0:0:
448,192,72986,1,0,0:0:0:0:
320,192,73203,1,0,0:0:0:0:
192,192,73203,1,0,0:0:0:0:
320,192,73421,5,0,0:0:0:0:
448,192,73421,1,0,0:0:0:0:
192,192,73421,1,0,0:0:0:0:
64,192,73421,1,0,0:0:0:0:
64,192,73638,1,0,0:0:0:0:
192,192,73856,1,0,0:0:0:0:
64,192,73856,1,0,0:0:0:0:
320,192,73856,1,0,0:0:0:0:
448,192,73856,1,0,0:0:0:0:
192,192,74073,1,0,0:0:0:0:
320,192,74290,1,0,0:0:0:0:
448,192,74290,1,0,0:0:0:0:
192,192,74290,1,0,0:0:0:0:
64,192,74290,1,0,0:0:0:0:
320,192,74508,1,0,0:0:0:0:
192,192,74725,1,0,0:0:0:0:
64,192,74725,1,0,0:0:0:0:
320,192,74725,1,0,0:0:0:0:
448,192,74725,1,0,0:0:0:0:
448,192,74943,1,0,0:0:0:0:
192,192,74943,1,0,0:0:0:0:
320,192,75160,1,0,0:0:0:0:
192,192,75160,1,0,0:0:0:0:
64,192,75377,1,0,0:0:0:0:
320,192,75377,1,0,0:0:0:0:
448,192,75377,1,0,0:0:0:0:
192,192,75595,1,0,0:0:0:0:
64,192,75595,1,0,0:0:0:0:
320,192,75812,1,0,0:0:0:0:
192,192,75812,1,0,0:0:0:0:
320,192,76030,1,0,0:0:0:0:
448,192,76030,1,0,0:0:0:0:
192,192,76030,1,0,0:0:0:0:
64,192,76030,1,0,0:0:0:0:
448,192,76247,1,0,0:0:0:0:
192,192,76464,1,0,0:0:0:0:
64,192,76464,1,0,0:0:0:0:
320,192,76464,1,0,0:0:0:0:
448,192,76464,1,0,0:0:0:0:
320,192,76682,1,0,0:0:0:0:
320,192,76899,1,0,0:0:0:0:
448,192,76899,1,0,0:0:0:0:
192,192,76899,1,0,0:0:0:0:
64,192,76899,1,0,0:0:0:0:
192,192,77116,1,0,0:0:0:0:
192,192,77334,1,0,0:0:0:0:
64,192,77334,1,0,0:0:0:0:
320,192,77334,1,0,0:0:0:0:
448,192,77334,1,0,0:0:0:0:
64,192,77551,1,0,0:0:0:0:
320,192,77551,1,0,0:0:0:0:
192,192,77769,1,0,0:0:0:0:
320,192,77769,1,0,0:0:0:0:
64,192,77986,1,0,0:0:0:0:
192,192,77986,1,0,0:0:0:0:
448,192,77986,1,0,0:0:0:0:
320,192,78203,1,0,0:0:0:0:
448,192,78203,1,0,0:0:0:0:
192,192,78421,1,0,0:0:0:0:
320,192,78421,1,0,0:0:0:0:
320,192,78638,1,0,0:0:0:0:
448,192,78638,1,0,0:0:0:0:
192,192,78638,1,0,0:0:0:0:
64,192,78638,1,0,0:0:0:0:
448,192,78856,1,0,0:0:0:0:
192,192,79073,1,0,0:0:0:0:
64,192,79073,1,0,0:0:0:0:
320,192,79073,1,0,0:0:0:0:
448,192,79073,1,0,0:0:0:0:
192,192,79290,1,0,0:0:0:0:
320,192,79508,1,0,0:0:0:0:
448,192,79508,1,0,0:0:0:0:
192,192,79508,1,0,0:0:0:0:
64,192,79508,1,0,0:0:0:0:
320,192,79725,1,0,0:0:0:0:
192,192,79943,1,0,0:0:0:0:
64,192,79943,1,0,0:0:0:0:
320,192,79943,1,0,0:0:0:0:
448,192,79943,1,0,0:0:0:0:
64,192,80160,1,0,0:0:0:0:
320,192,80377,1,0,0:0:0:0:
448,192,80377,1,0,0:0:0:0:
192,192,80377,1,0,0:0:0:0:
64,192,80377,1,0,0:0:0:0:
192,192,80595,1,0,0:0:0:0:
192,192,80812,1,0,0:0:0:0:
64,192,80812,1,0,0:0:0:0:
320,192,80812,1,0,0:0:0:0:
448,192,80812,1,0,0:0:0:0:
448,192,81030,1,0,0:0:0:0:
320,192,81247,1,0,0:0:0:0:
448,192,81247,1,0,0:0:0:0:
192,192,81247,1,0,0:0:0:0:
64,192,81247,1,0,0:0:0:0:
320,192,81464,1,0,0:0:0:0:
64,192,81682,1,0,0:0:0:0:
320,192,81790,1,0,0:0:0:0:
192,192,81899,1,0,0:0:0:0:
64,192,81899,1,0,0:0:0:0:
448,192,81899,1,0,0:0:0:0:
320,192,82116,1,0,0:0:0:0:
192,192,82334,1,0,0:0:0:0:
64,192,82551,1,0,0:0:0:0:
448,192,82551,1,0,0:0:0:0:
320,192,82551,1,0,0:0:0:0:
192,192,82769,1,0,0:0:0:0:
448,192,82769,1,0,0:0:0:0:
64,192,82986,1,0,0:0:0:0:
320,192,82986,1,0,0:0:0:0:
64,192,83203,1,0,0:0:0:0:
448,192,83203,1,0,0:0:0:0:
192,192,83203,1,0,0:0:0:0:
320,192,83421,1,0,0:0:0:0:
64,192,83421,1,0,0:0:0:0:
192,192,83638,1,0,0:0:0:0:
448,192,83638,1,0,0:0:0:0:
64,192,83856,1,0,0:0:0:0:
320,192,83856,1,0,0:0:0:0:
192,192,83856,1,0,0:0:0:0:
448,192,83856,1,0,0:0:0:0:
320,192,84073,1,0,0:0:0:0:
192,192,84290,1,0,0:0:0:0:
448,192,84290,1,0,0:0:0:0:
320,192,84290,1,0,0:0:0:0:
64,192,84290,1,0,0:0:0:0:
192,192,84508,1,0,0:0:0:0:
320,192,84725,1,0,0:0:0:0:
64,192,84725,1,0,0:0:0:0:
192,192,84725,1,0,0:0:0:0:
448,192,84725,1,0,0:0:0:0:
64,192,84943,1,0,0:0:0:0:
192,192,85160,1,0,0:0:0:0:
448,192,85160,1,0,0:0:0:0:
320,192,85160,1,0,0:0:0:0:
64,192,85160,1,0,0:0:0:0:
448,192,85377,1,0,0:0:0:0:
320,192,85377,1,0,0:0:0:0:
64,192,85595,1,0,0:0:0:0:
448,192,85595,1,0,0:0:0:0:
64,192,85812,1,0,0:0:0:0:
192,192,85812,1,0,0:0:0:0:
320,192,85812,1,0,0:0:0:0:
192,192,86030,1,0,0:0:0:0:
448,192,86030,1,0,0:0:0:0:
320,192,86247,1,0,0:0:0:0:
448,192,86247,1,0,0:0:0:0:
320,192,86464,1,0,0:0:0:0:
64,192,86464,1,0,0:0:0:0:
192,192,86464,1,0,0:0:0:0:
448,192,86464,1,0,0:0:0:0:
64,192,86682,1,0,0:0:0:0:
192,192,86899,1,0,0:0:0:0:
448,192,86899,1,0,0:0:0:0:
320,192,86899,1,0,0:0:0:0:
64,192,86899,1,0,0:0:0:0:
192,192,87116,1,0,0:0:0:0:
320,192,87334,1,0,0:0:0:0:
64,192,87334,1,0,0:0:0:0:
192,192,87334,1,0,0:0:0:0:
448,192,87334,1,0,0:0:0:0:
320,192,87551,1,0,0:0:0:0:
192,192,87769,1,0,0:0:0:0:
448,192,87769,1,0,0:0:0:0:
320,192,87769,1,0,0:0:0:0:
64,192,87769,1,0,0:0:0:0:
64,192,87986,1,0,0:0:0:0:
192,192,87986,1,0,0:0:0:0:
192,192,88203,1,0,0:0:0:0:
448,192,88203,1,0,0:0:0:0:
64,192,88421,1,0,0:0:0:0:
320,192,88421,1,0,0:0:0:0:
448,192,88421,1,0,0:0:0:0:
192,192,88638,1,0,0:0:0:0:
320,192,88638,1,0,0:0:0:0:
448,192,88856,1,0,0:0:0:0:
192,192,88856,1,0,0:0:0:0:
320,192,89073,1,0,0:0:0:0:
64,192,89073,1,0,0:0:0:0:
192,192,89073,1,0,0:0:0:0:
448,192,89073,1,0,0:0:0:0:
320,192,89290,1,0,0:0:0:0:
192,192,89508,1,0,0:0:0:0:
448,192,89508,1,0,0:0:0:0:
320,192,89508,1,0,0:0:0:0:
64,192,89508,1,0,0:0:0:0:
192,192,89725,1,0,0:0:0:0:
320,192,89943,1,0,0:0:0:0:
64,192,89943,1,0,0:0:0:0:
192,192,89943,1,0,0:0:0:0:
448,192,89943,1,0,0:0:0:0:
448,192,90160,1,0,0:0:0:0:
192,192,90377,1,0,0:0:0:0:
448,192,90377,1,0,0:0:0:0:
320,192,90377,1,0,0:0:0:0:
64,192,90377,1,0,0:0:0:0:
320,192,90595,1,0,0:0:0:0:
320,192,90812,1,0,0:0:0:0:
64,192,90812,1,0,0:0:0:0:
192,192,90812,1,0,0:0:0:0:
448,192,90812,1,0,0:0:0:0:
64,192,91030,1,0,0:0:0:0:
320,192,91247,1,0,0:0:0:0:
64,192,91247,1,0,0:0:0:0:
192,192,91247,1,0,0:0:0:0:
448,192,91247,1,0,0:0:0:0:
192,192,91464,1,0,0:0:0:0:
192,192,91682,1,0,0:0:0:0:
448,192,91682,1,0,0:0:0:0:
320,192,91682,1,0,0:0:0:0:
64,192,91682,1,0,0:0:0:0:
448,192,91899,1,0,0:0:0:0:
320,192,92116,1,0,0:0:0:0:
64,192,92116,1,0,0:0:0:0:
64,192,92334,1,0,0:0:0:0:
192,192,92334,1,0,0:0:0:0:
448,192,92334,1,0,0:0:0:0:
320,192,92551,1,0,0:0:0:0:
448,192,92551,1,0,0:0:0:0:
64,192,92769,1,0,0:0:0:0:
320,192,92769,1,0,0:0:0:0:
64,192,92986,1,0,0:0:0:0:
192,192,92986,1,0,0:0:0:0:
448,192,92986,1,0,0:0:0:0:
64,192,93203,1,0,0:0:0:0:
320,192,93203,1,0,0:0:0:0:
64,192,93421,1,0,0:0:0:0:
192,192,93421,1,0,0:0:0:0:
64,192,93638,1,0,0:0:0:0:
320,192,93638,1,0,0:0:0:0:
448,192,93638,1,0,0:0:0:0:
192,192,93856,1,0,0:0:0:0:
448,192,93856,1,0,0:0:0:0:
320,192,94073,1,0,0:0:0:0:
448,192,94073,1,0,0:0:0:0:
192,192,94290,5,0,0:0:0:0:
320,192,94290,1,0,0:0:0:0:
64,192,94290,1,0,0:0:0:0:
448,192,94290,1,0,0:0:0:0:
64,192,94508,1,0,0:0:0:0:
320,192,94725,1,0,0:0:0:0:
448,192,94725,1,0,0:0:0:0:
192,192,94725,1,0,0:0:0:0:
64,192,94725,1,0,0:0:0:0:
320,192,94943,1,0,0:0:0:0:
192,192,95160,1,0,0:0:0:0:
64,192,95160,1,0,0:0:0:0:
320,192,95160,1,0,0:0:0:0:
448,192,95160,1,0,0:0:0:0:
192,192,95377,1,0,0:0:0:0:
320,192,95595,1,0,0:0:0:0:
448,192,95595,1,0,0:0:0:0:
192,192,95595,1,0,0:0:0:0:
64,192,95595,1,0,0:0:0:0:
64,192,95812,1,0,0:0:0:0:
320,192,95812,1,0,0:0:0:0:
192,192,96030,1,0,0:0:0:0:
320,192,96030,1,0,0:0:0:0:
448,192,96247,1,0,0:0:0:0:
192,192,96247,1,0,0:0:0:0:
64,192,96247,1,0,0:0:0:0:
320,192,96464,1,0,0:0:0:0:
448,192,96464,1,0,0:0:0:0:
192,192,96682,1,0,0:0:0:0:
320,192,96682,1,0,0:0:0:0:
192,192,96899,1,0,0:0:0:0:
64,192,96899,1,0,0:0:0:0:
320,192,96899,1,0,0:0:0:0:
448,192,96899,1,0,0:0:0:0:
64,192,97116,1,0,0:0:0:0:
320,192,97334,1,0,0:0:0:0:
448,192,97334,1,0,0:0:0:0:
192,192,97334,1,0,0:0:0:0:
64,192,97334,1,0,0:0:0:0:
192,192,97551,1,0,0:0:0:0:
192,192,97769,1,0,0:0:0:0:
64,192,97769,1,0,0:0:0:0:
320,192,97769,1,0,0:0:0:0:
448,192,97769,1,0,0:0:0:0:
320,192,97986,1,0,0:0:0:0:
320,192,98203,1,0,0:0:0:0:
448,192,98203,1,0,0:0:0:0:
192,192,98203,1,0,0:0:0:0:
64,192,98203,1,0,0:0:0:0:
448,192,98421,1,0,0:0:0:0:
64,192,98421,1,0,0:0:0:0:
320,192,98638,1,0,0:0:0:0:
192,192,98638,1,0,0:0:0:0:
448,192,98856,1,0,0:0:0:0:
320,192,98856,1,0,0:0:0:0:
64,192,98856,1,0,0:0:0:0:
192,192,99073,1,0,0:0:0:0:
64,192,99073,1,0,0:0:0:0:
320,192,99290,1,0,0:0:0:0:
192,192,99290,1,0,0:0:0:0:
192,192,99508,1,0,0:0:0:0:
64,192,99508,1,0,0:0:0:0:
320,192,99508,1,0,0:0:0:0:
448,192,99508,1,0,0:0:0:0:
64,192,99725,1,0,0:0:0:0:
320,192,99943,1,0,0:0:0:0:
448,192,99943,1,0,0:0:0:0:
192,192,99943,1,0,0:0:0:0:
64,192,99943,1,0,0:0:0:0:
320,192,100160,1,0,0:0:0:0:
192,192,100377,1,0,0:0:0:0:
64,192,100377,1,0,0:0:0:0:
320,192,100377,1,0,0:0:0:0:
448,192,100377,1,0,0:0:0:0:
192,192,100595,1,0,0:0:0:0:
320,192,100812,1,0,0:0:0:0:
448,192,100812,1,0,0:0:0:0:
192,192,100812,1,0,0:0:0:0:
64,192,100812,1,0,0:0:0:0:
448,192,101030,1,0,0:0:0:0:
192,192,101247,1,0,0:0:0:0:
64,192,101247,1,0,0:0:0:0:
320,192,101247,1,0,0:0:0:0:
448,192,101247,1,0,0:0:0:0:
320,192,101464,1,0,0:0:0:0:
320,192,101682,1,0,0:0:0:0:
448,192,101682,1,0,0:0:0:0:
192,192,101682,1,0,0:0:0:0:
64,192,101682,1,0,0:0:0:0:
64,192,101899,1,0,0:0:0:0:
192,192,102116,1,0,0:0:0:0:
64,192,102116,1,0,0:0:0:0:
320,192,102116,1,0,0:0:0:0:
448,192,102116,1,0,0:0:0:0:
192,192,102334,1,0,0:0:0:0:
448,192,102551,1,0,0:0:0:0:
192,192,102660,1,0,0:0:0:0:
320,192,102769,1,0,0:0:0:0:
448,192,102769,1,0,0:0:0:0:
64,192,102769,1,0,0:0:0:0:
192,192,102986,1,0,0:0:0:0:
320,192,103203,1,0,0:0:0:0:
448,192,103421,1,0,0:0:0:0:
64,192,103421,1,0,0:0:0:0:
192,192,103421,1,0,0:0:0:0:
320,192,103638,1,0,0:0:0:0:
64,192,103638,1,0,0:0:0:0:
448,192,103856,1,0,0:0:0:0:
192,192,103856,1,0,0:0:0:0:
448,192,104073,1,0,0:0:0:0:
64,192,104073,1,0,0:0:0:0:
320,192,104073,1,0,0:0:0:0:
192,192,104290,1,0,0:0:0:0:
448,192,104290,1,0,0:0:0:0:
320,192,104508,1,0,0:0:0:0:
64,192,104508,1,0,0:0:0:0:
448,192,104725,1,0,0:0:0:0:
192,192,104725,1,0,0:0:0:0:
320,192,104725,1,0,0:0:0:0:
64,192,104725,1,0,0:0:0:0:
192,192,104943,1,0,0:0:0:0:
320,192,105160,1,0,0:0:0:0:
64,192,105160,1,0,0:0:0:0:
192,192,105160,1,0,0:0:0:0:
448,192,105160,1,0,0:0:0:0:
320,192,105377,1,0,0:0:0:0:
192,192,105595,1,0,0:0:0:0:
448,192,105595,1,0,0:0:0:0:
320,192,105595,1,0,0:0:0:0:
64,192,105595,1,0,0:0:0:0:
448,192,105812,1,0,0:0:0:0:
320,192,106030,1,0,0:0:0:0:
64,192,106030,1,0,0:0:0:0:
192,192,106030,1,0,0:0:0:0:
448,192,106030,1,0,0:0:0:0:
64,192,106247,1,0,0:0:0:0:
192,192,106247,1,0,0:0:0:0:
448,192,106464,1,0,0:0:0:0:
64,192,106464,1,0,0:0:0:0:
448,192,106682,1,0,0:0:0:0:
320,192,106682,1,0,0:0:0:0:
192,192,106682,1,0,0:0:0:0:
320,192,106899,1,0,0:0:0:0:
64,192,106899,1,0,0:0:0:0:
192,192,107116,1,0,0:0:0:0:
64,192,107116,1,0,0:0:0:0:
192,192,107334,1,0,0:0:0:0:
448,192,107334,1,0,0:0:0:0:
320,192,107334,1,0,0:0:0:0:
64,192,107334,1,0,0:0:0:0:
448,192,107551,1,0,0:0:0:0:
320,192,107769,1,0,0:0:0:0:
64,192,107769,1,0,0:0:0:0:
192,192,107769,1,0,0:0:0:0:
448,192,107769,1,0,0:0:0:0:
320,192,107986,1,0,0:0:0:0:
192,192,108203,1,0,0:0:0:0:
448,192,108203,1,0,0:0:0:0:
320,192,108203,1,0,0:0:0:0:
64,192,108203,1,0,0:0:0:0:
192,192,108421,1,0,0:0:0:0:
320,192,108638,1,0,0:0:0:0:
64,192,108638,1,0,0:0:0:0:
192,192,108638,1,0,0:0:0:0:
448,192,108638,1,0,0:0:0:0:
448,192,108856,1,0,0:0:0:0:
320,192,108856,1,0,0:0:0:0:
320,192,109073,1,0,0:0:0:0:
64,192,109073,1,0,0:0:0:0:
448,192,109290,1,0,0:0:0:0:
192,192,109290,1,0,0:0:0:0:
64,192,109290,1,0,0:0:0:0:
320,192,109508,1,0,0:0:0:0:
192,192,109508,1,0,0:0:0:0:
64,192,109725,1,0,0:0:0:0:
320,192,109725,1,0,0:0:0:0:
192,192,109943,1,0,0:0:0:0:
448,192,109943,1,0,0:0:0:0:
320,192,109943,1,0,0:0:0:0:
64,192,109943,1,0,0:0:0:0:
192,192,110160,1,0,0:0:0:0:
320,192,110377,1,0,0:0:0:0:
64,192,110377,1,0,0:0:0:0:
192,192,110377,1,0,0:0:0:0:
448,192,110377,1,0,0:0:0:0:
320,192,110595,1,0,0:0:0:0:
192,192,110812,1,0,0:0:0:0:
448,192,110812,1,0,0:0:0:0:
320,192,110812,1,0,0:0:0:0:
64,192,110812,1,0,0:0:0:0:
64,192,111030,1,0,0:0:0:0:
320,192,111247,1,0,0:0:0:0:
64,192,111247,1,0,0:0:0:0:
192,192,111247,1,0,0:0:0:0:
448,192,111247,1,0,0:0:0:0:
192,192,111464,1,0,0:0:0:0:
192,192,111682,1,0,0:0:0:0:
448,192,111682,1,0,0:0:0:0:
320,192,111682,1,0,0:0:0:0:
64,192,111682,1,0,0:0:0:0:
448,192,111899,1,0,0:0:0:0:
192,192,112116,1,0,0:0:0:0:
448,192,112116,1,0,0:0:0:0:
320,192,112116,1,0,0:0:0:0:
64,192,112116,1,0,0:0:0:0:
320,192,112334,1,0,0:0:0:0:
320,192,112551,1,0,0:0:0:0:
64,192,112551,1,0,0:0:0:0:
192,192,112551,1,0,0:0:0:0:
448,192,112551,1,0,0:0:0:0:
64,192,112769,1,0,0:0:0:0:
192,192,112986,1,0,0:0:0:0:
448,192,112986,1,0,0:0:0:0:
448,192,113203,1,0,0:0:0:0:
320,192,113203,1,0,0:0:0:0:
64,192,113203,1,0,0:0:0:0:
192,192,113421,1,0,0:0:0:0:
64,192,113421,1,0,0:0:0:0:
448,192,113638,1,0,0:0:0:0:
192,192,113638,1,0,0:0:0:0:
448,192,113856,1,0,0:0:0:0:
320,192,113856,1,0,0:0:0:0:
64,192,113856,1,0,0:0:0:0:
448,192,114073,1,0,0:0:0:0:
192,192,114073,1,0,0:0:0:0:
448,192,114290,1,0,0:0:0:0:
320,192,114290,1,0,0:0:0:0:
448,192,114508,1,0,0:0:0:0:
192,192,114508,1,0,0:0:0:0:
64,192,114508,1,0,0:0:0:0:
320,192,114725,1,0,0:0:0:0:
64,192,114725,1,0,0:0:0:0:
192,192,114943,1,0,0:0:0:0:
320,192,114943,1,0,0:0:0:0:
64,192,115160,1,0,0:0:0:0:
192,192,115160,1,0,0:0:0:0:
320,192,115160,1,0,0:0:0:0:
448,192,115160,1,0,0:0:0:0:
