osu file format v14

[General]
AudioFilename: Pascal180.mp3
AudioLeadIn: 0
PreviewTime: 250
Countdown: 0
SampleSet: None
StackLeniency: 0.7
Mode: 3
LetterboxInBreaks: 0
SpecialStyle: 0
WidescreenStoryboard: 0

[Editor]
DistanceSpacing: 0.8
BeatDivisor: 3
GridSize: 16
TimelineZoom: 1

[Metadata]
Title:Pascal
TitleUnicode:Pascal
Artist:Keiichi Okabe
ArtistUnicode:Keiichi Okabe
Creator:ATing
Version:Kal dis is mal [1.8x Rate]
Source:NieR: Automata
Tags:
BeatmapID:2046175
BeatmapSetID:977654

[Difficulty]
HPDrainRate:8
CircleSize:4
OverallDifficulty:8
ApproachRate:5
SliderMultiplier:1.4
SliderTickRate:1

[Events]
//Background and Video events
0,0,"nier.jpg",0,0
//Break Periods
//Storyboard Layer 0 (Background)
//Storyboard Layer 1 (Fail)
//Storyboard Layer 2 (Pass)
//Storyboard Layer 3 (Foreground)
//Storyboard Sound Samples

[TimingPoints]
250,362.31884057971,4,1,0,15,1,0

[HitObjects]
64,192,249,5,0,0:0:0:0:
448,192,249,1,0,0:0:0:0:
192,192,371,1,0,0:0:0:0:
320,192,491,1,0,0:0:0:0:
448,192,612,1,0,0:0:0:0:
192,192,612,1,0,0:0:0:0:
320,192,733,1,0,0:0:0:0:
448,192,853,1,0,0:0:0:0:
64,192,974,1,0,0:0:0:0:
192,192,974,1,0,0:0:0:0:
448,192,1095,1,0,0:0:0:0:
64,192,1216,1,0,0:0:0:0:
320,192,1216,1,0,0:0:0:0:
64,192,1337,1,0,0:0:0:0:
192,192,1337,1,0,0:0:0:0:
448,192,1457,1,0,0:0:0:0:
192,192,1578,1,0,0:0:0:0:
448,192,1699,1,0,0:0:0:0:
64,192,1699,1,0,0:0:0:0:
320,192,1819,1,0,0:0:0:0:
192,192,1941,1,0,0:0:0:0:
64,192,2061,1,0,0:0:0:0:
320,192,2061,1,0,0:0:0:0:
192,192,2182,1,0,0:0:0:0:
64,192,2303,1,0,0:0:0:0:
448,192,2423,1,0,0:0:0:0:
320,192,2423,1,0,0:0:0:0:
64,192,2544,1,0,0:0:0:0:
448,192,2544,1,0,0:0:0:0:
448,192,2665,1,0,0:0:0:0:
192,192,2665,1,0,0:0:0:0:
448,192,2786,1,0,0:0:0:0:
320,192,2786,1,0,0:0:0:0:
64,192,2907,1,0,0:0:0:0:
320,192,3027,1,0,0:0:0:0:
64,192,3148,1,0,0:0:0:0:
192,192,3148,1,0,0:0:0:0:
320,192,3269,1,0,0:0:0:0:
448,192,3390,1,0,0:0:0:0:
192,192,3390,1,0,0:0:0:0:
64,192,3511,1,0,0:0:0:0:
448,192,3511,1,0,0:0:0:0:
320,192,3631,1,0,0:0:0:0:
192,192,3752,1,0,0:0:0:0:
320,192,3873,1,0,0:0:0:0:
448,192,3873,1,0,0:0:0:0:
64,192,3993,1,0,0:0:0:0:
192,192,4114,1,0,0:0:0:0:
448,192,4114,1,0,0:0:0:0:
448,192,4235,1,0,0:0:0:0:
64,192,4235,1,0,0:0:0:0:
320,192,4356,1,0,0:0:0:0:
192,192,4477,1,0,0:0:0:0:
448,192,4597,1,0,0:0:0:0:
320,192,4597,1,0,0:0:0:0:
192,192,4718,1,0,0:0:0:0:
320,192,4839,1,0,0:0:0:0:
64,192,4960,1,0,0:0:0:0:
448,192,4960,1,0,0:0:0:0:
192,192,5081,1,0,0:0:0:0:
320,192,5201,1,0,0:0:0:0:
64,192,5322,1,0,0:0:0:0:
192,192,5322,1,0,0:0:0:0:
448,192,5443,1,0,0:0:0:0:
64,192,5443,1,0,0:0:0:0:
64,192,5564,1,0,0:0:0:0:
320,192,5564,1,0,0:0:0:0:
448,192,5684,1,0,0:0:0:0:
64,192,5684,1,0,0:0:0:0:
192,192,5805,1,0,0:0:0:0:
320,192,5926,1,0,0:0:0:0:
192,192,6047,1,0,0:0:0:0:
64,192,6047,1,0,0:0:0:0:
448,192,6047,1,0,0:0:0:0:
192,192,6168,1,0,0:0:0:0:
320,192,6288,1,0,0:0:0:0:
64,192,6288,1,0,0:0:0:0:
64,192,6409,1,0,0:0:0:0:
448,192,6409,1,0,0:0:0:0:
192,192,6530,1,0,0:0:0:0:
320,192,6651,1,0,0:0:0:0:
64,192,6771,1,0,0:0:0:0:
448,192,6771,1,0,0:0:0:0:
64,192,6892,1,0,0:0:0:0:
320,192,6892,1,0,0:0:0:0:
64,192,7013,1,0,0:0:0:0:
192,192,7013,1,0,0:0:0:0:
448,192,7134,1,0,0:0:0:0:
64,192,7134,1,0,0:0:0:0:
320,192,7254,1,0,0:0:0:0:
192,192,7375,1,0,0:0:0:0:
64,192,7496,1,0,0:0:0:0:
320,192,7496,1,0,0:0:0:0:
320,192,7617,1,0,0:0:0:0:
192,192,7738,1,0,0:0:0:0:
448,192,7738,1,0,0:0:0:0:
64,192,7858,1,0,0:0:0:0:
448,192,7858,1,0,0:0:0:0:
320,192,7979,1,0,0:0:0:0:
192,192,8100,1,0,0:0:0:0:
64,192,8221,1,0,0:0:0:0:
448,192,8221,1,0,0:0:0:0:
192,192,8342,1,0,0:0:0:0:
448,192,8342,1,0,0:0:0:0:
320,192,8462,1,0,0:0:0:0:
448,192,8462,1,0,0:0:0:0:
64,192,8583,1,0,0:0:0:0:
448,192,8583,1,0,0:0:0:0:
192,192,8704,1,0,0:0:0:0:
448,192,8704,1,0,0:0:0:0:
64,192,8824,1,0,0:0:0:0:
448,192,8824,1,0,0:0:0:0:
64,192,8946,1,0,0:0:0:0:
192,192,8946,1,0,0:0:0:0:
448,192,8946,1,0,0:0:0:0:
192,192,9066,1,0,0:0:0:0:
320,192,9187,1,0,0:0:0:0:
448,192,9187,1,0,0:0:0:0:
64,192,9308,1,0,0:0:0:0:
448,192,9308,1,0,0:0:0:0:
192,192,9428,1,0,0:0:0:0:
320,192,9549,1,0,0:0:0:0:
192,192,9670,1,0,0:0:0:0:
64,192,9670,1,0,0:0:0:0:
64,192,9791,1,0,0:0:0:0:
448,192,9791,1,0,0:0:0:0:
64,192,9912,1,0,0:0:0:0:
320,192,9912,1,0,0:0:0:0:
64,192,10032,1,0,0:0:0:0:
192,192,10032,1,0,0:0:0:0:
448,192,10032,1,0,0:0:0:0:
320,192,10153,1,0,0:0:0:0:
192,192,10274,1,0,0:0:0:0:
64,192,10394,1,0,0:0:0:0:
320,192,10394,1,0,0:0:0:0:
320,192,10516,1,0,0:0:0:0:
64,192,10636,1,0,0:0:0:0:
192,192,10636,1,0,0:0:0:0:
64,192,10757,1,0,0:0:0:0:
448,192,10757,1,0,0:0:0:0:
320,192,10878,1,0,0:0:0:0:
192,192,10998,1,0,0:0:0:0:
320,192,11119,1,0,0:0:0:0:
448,192,11119,1,0,0:0:0:0:
64,192,11240,1,0,0:0:0:0:
448,192,11240,1,0,0:0:0:0:
320,192,11361,1,0,0:0:0:0:
448,192,11361,1,0,0:0:0:0:
64,192,11482,1,0,0:0:0:0:
448,192,11482,1,0,0:0:0:0:
192,192,11482,1,0,0:0:0:0:
320,192,11602,1,0,0:0:0:0:
192,192,11723,1,0,0:0:0:0:
64,192,11844,1,0,0:0:0:0:
192,192,11844,1,0,0:0:0:0:
320,192,11844,1,0,0:0:0:0:
448,192,11844,1,0,0:0:0:0:
320,192,11964,1,0,0:0:0:0:
192,192,12086,1,0,0:0:0:0:
64,192,12086,1,0,0:0:0:0:
64,192,12206,1,0,0:0:0:0:
192,192,12206,1,0,0:0:0:0:
320,192,12206,1,0,0:0:0:0:
448,192,12206,1,0,0:0:0:0:
320,192,12327,1,0,0:0:0:0:
192,192,12448,1,0,0:0:0:0:
64,192,12568,1,0,0:0:0:0:
192,192,12568,1,0,0:0:0:0:
320,192,12568,1,0,0:0:0:0:
448,192,12568,1,0,0:0:0:0:
448,192,12689,1,0,0:0:0:0:
64,192,12689,1,0,0:0:0:0:
448,192,12810,1,0,0:0:0:0:
192,192,12810,1,0,0:0:0:0:
448,192,12931,1,0,0:0:0:0:
64,192,12931,1,0,0:0:0:0:
320,192,12931,1,0,0:0:0:0:
320,192,13052,1,0,0:0:0:0:
64,192,13172,1,0,0:0:0:0:
64,192,13293,1,0,0:0:0:0:
192,192,13293,1,0,0:0:0:0:
448,192,13293,1,0,0:0:0:0:
320,192,13293,1,0,0:0:0:0:
192,192,13414,1,0,0:0:0:0:
320,192,13534,1,0,0:0:0:0:
448,192,13534,1,0,0:0:0:0:
448,192,13656,1,0,0:0:0:0:
320,192,13656,1,0,0:0:0:0:
192,192,13656,1,0,0:0:0:0:
64,192,13656,1,0,0:0:0:0:
192,192,13776,1,0,0:0:0:0:
320,192,13897,1,0,0:0:0:0:
448,192,14018,1,0,0:0:0:0:
320,192,14018,1,0,0:0:0:0:
192,192,14018,1,0,0:0:0:0:
64,192,14018,1,0,0:0:0:0:
64,192,14138,1,0,0:0:0:0:
448,192,14138,1,0,0:0:0:0:
64,192,14259,1,0,0:0:0:0:
320,192,14259,1,0,0:0:0:0:
64,192,14380,1,0,0:0:0:0:
448,192,14380,1,0,0:0:0:0:
192,192,14380,1,0,0:0:0:0:
192,192,14501,1,0,0:0:0:0:
448,192,14622,1,0,0:0:0:0:
448,192,14742,1,0,0:0:0:0:
320,192,14742,1,0,0:0:0:0:
64,192,14742,1,0,0:0:0:0:
192,192,14742,1,0,0:0:0:0:
64,192,14863,1,0,0:0:0:0:
448,192,14984,1,0,0:0:0:0:
320,192,14984,1,0,0:0:0:0:
320,192,15104,1,0,0:0:0:0:
448,192,15104,1,0,0:0:0:0:
64,192,15104,1,0,0:0:0:0:
192,192,15104,1,0,0:0:0:0:
192,192,15226,1,0,0:0:0:0:
448,192,15346,1,0,0:0:0:0:
64,192,15467,1,0,0:0:0:0:
192,192,15467,1,0,0:0:0:0:
320,192,15467,1,0,0:0:0:0:
448,192,15467,1,0,0:0:0:0:
64,192,15588,1,0,0:0:0:0:
320,192,15588,1,0,0:0:0:0:
64,192,15708,1,0,0:0:0:0:
192,192,15708,1,0,0:0:0:0:
64,192,15829,1,0,0:0:0:0:
320,192,15829,1,0,0:0:0:0:
448,192,15829,1,0,0:0:0:0:
192,192,15950,1,0,0:0:0:0:
320,192,16071,1,0,0:0:0:0:
64,192,16192,1,0,0:0:0:0:
192,192,16192,1,0,0:0:0:0:
320,192,16192,1,0,0:0:0:0:
448,192,16192,1,0,0:0:0:0:
448,192,16312,1,0,0:0:0:0:
192,192,16433,1,0,0:0:0:0:
64,192,16433,1,0,0:0:0:0:
192,192,16554,1,0,0:0:0:0:
64,192,16554,1,0,0:0:0:0:
448,192,16554,1,0,0:0:0:0:
320,192,16554,1,0,0:0:0:0:
320,192,16675,1,0,0:0:0:0:
64,192,16796,1,0,0:0:0:0:
448,192,16916,1,0,0:0:0:0:
320,192,16916,1,0,0:0:0:0:
192,192,16916,1,0,0:0:0:0:
64,192,16916,1,0,0:0:0:0:
448,192,17037,1,0,0:0:0:0:
192,192,17037,1,0,0:0:0:0:
448,192,17158,1,0,0:0:0:0:
320,192,17158,1,0,0:0:0:0:
448,192,17279,1,0,0:0:0:0:
192,192,17279,1,0,0:0:0:0:
64,192,17279,1,0,0:0:0:0:
320,192,17399,1,0,0:0:0:0:
64,192,17399,1,0,0:0:0:0:
64,192,17520,1,0,0:0:0:0:
448,192,17520,1,0,0:0:0:0:
64,192,17641,1,0,0:0:0:0:
192,192,17641,1,0,0:0:0:0:
320,192,17641,1,0,0:0:0:0:
448,192,17641,1,0,0:0:0:0:
320,192,17762,1,0,0:0:0:0:
64,192,17882,1,0,0:0:0:0:
448,192,17882,1,0,0:0:0:0:
64,192,18003,1,0,0:0:0:0:
192,192,18003,1,0,0:0:0:0:
320,192,18003,1,0,0:0:0:0:
448,192,18003,1,0,0:0:0:0:
192,192,18124,1,0,0:0:0:0:
320,192,18245,1,0,0:0:0:0:
64,192,18366,1,0,0:0:0:0:
192,192,18366,1,0,0:0:0:0:
448,192,18366,1,0,0:0:0:0:
320,192,18366,1,0,0:0:0:0:
64,192,18486,1,0,0:0:0:0:
192,192,18486,1,0,0:0:0:0:
64,192,18607,1,0,0:0:0:0:
448,192,18607,1,0,0:0:0:0:
64,192,18728,1,0,0:0:0:0:
192,192,18728,1,0,0:0:0:0:
320,192,18728,1,0,0:0:0:0:
448,192,18728,1,0,0:0:0:0:
320,192,18849,1,0,0:0:0:0:
64,192,18969,1,0,0:0:0:0:
64,192,19090,1,0,0:0:0:0:
192,192,19090,1,0,0:0:0:0:
448,192,19090,1,0,0:0:0:0:
320,192,19090,1,0,0:0:0:0:
192,192,19211,1,0,0:0:0:0:
64,192,19332,1,0,0:0:0:0:
448,192,19332,1,0,0:0:0:0:
64,192,19453,1,0,0:0:0:0:
192,192,19453,1,0,0:0:0:0:
448,192,19453,1,0,0:0:0:0:
320,192,19453,1,0,0:0:0:0:
320,192,19573,1,0,0:0:0:0:
192,192,19694,1,0,0:0:0:0:
64,192,19815,1,0,0:0:0:0:
192,192,19815,1,0,0:0:0:0:
320,192,19815,1,0,0:0:0:0:
448,192,19815,1,0,0:0:0:0:
448,192,19936,1,0,0:0:0:0:
64,192,19936,1,0,0:0:0:0:
192,192,20057,1,0,0:0:0:0:
448,192,20057,1,0,0:0:0:0:
64,192,20177,1,0,0:0:0:0:
448,192,20177,1,0,0:0:0:0:
320,192,20177,1,0,0:0:0:0:
64,192,20298,1,0,0:0:0:0:
192,192,20298,1,0,0:0:0:0:
192,192,20419,1,0,0:0:0:0:
448,192,20419,1,0,0:0:0:0:
64,192,20539,1,0,0:0:0:0:
192,192,20539,1,0,0:0:0:0:
320,192,20539,1,0,0:0:0:0:
448,192,20539,1,0,0:0:0:0:
64,192,20660,1,0,0:0:0:0:
192,192,20781,1,0,0:0:0:0:
448,192,20781,1,0,0:0:0:0:
64,192,20902,1,0,0:0:0:0:
192,192,20902,1,0,0:0:0:0:
320,192,20902,1,0,0:0:0:0:
448,192,20902,1,0,0:0:0:0:
320,192,21023,1,0,0:0:0:0:
192,192,21143,1,0,0:0:0:0:
64,192,21264,1,0,0:0:0:0:
448,192,21264,1,0,0:0:0:0:
192,192,21264,1,0,0:0:0:0:
64,192,21385,1,0,0:0:0:0:
448,192,21385,1,0,0:0:0:0:
64,192,21506,1,0,0:0:0:0:
320,192,21506,1,0,0:0:0:0:
64,192,21627,1,0,0:0:0:0:
192,192,21627,1,0,0:0:0:0:
320,192,21627,1,0,0:0:0:0:
448,192,21627,1,0,0:0:0:0:
192,192,21747,1,0,0:0:0:0:
320,192,21868,1,0,0:0:0:0:
64,192,21989,1,0,0:0:0:0:
192,192,21989,1,0,0:0:0:0:
320,192,21989,1,0,0:0:0:0:
448,192,21989,1,0,0:0:0:0:
448,192,22109,1,0,0:0:0:0:
64,192,22231,1,0,0:0:0:0:
320,192,22231,1,0,0:0:0:0:
64,192,22351,1,0,0:0:0:0:
192,192,22351,1,0,0:0:0:0:
448,192,22351,1,0,0:0:0:0:
320,192,22472,1,0,0:0:0:0:
192,192,22593,1,0,0:0:0:0:
64,192,22713,1,0,0:0:0:0:
448,192,22713,1,0,0:0:0:0:
192,192,22834,1,0,0:0:0:0:
448,192,22834,1,0,0:0:0:0:
64,192,22955,1,0,0:0:0:0:
448,192,22955,1,0,0:0:0:0:
64,192,23076,1,0,0:0:0:0:
192,192,23076,1,0,0:0:0:0:
448,192,23076,1,0,0:0:0:0:
64,192,23197,1,0,0:0:0:0:
320,192,23197,1,0,0:0:0:0:
64,192,23317,1,0,0:0:0:0:
448,192,23317,1,0,0:0:0:0:
64,192,23438,1,0,0:0:0:0:
192,192,23438,1,0,0:0:0:0:
448,192,23438,1,0,0:0:0:0:
320,192,23438,1,0,0:0:0:0:
192,192,23559,1,0,0:0:0:0:
320,192,23679,1,0,0:0:0:0:
448,192,23679,1,0,0:0:0:0:
64,192,23801,1,0,0:0:0:0:
192,192,23801,1,0,0:0:0:0:
448,192,23801,1,0,0:0:0:0:
320,192,23801,1,0,0:0:0:0:
192,192,23921,1,0,0:0:0:0:
64,192,24042,1,0,0:0:0:0:
64,192,24163,1,0,0:0:0:0:
192,192,24163,1,0,0:0:0:0:
448,192,24163,1,0,0:0:0:0:
320,192,24163,1,0,0:0:0:0:
320,192,24283,1,0,0:0:0:0:
448,192,24283,1,0,0:0:0:0:
192,192,24404,1,0,0:0:0:0:
64,192,24404,1,0,0:0:0:0:
64,192,24525,1,0,0:0:0:0:
192,192,24525,1,0,0:0:0:0:
320,192,24525,1,0,0:0:0:0:
448,192,24525,1,0,0:0:0:0:
320,192,24646,1,0,0:0:0:0:
192,192,24767,1,0,0:0:0:0:
64,192,24887,1,0,0:0:0:0:
192,192,24887,1,0,0:0:0:0:
448,192,24887,1,0,0:0:0:0:
320,192,24887,1,0,0:0:0:0:
448,192,25008,1,0,0:0:0:0:
64,192,25129,1,0,0:0:0:0:
192,192,25129,1,0,0:0:0:0:
64,192,25249,1,0,0:0:0:0:
192,192,25249,1,0,0:0:0:0:
320,192,25249,1,0,0:0:0:0:
448,192,25249,1,0,0:0:0:0:
320,192,25371,1,0,0:0:0:0:
448,192,25491,1,0,0:0:0:0:
64,192,25612,1,0,0:0:0:0:
192,192,25612,1,0,0:0:0:0:
320,192,25612,1,0,0:0:0:0:
448,192,25612,1,0,0:0:0:0:
192,192,25733,1,0,0:0:0:0:
64,192,25733,1,0,0:0:0:0:
64,192,25853,1,0,0:0:0:0:
320,192,25853,1,0,0:0:0:0:
64,192,25974,1,0,0:0:0:0:
448,192,25974,1,0,0:0:0:0:
320,192,25974,1,0,0:0:0:0:
448,192,26095,1,0,0:0:0:0:
320,192,26095,1,0,0:0:0:0:
448,192,26216,1,0,0:0:0:0:
192,192,26216,1,0,0:0:0:0:
64,192,26337,1,0,0:0:0:0:
192,192,26337,1,0,0:0:0:0:
320,192,26337,1,0,0:0:0:0:
448,192,26337,1,0,0:0:0:0:
320,192,26457,1,0,0:0:0:0:
192,192,26578,1,0,0:0:0:0:
64,192,26578,1,0,0:0:0:0:
320,192,26699,1,0,0:0:0:0:
448,192,26699,1,0,0:0:0:0:
192,192,26699,1,0,0:0:0:0:
64,192,26699,1,0,0:0:0:0:
448,192,26819,1,0,0:0:0:0:
320,192,26941,1,0,0:0:0:0:
64,192,27061,1,0,0:0:0:0:
192,192,27061,1,0,0:0:0:0:
448,192,27061,1,0,0:0:0:0:
64,192,27182,1,0,0:0:0:0:
320,192,27182,1,0,0:0:0:0:
64,192,27303,1,0,0:0:0:0:
192,192,27303,1,0,0:0:0:0:
192,192,27423,1,0,0:0:0:0:
64,192,27423,1,0,0:0:0:0:
320,192,27423,1,0,0:0:0:0:
448,192,27423,1,0,0:0:0:0:
320,192,27544,1,0,0:0:0:0:
192,192,27665,1,0,0:0:0:0:
320,192,27786,1,0,0:0:0:0:
448,192,27786,1,0,0:0:0:0:
192,192,27786,1,0,0:0:0:0:
64,192,27786,1,0,0:0:0:0:
448,192,27907,1,0,0:0:0:0:
320,192,28027,1,0,0:0:0:0:
64,192,28027,1,0,0:0:0:0:
64,192,28148,1,0,0:0:0:0:
192,192,28148,1,0,0:0:0:0:
448,192,28148,1,0,0:0:0:0:
320,192,28269,1,0,0:0:0:0:
192,192,28390,1,0,0:0:0:0:
64,192,28511,1,0,0:0:0:0:
448,192,28511,1,0,0:0:0:0:
448,192,28631,1,0,0:0:0:0:
192,192,28631,1,0,0:0:0:0:
320,192,28752,1,0,0:0:0:0:
448,192,28752,1,0,0:0:0:0:
64,192,28873,1,0,0:0:0:0:
192,192,28873,1,0,0:0:0:0:
448,192,28873,1,0,0:0:0:0:
64,192,28993,1,0,0:0:0:0:
320,192,28993,1,0,0:0:0:0:
64,192,29114,1,0,0:0:0:0:
192,192,29114,1,0,0:0:0:0:
192,192,29235,1,0,0:0:0:0:
64,192,29235,1,0,0:0:0:0:
320,192,29235,1,0,0:0:0:0:
448,192,29235,1,0,0:0:0:0:
320,192,29356,1,0,0:0:0:0:
448,192,29477,1,0,0:0:0:0:
64,192,29477,1,0,0:0:0:0:
320,192,29597,1,0,0:0:0:0:
448,192,29597,1,0,0:0:0:0:
192,192,29597,1,0,0:0:0:0:
64,192,29597,1,0,0:0:0:0:
192,192,29718,1,0,0:0:0:0:
64,192,29839,1,0,0:0:0:0:
448,192,29839,1,0,0:0:0:0:
192,192,29960,1,0,0:0:0:0:
64,192,29960,1,0,0:0:0:0:
320,192,29960,1,0,0:0:0:0:
448,192,29960,1,0,0:0:0:0:
320,192,30081,1,0,0:0:0:0:
64,192,30081,1,0,0:0:0:0:
448,192,30201,1,0,0:0:0:0:
192,192,30201,1,0,0:0:0:0:
320,192,30322,1,0,0:0:0:0:
448,192,30322,1,0,0:0:0:0:
192,192,30322,1,0,0:0:0:0:
64,192,30322,1,0,0:0:0:0:
64,192,30443,1,0,0:0:0:0:
192,192,30443,1,0,0:0:0:0:
320,192,30564,1,0,0:0:0:0:
448,192,30564,1,0,0:0:0:0:
192,192,30684,1,0,0:0:0:0:
64,192,30684,1,0,0:0:0:0:
320,192,30684,1,0,0:0:0:0:
448,192,30684,1,0,0:0:0:0:
192,192,30805,1,0,0:0:0:0:
64,192,30926,1,0,0:0:0:0:
448,192,30926,1,0,0:0:0:0:
320,192,31047,1,0,0:0:0:0:
448,192,31047,1,0,0:0:0:0:
192,192,31047,1,0,0:0:0:0:
64,192,31047,1,0,0:0:0:0:
320,192,31168,1,0,0:0:0:0:
448,192,31288,1,0,0:0:0:0:
64,192,31288,1,0,0:0:0:0:
192,192,31409,1,0,0:0:0:0:
64,192,31409,1,0,0:0:0:0:
320,192,31409,1,0,0:0:0:0:
448,192,31409,1,0,0:0:0:0:
320,192,31530,1,0,0:0:0:0:
448,192,31530,1,0,0:0:0:0:
192,192,31651,1,0,0:0:0:0:
64,192,31651,1,0,0:0:0:0:
320,192,31771,1,0,0:0:0:0:
448,192,31771,1,0,0:0:0:0:
192,192,31771,1,0,0:0:0:0:
64,192,31771,1,0,0:0:0:0:
192,192,31892,1,0,0:0:0:0:
448,192,31892,1,0,0:0:0:0:
320,192,32013,1,0,0:0:0:0:
64,192,32013,1,0,0:0:0:0:
192,192,32134,1,0,0:0:0:0:
64,192,32134,1,0,0:0:0:0:
320,192,32134,1,0,0:0:0:0:
448,192,32134,1,0,0:0:0:0:
192,192,32254,1,0,0:0:0:0:
320,192,32375,1,0,0:0:0:0:
448,192,32375,1,0,0:0:0:0:
320,192,32496,1,0,0:0:0:0:
448,192,32496,1,0,0:0:0:0:
192,192,32496,1,0,0:0:0:0:
64,192,32496,1,0,0:0:0:0:
192,192,32617,1,0,0:0:0:0:
320,192,32738,1,0,0:0:0:0:
64,192,32858,1,0,0:0:0:0:
448,192,32858,1,0,0:0:0:0:
64,192,32979,1,0,0:0:0:0:
320,192,32979,1,0,0:0:0:0:
64,192,33100,1,0,0:0:0:0:
192,192,33100,1,0,0:0:0:0:
192,192,33221,1,0,0:0:0:0:
64,192,33221,1,0,0:0:0:0:
320,192,33221,1,0,0:0:0:0:
448,192,33221,1,0,0:0:0:0:
192,192,33342,1,0,0:0:0:0:
448,192,33342,1,0,0:0:0:0:
320,192,33462,1,0,0:0:0:0:
448,192,33462,1,0,0:0:0:0:
320,192,33583,1,0,0:0:0:0:
448,192,33583,1,0,0:0:0:0:
192,192,33583,1,0,0:0:0:0:
64,192,33583,1,0,0:0:0:0:
192,192,33704,1,0,0:0:0:0:
64,192,33824,1,0,0:0:0:0:
320,192,33824,1,0,0:0:0:0:
64,192,33946,1,0,0:0:0:0:
448,192,33946,1,0,0:0:0:0:
192,192,33946,1,0,0:0:0:0:
320,192,34066,1,0,0:0:0:0:
448,192,34187,1,0,0:0:0:0:
64,192,34308,1,0,0:0:0:0:
320,192,34308,1,0,0:0:0:0:
64,192,34428,1,0,0:0:0:0:
448,192,34428,1,0,0:0:0:0:
64,192,34549,1,0,0:0:0:0:
192,192,34549,1,0,0:0:0:0:
64,192,34670,1,0,0:0:0:0:
320,192,34670,1,0,0:0:0:0:
448,192,34670,1,0,0:0:0:0:
64,192,34791,1,0,0:0:0:0:
448,192,34791,1,0,0:0:0:0:
320,192,34912,1,0,0:0:0:0:
448,192,34912,1,0,0:0:0:0:
192,192,35032,1,0,0:0:0:0:
64,192,35032,1,0,0:0:0:0:
320,192,35032,1,0,0:0:0:0:
448,192,35032,1,0,0:0:0:0:
192,192,35153,1,0,0:0:0:0:
64,192,35274,1,0,0:0:0:0:
320,192,35274,1,0,0:0:0:0:
320,192,35394,1,0,0:0:0:0:
448,192,35394,1,0,0:0:0:0:
192,192,35394,1,0,0:0:0:0:
64,192,35394,1,0,0:0:0:0:
448,192,35516,1,0,0:0:0:0:
320,192,35636,1,0,0:0:0:0:
192,192,35636,1,0,0:0:0:0:
192,192,35757,1,0,0:0:0:0:
64,192,35757,1,0,0:0:0:0:
320,192,35757,1,0,0:0:0:0:
448,192,35757,1,0,0:0:0:0:
64,192,35878,1,0,0:0:0:0:
320,192,35878,1,0,0:0:0:0:
192,192,35998,1,0,0:0:0:0:
448,192,35998,1,0,0:0:0:0:
320,192,36119,1,0,0:0:0:0:
448,192,36119,1,0,0:0:0:0:
192,192,36119,1,0,0:0:0:0:
64,192,36119,1,0,0:0:0:0:
320,192,36240,1,0,0:0:0:0:
192,192,36361,1,0,0:0:0:0:
448,192,36361,1,0,0:0:0:0:
192,192,36482,1,0,0:0:0:0:
64,192,36482,1,0,0:0:0:0:
320,192,36482,1,0,0:0:0:0:
448,192,36482,1,0,0:0:0:0:
64,192,36602,1,0,0:0:0:0:
192,192,36723,1,0,0:0:0:0:
320,192,36723,1,0,0:0:0:0:
320,192,36844,1,0,0:0:0:0:
448,192,36844,1,0,0:0:0:0:
192,192,36844,1,0,0:0:0:0:
64,192,36844,1,0,0:0:0:0:
448,192,36964,1,0,0:0:0:0:
192,192,37086,1,0,0:0:0:0:
64,192,37086,1,0,0:0:0:0:
192,192,37206,1,0,0:0:0:0:
64,192,37206,1,0,0:0:0:0:
320,192,37206,1,0,0:0:0:0:
448,192,37206,1,0,0:0:0:0:
320,192,37327,1,0,0:0:0:0:
448,192,37327,1,0,0:0:0:0:
320,192,37448,1,0,0:0:0:0:
192,192,37448,1,0,0:0:0:0:
320,192,37568,1,0,0:0:0:0:
448,192,37568,1,0,0:0:0:0:
192,192,37568,1,0,0:0:0:0:
64,192,37568,1,0,0:0:0:0:
64,192,37689,1,0,0:0:0:0:
192,192,37689,1,0,0:0:0:0:
320,192,37810,1,0,0:0:0:0:
448,192,37810,1,0,0:0:0:0:
192,192,37931,1,0,0:0:0:0:
64,192,37931,1,0,0:0:0:0:
320,192,37931,1,0,0:0:0:0:
448,192,37931,1,0,0:0:0:0:
192,192,38052,1,0,0:0:0:0:
64,192,38172,1,0,0:0:0:0:
320,192,38172,1,0,0:0:0:0:
64,192,38293,1,0,0:0:0:0:
192,192,38293,1,0,0:0:0:0:
448,192,38293,1,0,0:0:0:0:
320,192,38414,1,0,0:0:0:0:
192,192,38534,1,0,0:0:0:0:
64,192,38656,1,0,0:0:0:0:
448,192,38656,1,0,0:0:0:0:
320,192,38656,1,0,0:0:0:0:
192,192,38776,1,0,0:0:0:0:
448,192,38776,1,0,0:0:0:0:
64,192,38897,1,0,0:0:0:0:
192,192,38897,1,0,0:0:0:0:
64,192,39018,1,0,0:0:0:0:
192,192,39018,1,0,0:0:0:0:
448,192,39018,1,0,0:0:0:0:
64,192,39138,1,0,0:0:0:0:
320,192,39138,1,0,0:0:0:0:
320,192,39259,1,0,0:0:0:0:
448,192,39259,1,0,0:0:0:0:
64,192,39380,1,0,0:0:0:0:
192,192,39380,1,0,0:0:0:0:
448,192,39380,1,0,0:0:0:0:
320,192,39501,1,0,0:0:0:0:
192,192,39622,1,0,0:0:0:0:
64,192,39622,1,0,0:0:0:0:
64,192,39742,1,0,0:0:0:0:
448,192,39742,1,0,0:0:0:0:
320,192,39742,1,0,0:0:0:0:
192,192,39863,1,0,0:0:0:0:
320,192,39984,1,0,0:0:0:0:
64,192,40104,1,0,0:0:0:0:
192,192,40104,1,0,0:0:0:0:
448,192,40104,1,0,0:0:0:0:
64,192,40226,5,0,0:0:0:0:
320,192,40226,1,0,0:0:0:0:
192,192,40346,1,0,0:0:0:0:
320,192,40346,1,0,0:0:0:0:
64,192,40467,1,0,0:0:0:0:
320,192,40467,1,0,0:0:0:0:
448,192,40467,1,0,0:0:0:0:
192,192,40588,1,0,0:0:0:0:
448,192,40588,1,0,0:0:0:0:
320,192,40708,1,0,0:0:0:0:
192,192,40708,1,0,0:0:0:0:
320,192,40829,5,0,0:0:0:0:
448,192,40829,1,0,0:0:0:0:
192,192,40829,1,0,0:0:0:0:
64,192,40829,1,0,0:0:0:0:
64,192,40950,1,0,0:0:0:0:
192,192,41071,1,0,0:0:0:0:
64,192,41071,1,0,0:0:0:0:
320,192,41071,1,0,0:0:0:0:
448,192,41071,1,0,0:0:0:0:
192,192,41192,1,0,0:0:0:0:
320,192,41312,1,0,0:0:0:0:
448,192,41312,1,0,0:0:0:0:
192,192,41312,1,0,0:0:0:0:
64,192,41312,1,0,0:0:0:0:
320,192,41433,1,0,0:0:0:0:
192,192,41554,1,0,0:0:0:0:
64,192,41554,1,0,0:0:0:0:
320,192,41554,1,0,0:0:0:0:
448,192,41554,1,0,0:0:0:0:
448,192,41675,1,0,0:0:0:0:
192,192,41675,1,0,0:0:0:0:
320,192,41796,1,0,0:0:0:0:
192,192,41796,1,0,0:0:0:0:
64,192,41916,1,0,0:0:0:0:
320,192,41916,1,0,0:0:0:0:
448,192,41916,1,0,0:0:0:0:
192,192,42037,1,0,0:0:0:0:
64,192,42037,1,0,0:0:0:0:
320,192,42158,1,0,0:0:0:0:
192,192,42158,1,0,0:0:0:0:
320,192,42279,1,0,0:0:0:0:
448,192,42279,1,0,0:0:0:0:
192,192,42279,1,0,0:0:0:0:
64,192,42279,1,0,0:0:0:0:
448,192,42399,1,0,0:0:0:0:
192,192,42520,1,0,0:0:0:0:
64,192,42520,1,0,0:0:0:0:
320,192,42520,1,0,0:0:0:0:
448,192,42520,1,0,0:0:0:0:
320,192,42641,1,0,0:0:0:0:
320,192,42762,1,0,0:0:0:0:
448,192,42762,1,0,0:0:0:0:
192,192,42762,1,0,0:0:0:0:
64,192,42762,1,0,0:0:0:0:
192,192,42882,1,0,0:0:0:0:
192,192,43003,1,0,0:0:0:0:
64,192,43003,1,0,0:0:0:0:
320,192,43003,1,0,0:0:0:0:
448,192,43003,1,0,0:0:0:0:
64,192,43124,1,0,0:0:0:0:
320,192,43124,1,0,0:0:0:0:
192,192,43245,1,0,0:0:0:0:
320,192,43245,1,0,0:0:0:0:
64,192,43366,1,0,0:0:0:0:
192,192,43366,1,0,0:0:0:0:
448,192,43366,1,0,0:0:0:0:
320,192,43486,1,0,0:0:0:0:
448,192,43486,1,0,0:0:0:0:
192,192,43607,1,0,0:0:0:0:
320,192,43607,1,0,0:0:0:0:
320,192,43728,1,0,0:0:0:0:
448,192,43728,1,0,0:0:0:0:
192,192,43728,1,0,0:0:0:0:
64,192,43728,1,0,0:0:0:0:
448,192,43849,1,0,0:0:0:0:
192,192,43969,1,0,0:0:0:0:
64,192,43969,1,0,0:0:0:0:
320,192,43969,1,0,0:0:0:0:
448,192,43969,1,0,0:0:0:0:
192,192,44090,1,0,0:0:0:0:
320,192,44211,1,0,0:0:0:0:
448,192,44211,1,0,0:0:0:0:
192,192,44211,1,0,0:0:0:0:
64,192,44211,1,0,0:0:0:0:
320,192,44332,1,0,0:0:0:0:
192,192,44453,1,0,0:0:0:0:
64,192,44453,1,0,0:0:0:0:
320,192,44453,1,0,0:0:0:0:
448,192,44453,1,0,0:0:0:0:
64,192,44573,1,0,0:0:0:0:
320,192,44694,1,0,0:0:0:0:
448,192,44694,1,0,0:0:0:0:
192,192,44694,1,0,0:0:0:0:
64,192,44694,1,0,0:0:0:0:
192,192,44815,1,0,0:0:0:0:
192,192,44936,1,0,0:0:0:0:
64,192,44936,1,0,0:0:0:0:
320,192,44936,1,0,0:0:0:0:
448,192,44936,1,0,0:0:0:0:
448,192,45057,1,0,0:0:0:0:
320,192,45177,1,0,0:0:0:0:
448,192,45177,1,0,0:0:0:0:
192,192,45177,1,0,0:0:0:0:
64,192,45177,1,0,0:0:0:0:
320,192,45298,1,0,0:0:0:0:
64,192,45419,1,0,0:0:0:0:
320,192,45479,1,0,0:0:0:0:
192,192,45539,1,0,0:0:0:0:
64,192,45539,1,0,0:0:0:0:
448,192,45539,1,0,0:0:0:0:
320,192,45660,1,0,0:0:0:0:
192,192,45781,1,0,0:0:0:0:
64,192,45902,1,0,0:0:0:0:
448,192,45902,1,0,0:0:0:0:
320,192,45902,1,0,0:0:0:0:
192,192,46023,1,0,0:0:0:0:
448,192,46023,1,0,0:0:0:0:
64,192,46143,1,0,0:0:0:0:
320,192,46143,1,0,0:0:0:0:
64,192,46264,1,0,0:0:0:0:
448,192,46264,1,0,0:0:0:0:
192,192,46264,1,0,0:0:0:0:
320,192,46385,1,0,0:0:0:0:
64,192,46385,1,0,0:0:0:0:
192,192,46506,1,0,0:0:0:0:
448,192,46506,1,0,0:0:0:0:
64,192,46627,1,0,0:0:0:0:
320,192,46627,1,0,0:0:0:0:
192,192,46627,1,0,0:0:0:0:
448,192,46627,1,0,0:0:0:0:
320,192,46747,1,0,0:0:0:0:
192,192,46868,1,0,0:0:0:0:
448,192,46868,1,0,0:0:0:0:
320,192,46868,1,0,0:0:0:0:
64,192,46868,1,0,0:0:0:0:
192,192,46989,1,0,0:0:0:0:
320,192,47109,1,0,0:0:0:0:
64,192,47109,1,0,0:0:0:0:
192,192,47109,1,0,0:0:0:0:
448,192,47109,1,0,0:0:0:0:
64,192,47231,1,0,0:0:0:0:
192,192,47351,1,0,0:0:0:0:
448,192,47351,1,0,0:0:0:0:
320,192,47351,1,0,0:0:0:0:
64,192,47351,1,0,0:0:0:0:
448,192,47472,1,0,0:0:0:0:
320,192,47472,1,0,0:0:0:0:
64,192,47593,1,0,0:0:0:0:
448,192,47593,1,0,0:0:0:0:
64,192,47713,1,0,0:0:0:0:
192,192,47713,1,0,0:0:0:0:
320,192,47713,1,0,0:0:0:0:
192,192,47834,1,0,0:0:0:0:
448,192,47834,1,0,0:0:0:0:
320,192,47955,1,0,0:0:0:0:
448,192,47955,1,0,0:0:0:0:
320,192,48076,1,0,0:0:0:0:
64,192,48076,1,0,0:0:0:0:
192,192,48076,1,0,0:0:0:0:
448,192,48076,1,0,0:0:0:0:
64,192,48197,1,0,0:0:0:0:
192,192,48317,1,0,0:0:0:0:
448,192,48317,1,0,0:0:0:0:
320,192,48317,1,0,0:0:0:0:
64,192,48317,1,0,0:0:0:0:
192,192,48438,1,0,0:0:0:0:
320,192,48559,1,0,0:0:0:0:
64,192,48559,1,0,0:0:0:0:
192,192,48559,1,0,0:0:0:0:
448,192,48559,1,0,0:0:0:0:
320,192,48679,1,0,0:0:0:0:
192,192,48801,1,0,0:0:0:0:
448,192,48801,1,0,0:0:0:0:
320,192,48801,1,0,0:0:0:0:
64,192,48801,1,0,0:0:0:0:
64,192,48921,1,0,0:0:0:0:
192,192,48921,1,0,0:0:0:0:
192,192,49042,1,0,0:0:0:0:
448,192,49042,1,0,0:0:0:0:
64,192,49163,1,0,0:0:0:0:
320,192,49163,1,0,0:0:0:0:
448,192,49163,1,0,0:0:0:0:
192,192,49283,1,0,0:0:0:0:
320,192,49283,1,0,0:0:0:0:
448,192,49404,1,0,0:0:0:0:
192,192,49404,1,0,0:0:0:0:
320,192,49525,1,0,0:0:0:0:
64,192,49525,1,0,0:0:0:0:
192,192,49525,1,0,0:0:0:0:
448,192,49525,1,0,0:0:0:0:
320,192,49646,1,0,0:0:0:0:
192,192,49767,1,0,0:0:0:0:
448,192,49767,1,0,0:0:0:0:
320,192,49767,1,0,0:0:0:0:
64,192,49767,1,0,0:0:0:0:
192,192,49887,1,0,0:0:0:0:
320,192,50008,1,0,0:0:0:0:
64,192,50008,1,0,0:0:0:0:
192,192,50008,1,0,0:0:0:0:
448,192,50008,1,0,0:0:0:0:
448,192,50129,1,0,0:0:0:0:
192,192,50249,1,0,0:0:0:0:
448,192,50249,1,0,0:0:0:0:
320,192,50249,1,0,0:0:0:0:
64,192,50249,1,0,0:0:0:0:
320,192,50371,1,0,0:0:0:0:
320,192,50491,1,0,0:0:0:0:
64,192,50491,1,0,0:0:0:0:
192,192,50491,1,0,0:0:0:0:
448,192,50491,1,0,0:0:0:0:
64,192,50612,1,0,0:0:0:0:
320,192,50733,1,0,0:0:0:0:
64,192,50733,1,0,0:0:0:0:
192,192,50733,1,0,0:0:0:0:
448,192,50733,1,0,0:0:0:0:
192,192,50853,1,0,0:0:0:0:
192,192,50974,1,0,0:0:0:0:
448,192,50974,1,0,0:0:0:0:
320,192,50974,1,0,0:0:0:0:
64,192,50974,1,0,0:0:0:0:
448,192,51095,1,0,0:0:0:0:
320,192,51216,1,0,0:0:0:0:
64,192,51216,1,0,0:0:0:0:
64,192,51337,1,0,0:0:0:0:
192,192,51337,1,0,0:0:0:0:
448,192,51337,1,0,0:0:0:0:
320,192,51457,1,0,0:0:0:0:
448,192,51457,1,0,0:0:0:0:
64,192,51578,1,0,0:0:0:0:
320,192,51578,1,0,0:0:0:0:
64,192,51699,1,0,0:0:0:0:
192,192,51699,1,0,0:0:0:0:
448,192,51699,1,0,0:0:0:0:
64,192,51819,1,0,0:0:0:0:
320,192,51819,1,0,0:0:0:0:
64,192,51941,1,0,0:0:0:0:
192,192,51941,1,0,0:0:0:0:
64,192,52061,1,0,0:0:0:0:
320,192,52061,1,0,0:0:0:0:
448,192,52061,1,0,0:0:0:0:
192,192,52182,1,0,0:0:0:0:
448,192,52182,1,0,0:0:0:0:
320,192,52303,1,0,0:0:0:0:
448,192,52303,1,0,0:0:0:0:
192,192,52423,5,0,0:0:0:0:
320,192,52423,1,0,0:0:0:0:
64,192,52423,1,0,0:0:0:0:
448,192,52423,1,0,0:0:0:0:
64,192,52544,1,0,0:0:0:0:
320,192,52665,1,0,0:0:0:0:
448,192,52665,1,0,0:0:0:0:
192,192,52665,1,0,0:0:0:0:
64,192,52665,1,0,0:0:0:0:
320,192,52786,1,0,0:0:0:0:
192,192,52907,1,0,0:0:0:0:
64,192,52907,1,0,0:0:0:0:
320,192,52907,1,0,0:0:0:0:
448,192,52907,1,0,0:0:0:0:
192,192,53027,1,0,0:0:0:0:
320,192,53148,1,0,0:0:0:0:
448,192,53148,1,0,0:0:0:0:
192,192,53148,1,0,0:0:0:0:
64,192,53148,1,0,0:0:0:0:
64,192,53269,1,0,0:0:0:0:
320,192,53269,1,0,0:0:0:0:
192,192,53390,1,0,0:0:0:0:
320,192,53390,1,0,0:0:0:0:
448,192,53511,1,0,0:0:0:0:
192,192,53511,1,0,0:0:0:0:
64,192,53511,1,0,0:0:0:0:
320,192,53631,1,0,0:0:0:0:
448,192,53631,1,0,0:0:0:0:
192,192,53752,1,0,0:0:0:0:
320,192,53752,1,0,0:0:0:0:
192,192,53873,1,0,0:0:0:0:
64,192,53873,1,0,0:0:0:0:
320,192,53873,1,0,0:0:0:0:
448,192,53873,1,0,0:0:0:0:
64,192,53993,1,0,0:0:0:0:
320,192,54114,1,0,0:0:0:0:
448,192,54114,1,0,0:0:0:0:
192,192,54114,1,0,0:0:0:0:
64,192,54114,1,0,0:0:0:0:
192,192,54235,1,0,0:0:0:0:
192,192,54356,1,0,0:0:0:0:
64,192,54356,1,0,0:0:0:0:
320,192,54356,1,0,0:0:0:0:
448,192,54356,1,0,0:0:0:0:
320,192,54477,1,0,0:0:0:0:
320,192,54597,1,0,0:0:0:0:
448,192,54597,1,0,0:0:0:0:
192,192,54597,1,0,0:0:0:0:
64,192,54597,1,0,0:0:0:0:
448,192,54718,1,0,0:0:0:0:
64,192,54718,1,0,0:0:0:0:
320,192,54839,1,0,0:0:0:0:
192,192,54839,1,0,0:0:0:0:
448,192,54960,1,0,0:0:0:0:
320,192,54960,1,0,0:0:0:0:
64,192,54960,1,0,0:0:0:0:
192,192,55081,1,0,0:0:0:0:
64,192,55081,1,0,0:0:0:0:
320,192,55201,1,0,0:0:0:0:
192,192,55201,1,0,0:0:0:0:
192,192,55322,1,0,0:0:0:0:
64,192,55322,1,0,0:0:0:0:
320,192,55322,1,0,0:0:0:0:
448,192,55322,1,0,0:0:0:0:
64,192,55443,1,0,0:0:0:0:
320,192,55564,1,0,0:0:0:0:
448,192,55564,1,0,0:0:0:0:
192,192,55564,1,0,0:0:0:0:
64,192,55564,1,0,0:0:0:0:
320,192,55684,1,0,0:0:0:0:
192,192,55805,1,0,0:0:0:0:
64,192,55805,1,0,0:0:0:0:
320,192,55805,1,0,0:0:0:0:
448,192,55805,1,0,0:0:0:0:
192,192,55926,1,0,0:0:0:0:
320,192,56047,1,0,0:0:0:0:
448,192,56047,1,0,0:0:0:0:
192,192,56047,1,0,0:0:0:0:
64,192,56047,1,0,0:0:0:0:
448,192,56168,1,0,0:0:0:0:
192,192,56288,1,0,0:0:0:0:
64,192,56288,1,0,0:0:0:0:
320,192,56288,1,0,0:0:0:0:
448,192,56288,1,0,0:0:0:0:
320,192,56409,1,0,0:0:0:0:
320,192,56530,1,0,0:0:0:0:
448,192,56530,1,0,0:0:0:0:
192,192,56530,1,0,0:0:0:0:
64,192,56530,1,0,0:0:0:0:
64,192,56651,1,0,0:0:0:0:
192,192,56771,1,0,0:0:0:0:
64,192,56771,1,0,0:0:0:0:
320,192,56771,1,0,0:0:0:0:
448,192,56771,1,0,0:0:0:0:
192,192,56892,1,0,0:0:0:0:
448,192,57013,1,0,0:0:0:0:
192,192,57073,1,0,0:0:0:0:
320,192,57134,1,0,0:0:0:0:
448,192,57134,1,0,0:0:0:0:
64,192,57134,1,0,0:0:0:0:
192,192,57254,1,0,0:0:0:0:
320,192,57375,1,0,0:0:0:0:
448,192,57496,1,0,0:0:0:0:
64,192,57496,1,0,0:0:0:0:
192,192,57496,1,0,0:0:0:0:
320,192,57617,1,0,0:0:0:0:
64,192,57617,1,0,0:0:0:0:
448,192,57738,1,0,0:0:0:0:
192,192,57738,1,0,0:0:0:0:
448,192,57858,1,0,0:0:0:0:
64,192,57858,1,0,0:0:0:0:
320,192,57858,1,0,0:0:0:0:
192,192,57979,1,0,0:0:0:0:
448,192,57979,1,0,0:0:0:0:
320,192,58100,1,0,0:0:0:0:
64,192,58100,1,0,0:0:0:0:
448,192,58221,1,0,0:0:0:0:
192,192,58221,1,0,0:0:0:0:
320,192,58221,1,0,0:0:0:0:
64,192,58221,1,0,0:0:0:0:
192,192,58342,1,0,0:0:0:0:
320,192,58462,1,0,0:0:0:0:
64,192,58462,1,0,0:0:0:0:
192,192,58462,1,0,0:0:0:0:
448,192,58462,1,0,0:0:0:0:
320,192,58583,1,0,0:0:0:0:
192,192,58704,1,0,0:0:0:0:
448,192,58704,1,0,0:0:0:0:
320,192,58704,1,0,0:0:0:0:
64,192,58704,1,0,0:0:0:0:
448,192,58824,1,0,0:0:0:0:
320,192,58946,1,0,0:0:0:0:
64,192,58946,1,0,0:0:0:0:
192,192,58946,1,0,0:0:0:0:
448,192,58946,1,0,0:0:0:0:
64,192,59066,1,0,0:0:0:0:
192,192,59066,1,0,0:0:0:0:
448,192,59187,1,0,0:0:0:0:
64,192,59187,1,0,0:0:0:0:
448,192,59308,1,0,0:0:0:0:
320,192,59308,1,0,0:0:0:0:
192,192,59308,1,0,0:0:0:0:
320,192,59428,1,0,0:0:0:0:
64,192,59428,1,0,0:0:0:0:
192,192,59549,1,0,0:0:0:0:
64,192,59549,1,0,0:0:0:0:
192,192,59670,1,0,0:0:0:0:
448,192,59670,1,0,0:0:0:0:
320,192,59670,1,0,0:0:0:0:
64,192,59670,1,0,0:0:0:0:
448,192,59791,1,0,0:0:0:0:
320,192,59912,1,0,0:0:0:0:
64,192,59912,1,0,0:0:0:0:
192,192,59912,1,0,0:0:0:0:
448,192,59912,1,0,0:0:0:0:
320,192,60032,1,0,0:0:0:0:
192,192,60153,1,0,0:0:0:0:
448,192,60153,1,0,0:0:0:0:
320,192,60153,1,0,0:0:0:0:
64,192,60153,1,0,0:0:0:0:
192,192,60274,1,0,0:0:0:0:
320,192,60394,1,0,0:0:0:0:
64,192,60394,1,0,0:0:0:0:
192,192,60394,1,0,0:0:0:0:
448,192,60394,1,0,0:0:0:0:
448,192,60516,1,0,0:0:0:0:
320,192,60516,1,0,0:0:0:0:
320,192,60636,1,0,0:0:0:0:
64,192,60636,1,0,0:0:0:0:
448,192,60757,1,0,0:0:0:0:
192,192,60757,1,0,0:0:0:0:
64,192,60757,1,0,0:0:0:0:
320,192,60878,1,0,0:0:0:0:
192,192,60878,1,0,0:0:0:0:
64,192,60998,1,0,0:0:0:0:
320,192,60998,1,0,0:0:0:0:
192,192,61119,1,0,0:0:0:0:
448,192,61119,1,0,0:0:0:0:
320,192,61119,1,0,0:0:0:0:
64,192,61119,1,0,0:0:0:0:
192,192,61240,1,0,0:0:0:0:
320,192,61361,1,0,0:0:0:0:
64,192,61361,1,0,0:0:0:0:
192,192,61361,1,0,0:0:0:0:
448,192,61361,1,0,0:0:0:0:
320,192,61482,1,0,0:0:0:0:
192,192,61602,1,0,0:0:0:0:
448,192,61602,1,0,0:0:0:0:
320,192,61602,1,0,0:0:0:0:
64,192,61602,1,0,0:0:0:0:
64,192,61723,1,0,0:0:0:0:
320,192,61844,1,0,0:0:0:0:
64,192,61844,1,0,0:0:0:0:
192,192,61844,1,0,0:0:0:0:
448,192,61844,1,0,0:0:0:0:
192,192,61964,1,0,0:0:0:0:
192,192,62086,1,0,0:0:0:0:
448,192,62086,1,0,0:0:0:0:
320,192,62086,1,0,0:0:0:0:
64,192,62086,1,0,0:0:0:0:
448,192,62206,1,0,0:0:0:0:
192,192,62327,1,0,0:0:0:0:
448,192,62327,1,0,0:0:0:0:
320,192,62327,1,0,0:0:0:0:
64,192,62327,1,0,0:0:0:0:
320,192,62448,1,0,0:0:0:0:
320,192,62568,1,0,0:0:0:0:
64,192,62568,1,0,0:0:0:0:
192,192,62568,1,0,0:0:0:0:
448,192,62568,1,0,0:0:0:0:
64,192,62689,1,0,0:0:0:0:
192,192,62810,1,0,0:0:0:0:
448,192,62810,1,0,0:0:0:0:
448,192,62931,1,0,0:0:0:0:
320,192,62931,1,0,0:0:0:0:
64,192,62931,1,0,0:0:0:0:
192,192,63052,1,0,0:0:0:0:
64,192,63052,1,0,0:0:0:0:
448,192,63172,1,0,0:0:0:0:
192,192,63172,1,0,0:0:0:0:
448,192,63293,1,0,0:0:0:0:
320,192,63293,1,0,0:0:0:0:
64,192,63293,1,0,0:0:0:0:
448,192,63414,1,0,0:0:0:0:
192,192,63414,1,0,0:0:0:0:
448,192,63534,1,0,0:0:0:0:
320,192,63534,1,0,0:0:0:0:
448,192,63656,1,0,0:0:0:0:
192,192,63656,1,0,0:0:0:0:
64,192,63656,1,0,0:0:0:0:
320,192,63776,1,0,0:0:0:0:
64,192,63776,1,0,0:0:0:0:
192,192,63897,1,0,0:0:0:0:
320,192,63897,1,0,0:0:0:0:
64,192,64018,1,0,0:0:0:0:
192,192,64018,1,0,0:0:0:0:
320,192,64018,1,0,0:0:0:0:
448,192,64018,1,0,0:0:0:0:
