osu file format v14

[General]
AudioFilename: Pascal170.mp3
AudioLeadIn: 0
PreviewTime: 262
Countdown: 0
SampleSet: None
StackLeniency: 0.7
Mode: 3
LetterboxInBreaks: 0
SpecialStyle: 0
WidescreenStoryboard: 0

[Editor]
DistanceSpacing: 0.8
BeatDivisor: 3
GridSize: 16
TimelineZoom: 1

[Metadata]
Title:Pascal
TitleUnicode:Pascal
Artist:Keiichi Okabe
ArtistUnicode:Keiichi Okabe
Creator:ATing
Version:Kal dis is mal [1.7x Rate]
Source:NieR: Automata
Tags:
BeatmapID:2046174
BeatmapSetID:977654

[Difficulty]
HPDrainRate:8
CircleSize:4
OverallDifficulty:8
ApproachRate:5
SliderMultiplier:1.4
SliderTickRate:1

[Events]
//Background and Video events
0,0,"nier.jpg",0,0
//Break Periods
//Storyboard Layer 0 (Background)
//Storyboard Layer 1 (Fail)
//Storyboard Layer 2 (Pass)
//Storyboard Layer 3 (Foreground)
//Storyboard Sound Samples

[TimingPoints]
262,383.631713554987,4,1,0,15,1,0

[HitObjects]
64,192,262,5,0,0:0:0:0:
448,192,262,1,0,0:0:0:0:
192,192,390,1,0,0:0:0:0:
320,192,518,1,0,0:0:0:0:
448,192,646,1,0,0:0:0:0:
192,192,646,1,0,0:0:0:0:
320,192,774,1,0,0:0:0:0:
448,192,901,1,0,0:0:0:0:
64,192,1029,1,0,0:0:0:0:
192,192,1029,1,0,0:0:0:0:
448,192,1157,1,0,0:0:0:0:
64,192,1285,1,0,0:0:0:0:
320,192,1285,1,0,0:0:0:0:
64,192,1413,1,0,0:0:0:0:
192,192,1413,1,0,0:0:0:0:
448,192,1541,1,0,0:0:0:0:
192,192,1669,1,0,0:0:0:0:
448,192,1796,1,0,0:0:0:0:
64,192,1796,1,0,0:0:0:0:
320,192,1924,1,0,0:0:0:0:
192,192,2052,1,0,0:0:0:0:
64,192,2180,1,0,0:0:0:0:
320,192,2180,1,0,0:0:0:0:
192,192,2308,1,0,0:0:0:0:
64,192,2436,1,0,0:0:0:0:
448,192,2564,1,0,0:0:0:0:
320,192,2564,1,0,0:0:0:0:
64,192,2692,1,0,0:0:0:0:
448,192,2692,1,0,0:0:0:0:
448,192,2819,1,0,0:0:0:0:
192,192,2819,1,0,0:0:0:0:
448,192,2948,1,0,0:0:0:0:
320,192,2948,1,0,0:0:0:0:
64,192,3075,1,0,0:0:0:0:
320,192,3203,1,0,0:0:0:0:
64,192,3331,1,0,0:0:0:0:
192,192,3331,1,0,0:0:0:0:
320,192,3459,1,0,0:0:0:0:
448,192,3587,1,0,0:0:0:0:
192,192,3587,1,0,0:0:0:0:
64,192,3715,1,0,0:0:0:0:
448,192,3715,1,0,0:0:0:0:
320,192,3842,1,0,0:0:0:0:
192,192,3971,1,0,0:0:0:0:
320,192,4098,1,0,0:0:0:0:
448,192,4098,1,0,0:0:0:0:
64,192,4226,1,0,0:0:0:0:
192,192,4354,1,0,0:0:0:0:
448,192,4354,1,0,0:0:0:0:
448,192,4482,1,0,0:0:0:0:
64,192,4482,1,0,0:0:0:0:
320,192,4610,1,0,0:0:0:0:
192,192,4738,1,0,0:0:0:0:
448,192,4865,1,0,0:0:0:0:
320,192,4865,1,0,0:0:0:0:
192,192,4994,1,0,0:0:0:0:
320,192,5121,1,0,0:0:0:0:
64,192,5249,1,0,0:0:0:0:
448,192,5249,1,0,0:0:0:0:
192,192,5377,1,0,0:0:0:0:
320,192,5505,1,0,0:0:0:0:
64,192,5633,1,0,0:0:0:0:
192,192,5633,1,0,0:0:0:0:
448,192,5761,1,0,0:0:0:0:
64,192,5761,1,0,0:0:0:0:
64,192,5889,1,0,0:0:0:0:
320,192,5889,1,0,0:0:0:0:
448,192,6016,1,0,0:0:0:0:
64,192,6016,1,0,0:0:0:0:
192,192,6144,1,0,0:0:0:0:
320,192,6272,1,0,0:0:0:0:
192,192,6400,1,0,0:0:0:0:
64,192,6400,1,0,0:0:0:0:
448,192,6400,1,0,0:0:0:0:
192,192,6528,1,0,0:0:0:0:
320,192,6656,1,0,0:0:0:0:
64,192,6656,1,0,0:0:0:0:
64,192,6784,1,0,0:0:0:0:
448,192,6784,1,0,0:0:0:0:
192,192,6912,1,0,0:0:0:0:
320,192,7039,1,0,0:0:0:0:
64,192,7167,1,0,0:0:0:0:
448,192,7167,1,0,0:0:0:0:
64,192,7295,1,0,0:0:0:0:
320,192,7295,1,0,0:0:0:0:
64,192,7423,1,0,0:0:0:0:
192,192,7423,1,0,0:0:0:0:
448,192,7551,1,0,0:0:0:0:
64,192,7551,1,0,0:0:0:0:
320,192,7679,1,0,0:0:0:0:
192,192,7806,1,0,0:0:0:0:
64,192,7935,1,0,0:0:0:0:
320,192,7935,1,0,0:0:0:0:
320,192,8062,1,0,0:0:0:0:
192,192,8191,1,0,0:0:0:0:
448,192,8191,1,0,0:0:0:0:
64,192,8318,1,0,0:0:0:0:
448,192,8318,1,0,0:0:0:0:
320,192,8446,1,0,0:0:0:0:
192,192,8574,1,0,0:0:0:0:
64,192,8702,1,0,0:0:0:0:
448,192,8702,1,0,0:0:0:0:
192,192,8830,1,0,0:0:0:0:
448,192,8830,1,0,0:0:0:0:
320,192,8958,1,0,0:0:0:0:
448,192,8958,1,0,0:0:0:0:
64,192,9085,1,0,0:0:0:0:
448,192,9085,1,0,0:0:0:0:
192,192,9214,1,0,0:0:0:0:
448,192,9214,1,0,0:0:0:0:
64,192,9341,1,0,0:0:0:0:
448,192,9341,1,0,0:0:0:0:
64,192,9469,1,0,0:0:0:0:
192,192,9469,1,0,0:0:0:0:
448,192,9469,1,0,0:0:0:0:
192,192,9597,1,0,0:0:0:0:
320,192,9725,1,0,0:0:0:0:
448,192,9725,1,0,0:0:0:0:
64,192,9853,1,0,0:0:0:0:
448,192,9853,1,0,0:0:0:0:
192,192,9981,1,0,0:0:0:0:
320,192,10108,1,0,0:0:0:0:
192,192,10236,1,0,0:0:0:0:
64,192,10236,1,0,0:0:0:0:
64,192,10364,1,0,0:0:0:0:
448,192,10364,1,0,0:0:0:0:
64,192,10492,1,0,0:0:0:0:
320,192,10492,1,0,0:0:0:0:
64,192,10620,1,0,0:0:0:0:
192,192,10620,1,0,0:0:0:0:
448,192,10620,1,0,0:0:0:0:
320,192,10748,1,0,0:0:0:0:
192,192,10876,1,0,0:0:0:0:
64,192,11004,1,0,0:0:0:0:
320,192,11004,1,0,0:0:0:0:
320,192,11132,1,0,0:0:0:0:
64,192,11259,1,0,0:0:0:0:
192,192,11259,1,0,0:0:0:0:
64,192,11387,1,0,0:0:0:0:
448,192,11387,1,0,0:0:0:0:
320,192,11515,1,0,0:0:0:0:
192,192,11643,1,0,0:0:0:0:
320,192,11771,1,0,0:0:0:0:
448,192,11771,1,0,0:0:0:0:
64,192,11899,1,0,0:0:0:0:
448,192,11899,1,0,0:0:0:0:
320,192,12026,1,0,0:0:0:0:
448,192,12026,1,0,0:0:0:0:
64,192,12155,1,0,0:0:0:0:
448,192,12155,1,0,0:0:0:0:
192,192,12155,1,0,0:0:0:0:
320,192,12282,1,0,0:0:0:0:
192,192,12411,1,0,0:0:0:0:
64,192,12538,1,0,0:0:0:0:
192,192,12538,1,0,0:0:0:0:
320,192,12538,1,0,0:0:0:0:
448,192,12538,1,0,0:0:0:0:
320,192,12666,1,0,0:0:0:0:
192,192,12794,1,0,0:0:0:0:
64,192,12794,1,0,0:0:0:0:
64,192,12922,1,0,0:0:0:0:
192,192,12922,1,0,0:0:0:0:
320,192,12922,1,0,0:0:0:0:
448,192,12922,1,0,0:0:0:0:
320,192,13049,1,0,0:0:0:0:
192,192,13178,1,0,0:0:0:0:
64,192,13305,1,0,0:0:0:0:
192,192,13305,1,0,0:0:0:0:
320,192,13305,1,0,0:0:0:0:
448,192,13305,1,0,0:0:0:0:
448,192,13434,1,0,0:0:0:0:
64,192,13434,1,0,0:0:0:0:
448,192,13561,1,0,0:0:0:0:
192,192,13561,1,0,0:0:0:0:
448,192,13689,1,0,0:0:0:0:
64,192,13689,1,0,0:0:0:0:
320,192,13689,1,0,0:0:0:0:
320,192,13817,1,0,0:0:0:0:
64,192,13945,1,0,0:0:0:0:
64,192,14073,1,0,0:0:0:0:
192,192,14073,1,0,0:0:0:0:
448,192,14073,1,0,0:0:0:0:
320,192,14073,1,0,0:0:0:0:
192,192,14201,1,0,0:0:0:0:
320,192,14328,1,0,0:0:0:0:
448,192,14328,1,0,0:0:0:0:
448,192,14456,1,0,0:0:0:0:
320,192,14456,1,0,0:0:0:0:
192,192,14456,1,0,0:0:0:0:
64,192,14456,1,0,0:0:0:0:
192,192,14584,1,0,0:0:0:0:
320,192,14712,1,0,0:0:0:0:
448,192,14840,1,0,0:0:0:0:
320,192,14840,1,0,0:0:0:0:
192,192,14840,1,0,0:0:0:0:
64,192,14840,1,0,0:0:0:0:
64,192,14968,1,0,0:0:0:0:
448,192,14968,1,0,0:0:0:0:
64,192,15096,1,0,0:0:0:0:
320,192,15096,1,0,0:0:0:0:
64,192,15224,1,0,0:0:0:0:
448,192,15224,1,0,0:0:0:0:
192,192,15224,1,0,0:0:0:0:
192,192,15352,1,0,0:0:0:0:
448,192,15479,1,0,0:0:0:0:
448,192,15607,1,0,0:0:0:0:
320,192,15607,1,0,0:0:0:0:
64,192,15607,1,0,0:0:0:0:
192,192,15607,1,0,0:0:0:0:
64,192,15735,1,0,0:0:0:0:
448,192,15863,1,0,0:0:0:0:
320,192,15863,1,0,0:0:0:0:
320,192,15991,1,0,0:0:0:0:
448,192,15991,1,0,0:0:0:0:
64,192,15991,1,0,0:0:0:0:
192,192,15991,1,0,0:0:0:0:
192,192,16119,1,0,0:0:0:0:
448,192,16246,1,0,0:0:0:0:
64,192,16375,1,0,0:0:0:0:
192,192,16375,1,0,0:0:0:0:
320,192,16375,1,0,0:0:0:0:
448,192,16375,1,0,0:0:0:0:
64,192,16502,1,0,0:0:0:0:
320,192,16502,1,0,0:0:0:0:
64,192,16630,1,0,0:0:0:0:
192,192,16630,1,0,0:0:0:0:
64,192,16758,1,0,0:0:0:0:
320,192,16758,1,0,0:0:0:0:
448,192,16758,1,0,0:0:0:0:
192,192,16886,1,0,0:0:0:0:
320,192,17014,1,0,0:0:0:0:
64,192,17142,1,0,0:0:0:0:
192,192,17142,1,0,0:0:0:0:
320,192,17142,1,0,0:0:0:0:
448,192,17142,1,0,0:0:0:0:
448,192,17269,1,0,0:0:0:0:
192,192,17398,1,0,0:0:0:0:
64,192,17398,1,0,0:0:0:0:
192,192,17525,1,0,0:0:0:0:
64,192,17525,1,0,0:0:0:0:
448,192,17525,1,0,0:0:0:0:
320,192,17525,1,0,0:0:0:0:
320,192,17654,1,0,0:0:0:0:
64,192,17781,1,0,0:0:0:0:
448,192,17909,1,0,0:0:0:0:
320,192,17909,1,0,0:0:0:0:
192,192,17909,1,0,0:0:0:0:
64,192,17909,1,0,0:0:0:0:
448,192,18037,1,0,0:0:0:0:
192,192,18037,1,0,0:0:0:0:
448,192,18165,1,0,0:0:0:0:
320,192,18165,1,0,0:0:0:0:
448,192,18293,1,0,0:0:0:0:
192,192,18293,1,0,0:0:0:0:
64,192,18293,1,0,0:0:0:0:
320,192,18421,1,0,0:0:0:0:
64,192,18421,1,0,0:0:0:0:
64,192,18548,1,0,0:0:0:0:
448,192,18548,1,0,0:0:0:0:
64,192,18676,1,0,0:0:0:0:
192,192,18676,1,0,0:0:0:0:
320,192,18676,1,0,0:0:0:0:
448,192,18676,1,0,0:0:0:0:
320,192,18804,1,0,0:0:0:0:
64,192,18932,1,0,0:0:0:0:
448,192,18932,1,0,0:0:0:0:
64,192,19060,1,0,0:0:0:0:
192,192,19060,1,0,0:0:0:0:
320,192,19060,1,0,0:0:0:0:
448,192,19060,1,0,0:0:0:0:
192,192,19188,1,0,0:0:0:0:
320,192,19316,1,0,0:0:0:0:
64,192,19444,1,0,0:0:0:0:
192,192,19444,1,0,0:0:0:0:
448,192,19444,1,0,0:0:0:0:
320,192,19444,1,0,0:0:0:0:
64,192,19571,1,0,0:0:0:0:
192,192,19571,1,0,0:0:0:0:
64,192,19699,1,0,0:0:0:0:
448,192,19699,1,0,0:0:0:0:
64,192,19827,1,0,0:0:0:0:
192,192,19827,1,0,0:0:0:0:
320,192,19827,1,0,0:0:0:0:
448,192,19827,1,0,0:0:0:0:
320,192,19955,1,0,0:0:0:0:
64,192,20083,1,0,0:0:0:0:
64,192,20211,1,0,0:0:0:0:
192,192,20211,1,0,0:0:0:0:
448,192,20211,1,0,0:0:0:0:
320,192,20211,1,0,0:0:0:0:
192,192,20339,1,0,0:0:0:0:
64,192,20466,1,0,0:0:0:0:
448,192,20466,1,0,0:0:0:0:
64,192,20595,1,0,0:0:0:0:
192,192,20595,1,0,0:0:0:0:
448,192,20595,1,0,0:0:0:0:
320,192,20595,1,0,0:0:0:0:
320,192,20722,1,0,0:0:0:0:
192,192,20850,1,0,0:0:0:0:
64,192,20978,1,0,0:0:0:0:
192,192,20978,1,0,0:0:0:0:
320,192,20978,1,0,0:0:0:0:
448,192,20978,1,0,0:0:0:0:
448,192,21106,1,0,0:0:0:0:
64,192,21106,1,0,0:0:0:0:
192,192,21234,1,0,0:0:0:0:
448,192,21234,1,0,0:0:0:0:
64,192,21362,1,0,0:0:0:0:
448,192,21362,1,0,0:0:0:0:
320,192,21362,1,0,0:0:0:0:
64,192,21489,1,0,0:0:0:0:
192,192,21489,1,0,0:0:0:0:
192,192,21618,1,0,0:0:0:0:
448,192,21618,1,0,0:0:0:0:
64,192,21745,1,0,0:0:0:0:
192,192,21745,1,0,0:0:0:0:
320,192,21745,1,0,0:0:0:0:
448,192,21745,1,0,0:0:0:0:
64,192,21873,1,0,0:0:0:0:
192,192,22001,1,0,0:0:0:0:
448,192,22001,1,0,0:0:0:0:
64,192,22129,1,0,0:0:0:0:
192,192,22129,1,0,0:0:0:0:
320,192,22129,1,0,0:0:0:0:
448,192,22129,1,0,0:0:0:0:
320,192,22257,1,0,0:0:0:0:
192,192,22385,1,0,0:0:0:0:
64,192,22512,1,0,0:0:0:0:
448,192,22512,1,0,0:0:0:0:
192,192,22512,1,0,0:0:0:0:
64,192,22641,1,0,0:0:0:0:
448,192,22641,1,0,0:0:0:0:
64,192,22768,1,0,0:0:0:0:
320,192,22768,1,0,0:0:0:0:
64,192,22896,1,0,0:0:0:0:
192,192,22896,1,0,0:0:0:0:
320,192,22896,1,0,0:0:0:0:
448,192,22896,1,0,0:0:0:0:
192,192,23024,1,0,0:0:0:0:
320,192,23152,1,0,0:0:0:0:
64,192,23280,1,0,0:0:0:0:
192,192,23280,1,0,0:0:0:0:
320,192,23280,1,0,0:0:0:0:
448,192,23280,1,0,0:0:0:0:
448,192,23408,1,0,0:0:0:0:
64,192,23536,1,0,0:0:0:0:
320,192,23536,1,0,0:0:0:0:
64,192,23664,1,0,0:0:0:0:
192,192,23664,1,0,0:0:0:0:
448,192,23664,1,0,0:0:0:0:
320,192,23791,1,0,0:0:0:0:
192,192,23919,1,0,0:0:0:0:
64,192,24047,1,0,0:0:0:0:
448,192,24047,1,0,0:0:0:0:
192,192,24175,1,0,0:0:0:0:
448,192,24175,1,0,0:0:0:0:
64,192,24303,1,0,0:0:0:0:
448,192,24303,1,0,0:0:0:0:
64,192,24431,1,0,0:0:0:0:
192,192,24431,1,0,0:0:0:0:
448,192,24431,1,0,0:0:0:0:
64,192,24559,1,0,0:0:0:0:
320,192,24559,1,0,0:0:0:0:
64,192,24686,1,0,0:0:0:0:
448,192,24686,1,0,0:0:0:0:
64,192,24814,1,0,0:0:0:0:
192,192,24814,1,0,0:0:0:0:
448,192,24814,1,0,0:0:0:0:
320,192,24814,1,0,0:0:0:0:
192,192,24942,1,0,0:0:0:0:
320,192,25070,1,0,0:0:0:0:
448,192,25070,1,0,0:0:0:0:
64,192,25198,1,0,0:0:0:0:
192,192,25198,1,0,0:0:0:0:
448,192,25198,1,0,0:0:0:0:
320,192,25198,1,0,0:0:0:0:
192,192,25326,1,0,0:0:0:0:
64,192,25454,1,0,0:0:0:0:
64,192,25582,1,0,0:0:0:0:
192,192,25582,1,0,0:0:0:0:
448,192,25582,1,0,0:0:0:0:
320,192,25582,1,0,0:0:0:0:
320,192,25709,1,0,0:0:0:0:
448,192,25709,1,0,0:0:0:0:
192,192,25838,1,0,0:0:0:0:
64,192,25838,1,0,0:0:0:0:
64,192,25965,1,0,0:0:0:0:
192,192,25965,1,0,0:0:0:0:
320,192,25965,1,0,0:0:0:0:
448,192,25965,1,0,0:0:0:0:
320,192,26093,1,0,0:0:0:0:
192,192,26221,1,0,0:0:0:0:
64,192,26349,1,0,0:0:0:0:
192,192,26349,1,0,0:0:0:0:
448,192,26349,1,0,0:0:0:0:
320,192,26349,1,0,0:0:0:0:
448,192,26477,1,0,0:0:0:0:
64,192,26605,1,0,0:0:0:0:
192,192,26605,1,0,0:0:0:0:
64,192,26732,1,0,0:0:0:0:
192,192,26732,1,0,0:0:0:0:
320,192,26732,1,0,0:0:0:0:
448,192,26732,1,0,0:0:0:0:
320,192,26861,1,0,0:0:0:0:
448,192,26988,1,0,0:0:0:0:
64,192,27116,1,0,0:0:0:0:
192,192,27116,1,0,0:0:0:0:
320,192,27116,1,0,0:0:0:0:
448,192,27116,1,0,0:0:0:0:
192,192,27244,1,0,0:0:0:0:
64,192,27244,1,0,0:0:0:0:
64,192,27372,1,0,0:0:0:0:
320,192,27372,1,0,0:0:0:0:
64,192,27500,1,0,0:0:0:0:
448,192,27500,1,0,0:0:0:0:
320,192,27500,1,0,0:0:0:0:
448,192,27628,1,0,0:0:0:0:
320,192,27628,1,0,0:0:0:0:
448,192,27755,1,0,0:0:0:0:
192,192,27755,1,0,0:0:0:0:
64,192,27884,1,0,0:0:0:0:
192,192,27884,1,0,0:0:0:0:
320,192,27884,1,0,0:0:0:0:
448,192,27884,1,0,0:0:0:0:
320,192,28011,1,0,0:0:0:0:
192,192,28139,1,0,0:0:0:0:
64,192,28139,1,0,0:0:0:0:
320,192,28267,1,0,0:0:0:0:
448,192,28267,1,0,0:0:0:0:
192,192,28267,1,0,0:0:0:0:
64,192,28267,1,0,0:0:0:0:
448,192,28395,1,0,0:0:0:0:
320,192,28523,1,0,0:0:0:0:
64,192,28651,1,0,0:0:0:0:
192,192,28651,1,0,0:0:0:0:
448,192,28651,1,0,0:0:0:0:
64,192,28779,1,0,0:0:0:0:
320,192,28779,1,0,0:0:0:0:
64,192,28906,1,0,0:0:0:0:
192,192,28906,1,0,0:0:0:0:
192,192,29034,1,0,0:0:0:0:
64,192,29034,1,0,0:0:0:0:
320,192,29034,1,0,0:0:0:0:
448,192,29034,1,0,0:0:0:0:
320,192,29162,1,0,0:0:0:0:
192,192,29290,1,0,0:0:0:0:
320,192,29418,1,0,0:0:0:0:
448,192,29418,1,0,0:0:0:0:
192,192,29418,1,0,0:0:0:0:
64,192,29418,1,0,0:0:0:0:
448,192,29546,1,0,0:0:0:0:
320,192,29674,1,0,0:0:0:0:
64,192,29674,1,0,0:0:0:0:
64,192,29802,1,0,0:0:0:0:
192,192,29802,1,0,0:0:0:0:
448,192,29802,1,0,0:0:0:0:
320,192,29929,1,0,0:0:0:0:
192,192,30058,1,0,0:0:0:0:
64,192,30185,1,0,0:0:0:0:
448,192,30185,1,0,0:0:0:0:
448,192,30313,1,0,0:0:0:0:
192,192,30313,1,0,0:0:0:0:
320,192,30441,1,0,0:0:0:0:
448,192,30441,1,0,0:0:0:0:
64,192,30569,1,0,0:0:0:0:
192,192,30569,1,0,0:0:0:0:
448,192,30569,1,0,0:0:0:0:
64,192,30696,1,0,0:0:0:0:
320,192,30696,1,0,0:0:0:0:
64,192,30825,1,0,0:0:0:0:
192,192,30825,1,0,0:0:0:0:
192,192,30952,1,0,0:0:0:0:
64,192,30952,1,0,0:0:0:0:
320,192,30952,1,0,0:0:0:0:
448,192,30952,1,0,0:0:0:0:
320,192,31081,1,0,0:0:0:0:
448,192,31208,1,0,0:0:0:0:
64,192,31208,1,0,0:0:0:0:
320,192,31336,1,0,0:0:0:0:
448,192,31336,1,0,0:0:0:0:
192,192,31336,1,0,0:0:0:0:
64,192,31336,1,0,0:0:0:0:
192,192,31464,1,0,0:0:0:0:
64,192,31592,1,0,0:0:0:0:
448,192,31592,1,0,0:0:0:0:
192,192,31720,1,0,0:0:0:0:
64,192,31720,1,0,0:0:0:0:
320,192,31720,1,0,0:0:0:0:
448,192,31720,1,0,0:0:0:0:
320,192,31848,1,0,0:0:0:0:
64,192,31848,1,0,0:0:0:0:
448,192,31975,1,0,0:0:0:0:
192,192,31975,1,0,0:0:0:0:
320,192,32104,1,0,0:0:0:0:
448,192,32104,1,0,0:0:0:0:
192,192,32104,1,0,0:0:0:0:
64,192,32104,1,0,0:0:0:0:
64,192,32231,1,0,0:0:0:0:
192,192,32231,1,0,0:0:0:0:
320,192,32359,1,0,0:0:0:0:
448,192,32359,1,0,0:0:0:0:
192,192,32487,1,0,0:0:0:0:
64,192,32487,1,0,0:0:0:0:
320,192,32487,1,0,0:0:0:0:
448,192,32487,1,0,0:0:0:0:
192,192,32615,1,0,0:0:0:0:
64,192,32743,1,0,0:0:0:0:
448,192,32743,1,0,0:0:0:0:
320,192,32871,1,0,0:0:0:0:
448,192,32871,1,0,0:0:0:0:
192,192,32871,1,0,0:0:0:0:
64,192,32871,1,0,0:0:0:0:
320,192,32999,1,0,0:0:0:0:
448,192,33126,1,0,0:0:0:0:
64,192,33126,1,0,0:0:0:0:
192,192,33254,1,0,0:0:0:0:
64,192,33254,1,0,0:0:0:0:
320,192,33254,1,0,0:0:0:0:
448,192,33254,1,0,0:0:0:0:
320,192,33382,1,0,0:0:0:0:
448,192,33382,1,0,0:0:0:0:
192,192,33510,1,0,0:0:0:0:
64,192,33510,1,0,0:0:0:0:
320,192,33638,1,0,0:0:0:0:
448,192,33638,1,0,0:0:0:0:
192,192,33638,1,0,0:0:0:0:
64,192,33638,1,0,0:0:0:0:
192,192,33766,1,0,0:0:0:0:
448,192,33766,1,0,0:0:0:0:
320,192,33894,1,0,0:0:0:0:
64,192,33894,1,0,0:0:0:0:
192,192,34022,1,0,0:0:0:0:
64,192,34022,1,0,0:0:0:0:
320,192,34022,1,0,0:0:0:0:
448,192,34022,1,0,0:0:0:0:
192,192,34149,1,0,0:0:0:0:
320,192,34277,1,0,0:0:0:0:
448,192,34277,1,0,0:0:0:0:
320,192,34405,1,0,0:0:0:0:
448,192,34405,1,0,0:0:0:0:
192,192,34405,1,0,0:0:0:0:
64,192,34405,1,0,0:0:0:0:
192,192,34533,1,0,0:0:0:0:
320,192,34661,1,0,0:0:0:0:
64,192,34789,1,0,0:0:0:0:
448,192,34789,1,0,0:0:0:0:
64,192,34916,1,0,0:0:0:0:
320,192,34916,1,0,0:0:0:0:
64,192,35045,1,0,0:0:0:0:
192,192,35045,1,0,0:0:0:0:
192,192,35172,1,0,0:0:0:0:
64,192,35172,1,0,0:0:0:0:
320,192,35172,1,0,0:0:0:0:
448,192,35172,1,0,0:0:0:0:
192,192,35301,1,0,0:0:0:0:
448,192,35301,1,0,0:0:0:0:
320,192,35428,1,0,0:0:0:0:
448,192,35428,1,0,0:0:0:0:
320,192,35556,1,0,0:0:0:0:
448,192,35556,1,0,0:0:0:0:
192,192,35556,1,0,0:0:0:0:
64,192,35556,1,0,0:0:0:0:
192,192,35684,1,0,0:0:0:0:
64,192,35812,1,0,0:0:0:0:
320,192,35812,1,0,0:0:0:0:
64,192,35940,1,0,0:0:0:0:
448,192,35940,1,0,0:0:0:0:
192,192,35940,1,0,0:0:0:0:
320,192,36068,1,0,0:0:0:0:
448,192,36195,1,0,0:0:0:0:
64,192,36324,1,0,0:0:0:0:
320,192,36324,1,0,0:0:0:0:
64,192,36451,1,0,0:0:0:0:
448,192,36451,1,0,0:0:0:0:
64,192,36579,1,0,0:0:0:0:
192,192,36579,1,0,0:0:0:0:
64,192,36707,1,0,0:0:0:0:
320,192,36707,1,0,0:0:0:0:
448,192,36707,1,0,0:0:0:0:
64,192,36835,1,0,0:0:0:0:
448,192,36835,1,0,0:0:0:0:
320,192,36963,1,0,0:0:0:0:
448,192,36963,1,0,0:0:0:0:
192,192,37091,1,0,0:0:0:0:
64,192,37091,1,0,0:0:0:0:
320,192,37091,1,0,0:0:0:0:
448,192,37091,1,0,0:0:0:0:
192,192,37218,1,0,0:0:0:0:
64,192,37346,1,0,0:0:0:0:
320,192,37346,1,0,0:0:0:0:
320,192,37474,1,0,0:0:0:0:
448,192,37474,1,0,0:0:0:0:
192,192,37474,1,0,0:0:0:0:
64,192,37474,1,0,0:0:0:0:
448,192,37602,1,0,0:0:0:0:
320,192,37730,1,0,0:0:0:0:
192,192,37730,1,0,0:0:0:0:
192,192,37858,1,0,0:0:0:0:
64,192,37858,1,0,0:0:0:0:
320,192,37858,1,0,0:0:0:0:
448,192,37858,1,0,0:0:0:0:
64,192,37986,1,0,0:0:0:0:
320,192,37986,1,0,0:0:0:0:
192,192,38114,1,0,0:0:0:0:
448,192,38114,1,0,0:0:0:0:
320,192,38242,1,0,0:0:0:0:
448,192,38242,1,0,0:0:0:0:
192,192,38242,1,0,0:0:0:0:
64,192,38242,1,0,0:0:0:0:
320,192,38369,1,0,0:0:0:0:
192,192,38497,1,0,0:0:0:0:
448,192,38497,1,0,0:0:0:0:
192,192,38625,1,0,0:0:0:0:
64,192,38625,1,0,0:0:0:0:
320,192,38625,1,0,0:0:0:0:
448,192,38625,1,0,0:0:0:0:
64,192,38753,1,0,0:0:0:0:
192,192,38881,1,0,0:0:0:0:
320,192,38881,1,0,0:0:0:0:
320,192,39009,1,0,0:0:0:0:
448,192,39009,1,0,0:0:0:0:
192,192,39009,1,0,0:0:0:0:
64,192,39009,1,0,0:0:0:0:
448,192,39136,1,0,0:0:0:0:
192,192,39265,1,0,0:0:0:0:
64,192,39265,1,0,0:0:0:0:
192,192,39392,1,0,0:0:0:0:
64,192,39392,1,0,0:0:0:0:
320,192,39392,1,0,0:0:0:0:
448,192,39392,1,0,0:0:0:0:
320,192,39520,1,0,0:0:0:0:
448,192,39520,1,0,0:0:0:0:
320,192,39648,1,0,0:0:0:0:
192,192,39648,1,0,0:0:0:0:
320,192,39776,1,0,0:0:0:0:
448,192,39776,1,0,0:0:0:0:
192,192,39776,1,0,0:0:0:0:
64,192,39776,1,0,0:0:0:0:
64,192,39904,1,0,0:0:0:0:
192,192,39904,1,0,0:0:0:0:
320,192,40032,1,0,0:0:0:0:
448,192,40032,1,0,0:0:0:0:
192,192,40159,1,0,0:0:0:0:
64,192,40159,1,0,0:0:0:0:
320,192,40159,1,0,0:0:0:0:
448,192,40159,1,0,0:0:0:0:
192,192,40288,1,0,0:0:0:0:
64,192,40415,1,0,0:0:0:0:
320,192,40415,1,0,0:0:0:0:
64,192,40544,1,0,0:0:0:0:
192,192,40544,1,0,0:0:0:0:
448,192,40544,1,0,0:0:0:0:
320,192,40671,1,0,0:0:0:0:
192,192,40799,1,0,0:0:0:0:
64,192,40927,1,0,0:0:0:0:
448,192,40927,1,0,0:0:0:0:
320,192,40927,1,0,0:0:0:0:
192,192,41055,1,0,0:0:0:0:
448,192,41055,1,0,0:0:0:0:
64,192,41183,1,0,0:0:0:0:
192,192,41183,1,0,0:0:0:0:
64,192,41311,1,0,0:0:0:0:
192,192,41311,1,0,0:0:0:0:
448,192,41311,1,0,0:0:0:0:
64,192,41438,1,0,0:0:0:0:
320,192,41438,1,0,0:0:0:0:
320,192,41566,1,0,0:0:0:0:
448,192,41566,1,0,0:0:0:0:
64,192,41694,1,0,0:0:0:0:
192,192,41694,1,0,0:0:0:0:
448,192,41694,1,0,0:0:0:0:
320,192,41822,1,0,0:0:0:0:
192,192,41950,1,0,0:0:0:0:
64,192,41950,1,0,0:0:0:0:
64,192,42078,1,0,0:0:0:0:
448,192,42078,1,0,0:0:0:0:
320,192,42078,1,0,0:0:0:0:
192,192,42206,1,0,0:0:0:0:
320,192,42334,1,0,0:0:0:0:
64,192,42461,1,0,0:0:0:0:
192,192,42461,1,0,0:0:0:0:
448,192,42461,1,0,0:0:0:0:
64,192,42589,5,0,0:0:0:0:
320,192,42589,1,0,0:0:0:0:
192,192,42717,1,0,0:0:0:0:
320,192,42717,1,0,0:0:0:0:
64,192,42845,1,0,0:0:0:0:
320,192,42845,1,0,0:0:0:0:
448,192,42845,1,0,0:0:0:0:
192,192,42973,1,0,0:0:0:0:
448,192,42973,1,0,0:0:0:0:
320,192,43101,1,0,0:0:0:0:
192,192,43101,1,0,0:0:0:0:
320,192,43229,5,0,0:0:0:0:
448,192,43229,1,0,0:0:0:0:
192,192,43229,1,0,0:0:0:0:
64,192,43229,1,0,0:0:0:0:
64,192,43356,1,0,0:0:0:0:
192,192,43485,1,0,0:0:0:0:
64,192,43485,1,0,0:0:0:0:
320,192,43485,1,0,0:0:0:0:
448,192,43485,1,0,0:0:0:0:
192,192,43612,1,0,0:0:0:0:
320,192,43740,1,0,0:0:0:0:
448,192,43740,1,0,0:0:0:0:
192,192,43740,1,0,0:0:0:0:
64,192,43740,1,0,0:0:0:0:
320,192,43868,1,0,0:0:0:0:
192,192,43996,1,0,0:0:0:0:
64,192,43996,1,0,0:0:0:0:
320,192,43996,1,0,0:0:0:0:
448,192,43996,1,0,0:0:0:0:
448,192,44124,1,0,0:0:0:0:
192,192,44124,1,0,0:0:0:0:
320,192,44252,1,0,0:0:0:0:
192,192,44252,1,0,0:0:0:0:
64,192,44379,1,0,0:0:0:0:
320,192,44379,1,0,0:0:0:0:
448,192,44379,1,0,0:0:0:0:
192,192,44508,1,0,0:0:0:0:
64,192,44508,1,0,0:0:0:0:
320,192,44635,1,0,0:0:0:0:
192,192,44635,1,0,0:0:0:0:
320,192,44764,1,0,0:0:0:0:
448,192,44764,1,0,0:0:0:0:
192,192,44764,1,0,0:0:0:0:
64,192,44764,1,0,0:0:0:0:
448,192,44891,1,0,0:0:0:0:
192,192,45019,1,0,0:0:0:0:
64,192,45019,1,0,0:0:0:0:
320,192,45019,1,0,0:0:0:0:
448,192,45019,1,0,0:0:0:0:
320,192,45147,1,0,0:0:0:0:
320,192,45275,1,0,0:0:0:0:
448,192,45275,1,0,0:0:0:0:
192,192,45275,1,0,0:0:0:0:
64,192,45275,1,0,0:0:0:0:
192,192,45402,1,0,0:0:0:0:
192,192,45531,1,0,0:0:0:0:
64,192,45531,1,0,0:0:0:0:
320,192,45531,1,0,0:0:0:0:
448,192,45531,1,0,0:0:0:0:
64,192,45658,1,0,0:0:0:0:
320,192,45658,1,0,0:0:0:0:
192,192,45786,1,0,0:0:0:0:
320,192,45786,1,0,0:0:0:0:
64,192,45914,1,0,0:0:0:0:
192,192,45914,1,0,0:0:0:0:
448,192,45914,1,0,0:0:0:0:
320,192,46042,1,0,0:0:0:0:
448,192,46042,1,0,0:0:0:0:
192,192,46170,1,0,0:0:0:0:
320,192,46170,1,0,0:0:0:0:
320,192,46298,1,0,0:0:0:0:
448,192,46298,1,0,0:0:0:0:
192,192,46298,1,0,0:0:0:0:
64,192,46298,1,0,0:0:0:0:
448,192,46426,1,0,0:0:0:0:
192,192,46554,1,0,0:0:0:0:
64,192,46554,1,0,0:0:0:0:
320,192,46554,1,0,0:0:0:0:
448,192,46554,1,0,0:0:0:0:
192,192,46681,1,0,0:0:0:0:
320,192,46809,1,0,0:0:0:0:
448,192,46809,1,0,0:0:0:0:
192,192,46809,1,0,0:0:0:0:
64,192,46809,1,0,0:0:0:0:
320,192,46937,1,0,0:0:0:0:
192,192,47065,1,0,0:0:0:0:
64,192,47065,1,0,0:0:0:0:
320,192,47065,1,0,0:0:0:0:
448,192,47065,1,0,0:0:0:0:
64,192,47193,1,0,0:0:0:0:
320,192,47321,1,0,0:0:0:0:
448,192,47321,1,0,0:0:0:0:
192,192,47321,1,0,0:0:0:0:
64,192,47321,1,0,0:0:0:0:
192,192,47449,1,0,0:0:0:0:
192,192,47576,1,0,0:0:0:0:
64,192,47576,1,0,0:0:0:0:
320,192,47576,1,0,0:0:0:0:
448,192,47576,1,0,0:0:0:0:
448,192,47705,1,0,0:0:0:0:
320,192,47832,1,0,0:0:0:0:
448,192,47832,1,0,0:0:0:0:
192,192,47832,1,0,0:0:0:0:
64,192,47832,1,0,0:0:0:0:
320,192,47960,1,0,0:0:0:0:
64,192,48088,1,0,0:0:0:0:
320,192,48152,1,0,0:0:0:0:
192,192,48216,1,0,0:0:0:0:
64,192,48216,1,0,0:0:0:0:
448,192,48216,1,0,0:0:0:0:
320,192,48344,1,0,0:0:0:0:
192,192,48472,1,0,0:0:0:0:
64,192,48599,1,0,0:0:0:0:
448,192,48599,1,0,0:0:0:0:
320,192,48599,1,0,0:0:0:0:
192,192,48728,1,0,0:0:0:0:
448,192,48728,1,0,0:0:0:0:
64,192,48855,1,0,0:0:0:0:
320,192,48855,1,0,0:0:0:0:
64,192,48983,1,0,0:0:0:0:
448,192,48983,1,0,0:0:0:0:
192,192,48983,1,0,0:0:0:0:
320,192,49111,1,0,0:0:0:0:
64,192,49111,1,0,0:0:0:0:
192,192,49239,1,0,0:0:0:0:
448,192,49239,1,0,0:0:0:0:
64,192,49367,1,0,0:0:0:0:
320,192,49367,1,0,0:0:0:0:
192,192,49367,1,0,0:0:0:0:
448,192,49367,1,0,0:0:0:0:
320,192,49495,1,0,0:0:0:0:
192,192,49622,1,0,0:0:0:0:
448,192,49622,1,0,0:0:0:0:
320,192,49622,1,0,0:0:0:0:
64,192,49622,1,0,0:0:0:0:
192,192,49751,1,0,0:0:0:0:
320,192,49878,1,0,0:0:0:0:
64,192,49878,1,0,0:0:0:0:
192,192,49878,1,0,0:0:0:0:
448,192,49878,1,0,0:0:0:0:
64,192,50006,1,0,0:0:0:0:
192,192,50134,1,0,0:0:0:0:
448,192,50134,1,0,0:0:0:0:
320,192,50134,1,0,0:0:0:0:
64,192,50134,1,0,0:0:0:0:
448,192,50262,1,0,0:0:0:0:
320,192,50262,1,0,0:0:0:0:
64,192,50390,1,0,0:0:0:0:
448,192,50390,1,0,0:0:0:0:
64,192,50518,1,0,0:0:0:0:
192,192,50518,1,0,0:0:0:0:
320,192,50518,1,0,0:0:0:0:
192,192,50646,1,0,0:0:0:0:
448,192,50646,1,0,0:0:0:0:
320,192,50774,1,0,0:0:0:0:
448,192,50774,1,0,0:0:0:0:
320,192,50901,1,0,0:0:0:0:
64,192,50901,1,0,0:0:0:0:
192,192,50901,1,0,0:0:0:0:
448,192,50901,1,0,0:0:0:0:
64,192,51029,1,0,0:0:0:0:
192,192,51157,1,0,0:0:0:0:
448,192,51157,1,0,0:0:0:0:
320,192,51157,1,0,0:0:0:0:
64,192,51157,1,0,0:0:0:0:
192,192,51285,1,0,0:0:0:0:
320,192,51413,1,0,0:0:0:0:
64,192,51413,1,0,0:0:0:0:
192,192,51413,1,0,0:0:0:0:
448,192,51413,1,0,0:0:0:0:
320,192,51541,1,0,0:0:0:0:
192,192,51669,1,0,0:0:0:0:
448,192,51669,1,0,0:0:0:0:
320,192,51669,1,0,0:0:0:0:
64,192,51669,1,0,0:0:0:0:
64,192,51796,1,0,0:0:0:0:
192,192,51796,1,0,0:0:0:0:
192,192,51924,1,0,0:0:0:0:
448,192,51924,1,0,0:0:0:0:
64,192,52052,1,0,0:0:0:0:
320,192,52052,1,0,0:0:0:0:
448,192,52052,1,0,0:0:0:0:
192,192,52180,1,0,0:0:0:0:
320,192,52180,1,0,0:0:0:0:
448,192,52308,1,0,0:0:0:0:
192,192,52308,1,0,0:0:0:0:
320,192,52436,1,0,0:0:0:0:
64,192,52436,1,0,0:0:0:0:
192,192,52436,1,0,0:0:0:0:
448,192,52436,1,0,0:0:0:0:
320,192,52564,1,0,0:0:0:0:
192,192,52692,1,0,0:0:0:0:
448,192,52692,1,0,0:0:0:0:
320,192,52692,1,0,0:0:0:0:
64,192,52692,1,0,0:0:0:0:
192,192,52819,1,0,0:0:0:0:
320,192,52948,1,0,0:0:0:0:
64,192,52948,1,0,0:0:0:0:
192,192,52948,1,0,0:0:0:0:
448,192,52948,1,0,0:0:0:0:
448,192,53075,1,0,0:0:0:0:
192,192,53203,1,0,0:0:0:0:
448,192,53203,1,0,0:0:0:0:
320,192,53203,1,0,0:0:0:0:
64,192,53203,1,0,0:0:0:0:
320,192,53331,1,0,0:0:0:0:
320,192,53459,1,0,0:0:0:0:
64,192,53459,1,0,0:0:0:0:
192,192,53459,1,0,0:0:0:0:
448,192,53459,1,0,0:0:0:0:
64,192,53587,1,0,0:0:0:0:
320,192,53715,1,0,0:0:0:0:
64,192,53715,1,0,0:0:0:0:
192,192,53715,1,0,0:0:0:0:
448,192,53715,1,0,0:0:0:0:
192,192,53842,1,0,0:0:0:0:
192,192,53971,1,0,0:0:0:0:
448,192,53971,1,0,0:0:0:0:
320,192,53971,1,0,0:0:0:0:
64,192,53971,1,0,0:0:0:0:
448,192,54098,1,0,0:0:0:0:
320,192,54226,1,0,0:0:0:0:
64,192,54226,1,0,0:0:0:0:
64,192,54354,1,0,0:0:0:0:
192,192,54354,1,0,0:0:0:0:
448,192,54354,1,0,0:0:0:0:
320,192,54482,1,0,0:0:0:0:
448,192,54482,1,0,0:0:0:0:
64,192,54610,1,0,0:0:0:0:
320,192,54610,1,0,0:0:0:0:
64,192,54738,1,0,0:0:0:0:
192,192,54738,1,0,0:0:0:0:
448,192,54738,1,0,0:0:0:0:
64,192,54865,1,0,0:0:0:0:
320,192,54865,1,0,0:0:0:0:
64,192,54994,1,0,0:0:0:0:
192,192,54994,1,0,0:0:0:0:
64,192,55121,1,0,0:0:0:0:
320,192,55121,1,0,0:0:0:0:
448,192,55121,1,0,0:0:0:0:
192,192,55249,1,0,0:0:0:0:
448,192,55249,1,0,0:0:0:0:
320,192,55377,1,0,0:0:0:0:
448,192,55377,1,0,0:0:0:0:
192,192,55505,5,0,0:0:0:0:
320,192,55505,1,0,0:0:0:0:
64,192,55505,1,0,0:0:0:0:
448,192,55505,1,0,0:0:0:0:
64,192,55633,1,0,0:0:0:0:
320,192,55761,1,0,0:0:0:0:
448,192,55761,1,0,0:0:0:0:
192,192,55761,1,0,0:0:0:0:
64,192,55761,1,0,0:0:0:0:
320,192,55889,1,0,0:0:0:0:
192,192,56016,1,0,0:0:0:0:
64,192,56016,1,0,0:0:0:0:
320,192,56016,1,0,0:0:0:0:
448,192,56016,1,0,0:0:0:0:
192,192,56144,1,0,0:0:0:0:
320,192,56272,1,0,0:0:0:0:
448,192,56272,1,0,0:0:0:0:
192,192,56272,1,0,0:0:0:0:
64,192,56272,1,0,0:0:0:0:
64,192,56400,1,0,0:0:0:0:
320,192,56400,1,0,0:0:0:0:
192,192,56528,1,0,0:0:0:0:
320,192,56528,1,0,0:0:0:0:
448,192,56656,1,0,0:0:0:0:
192,192,56656,1,0,0:0:0:0:
64,192,56656,1,0,0:0:0:0:
320,192,56784,1,0,0:0:0:0:
448,192,56784,1,0,0:0:0:0:
192,192,56912,1,0,0:0:0:0:
320,192,56912,1,0,0:0:0:0:
192,192,57039,1,0,0:0:0:0:
64,192,57039,1,0,0:0:0:0:
320,192,57039,1,0,0:0:0:0:
448,192,57039,1,0,0:0:0:0:
64,192,57167,1,0,0:0:0:0:
320,192,57295,1,0,0:0:0:0:
448,192,57295,1,0,0:0:0:0:
192,192,57295,1,0,0:0:0:0:
64,192,57295,1,0,0:0:0:0:
192,192,57423,1,0,0:0:0:0:
192,192,57551,1,0,0:0:0:0:
64,192,57551,1,0,0:0:0:0:
320,192,57551,1,0,0:0:0:0:
448,192,57551,1,0,0:0:0:0:
320,192,57679,1,0,0:0:0:0:
320,192,57806,1,0,0:0:0:0:
448,192,57806,1,0,0:0:0:0:
192,192,57806,1,0,0:0:0:0:
64,192,57806,1,0,0:0:0:0:
448,192,57935,1,0,0:0:0:0:
64,192,57935,1,0,0:0:0:0:
320,192,58062,1,0,0:0:0:0:
192,192,58062,1,0,0:0:0:0:
448,192,58191,1,0,0:0:0:0:
320,192,58191,1,0,0:0:0:0:
64,192,58191,1,0,0:0:0:0:
192,192,58318,1,0,0:0:0:0:
64,192,58318,1,0,0:0:0:0:
320,192,58446,1,0,0:0:0:0:
192,192,58446,1,0,0:0:0:0:
192,192,58574,1,0,0:0:0:0:
64,192,58574,1,0,0:0:0:0:
320,192,58574,1,0,0:0:0:0:
448,192,58574,1,0,0:0:0:0:
64,192,58702,1,0,0:0:0:0:
320,192,58830,1,0,0:0:0:0:
448,192,58830,1,0,0:0:0:0:
192,192,58830,1,0,0:0:0:0:
64,192,58830,1,0,0:0:0:0:
320,192,58958,1,0,0:0:0:0:
192,192,59085,1,0,0:0:0:0:
64,192,59085,1,0,0:0:0:0:
320,192,59085,1,0,0:0:0:0:
448,192,59085,1,0,0:0:0:0:
192,192,59214,1,0,0:0:0:0:
320,192,59341,1,0,0:0:0:0:
448,192,59341,1,0,0:0:0:0:
192,192,59341,1,0,0:0:0:0:
64,192,59341,1,0,0:0:0:0:
448,192,59469,1,0,0:0:0:0:
192,192,59597,1,0,0:0:0:0:
64,192,59597,1,0,0:0:0:0:
320,192,59597,1,0,0:0:0:0:
448,192,59597,1,0,0:0:0:0:
320,192,59725,1,0,0:0:0:0:
320,192,59853,1,0,0:0:0:0:
448,192,59853,1,0,0:0:0:0:
192,192,59853,1,0,0:0:0:0:
64,192,59853,1,0,0:0:0:0:
64,192,59981,1,0,0:0:0:0:
192,192,60108,1,0,0:0:0:0:
64,192,60108,1,0,0:0:0:0:
320,192,60108,1,0,0:0:0:0:
448,192,60108,1,0,0:0:0:0:
192,192,60236,1,0,0:0:0:0:
448,192,60364,1,0,0:0:0:0:
192,192,60428,1,0,0:0:0:0:
320,192,60492,1,0,0:0:0:0:
448,192,60492,1,0,0:0:0:0:
64,192,60492,1,0,0:0:0:0:
192,192,60620,1,0,0:0:0:0:
320,192,60748,1,0,0:0:0:0:
448,192,60876,1,0,0:0:0:0:
64,192,60876,1,0,0:0:0:0:
192,192,60876,1,0,0:0:0:0:
320,192,61004,1,0,0:0:0:0:
64,192,61004,1,0,0:0:0:0:
448,192,61132,1,0,0:0:0:0:
192,192,61132,1,0,0:0:0:0:
448,192,61259,1,0,0:0:0:0:
64,192,61259,1,0,0:0:0:0:
320,192,61259,1,0,0:0:0:0:
192,192,61387,1,0,0:0:0:0:
448,192,61387,1,0,0:0:0:0:
320,192,61515,1,0,0:0:0:0:
64,192,61515,1,0,0:0:0:0:
448,192,61643,1,0,0:0:0:0:
192,192,61643,1,0,0:0:0:0:
320,192,61643,1,0,0:0:0:0:
64,192,61643,1,0,0:0:0:0:
192,192,61771,1,0,0:0:0:0:
320,192,61899,1,0,0:0:0:0:
64,192,61899,1,0,0:0:0:0:
192,192,61899,1,0,0:0:0:0:
448,192,61899,1,0,0:0:0:0:
320,192,62026,1,0,0:0:0:0:
192,192,62155,1,0,0:0:0:0:
448,192,62155,1,0,0:0:0:0:
320,192,62155,1,0,0:0:0:0:
64,192,62155,1,0,0:0:0:0:
448,192,62282,1,0,0:0:0:0:
320,192,62411,1,0,0:0:0:0:
64,192,62411,1,0,0:0:0:0:
192,192,62411,1,0,0:0:0:0:
448,192,62411,1,0,0:0:0:0:
64,192,62538,1,0,0:0:0:0:
192,192,62538,1,0,0:0:0:0:
448,192,62666,1,0,0:0:0:0:
64,192,62666,1,0,0:0:0:0:
448,192,62794,1,0,0:0:0:0:
320,192,62794,1,0,0:0:0:0:
192,192,62794,1,0,0:0:0:0:
320,192,62922,1,0,0:0:0:0:
64,192,62922,1,0,0:0:0:0:
192,192,63049,1,0,0:0:0:0:
64,192,63049,1,0,0:0:0:0:
192,192,63178,1,0,0:0:0:0:
448,192,63178,1,0,0:0:0:0:
320,192,63178,1,0,0:0:0:0:
64,192,63178,1,0,0:0:0:0:
448,192,63305,1,0,0:0:0:0:
320,192,63434,1,0,0:0:0:0:
64,192,63434,1,0,0:0:0:0:
192,192,63434,1,0,0:0:0:0:
448,192,63434,1,0,0:0:0:0:
320,192,63561,1,0,0:0:0:0:
192,192,63689,1,0,0:0:0:0:
448,192,63689,1,0,0:0:0:0:
320,192,63689,1,0,0:0:0:0:
64,192,63689,1,0,0:0:0:0:
192,192,63817,1,0,0:0:0:0:
320,192,63945,1,0,0:0:0:0:
64,192,63945,1,0,0:0:0:0:
192,192,63945,1,0,0:0:0:0:
448,192,63945,1,0,0:0:0:0:
448,192,64073,1,0,0:0:0:0:
320,192,64073,1,0,0:0:0:0:
320,192,64201,1,0,0:0:0:0:
64,192,64201,1,0,0:0:0:0:
448,192,64328,1,0,0:0:0:0:
192,192,64328,1,0,0:0:0:0:
64,192,64328,1,0,0:0:0:0:
320,192,64456,1,0,0:0:0:0:
192,192,64456,1,0,0:0:0:0:
64,192,64584,1,0,0:0:0:0:
320,192,64584,1,0,0:0:0:0:
192,192,64712,1,0,0:0:0:0:
448,192,64712,1,0,0:0:0:0:
320,192,64712,1,0,0:0:0:0:
64,192,64712,1,0,0:0:0:0:
192,192,64840,1,0,0:0:0:0:
320,192,64968,1,0,0:0:0:0:
64,192,64968,1,0,0:0:0:0:
192,192,64968,1,0,0:0:0:0:
448,192,64968,1,0,0:0:0:0:
320,192,65096,1,0,0:0:0:0:
192,192,65224,1,0,0:0:0:0:
448,192,65224,1,0,0:0:0:0:
320,192,65224,1,0,0:0:0:0:
64,192,65224,1,0,0:0:0:0:
64,192,65352,1,0,0:0:0:0:
320,192,65479,1,0,0:0:0:0:
64,192,65479,1,0,0:0:0:0:
192,192,65479,1,0,0:0:0:0:
448,192,65479,1,0,0:0:0:0:
192,192,65607,1,0,0:0:0:0:
192,192,65735,1,0,0:0:0:0:
448,192,65735,1,0,0:0:0:0:
320,192,65735,1,0,0:0:0:0:
64,192,65735,1,0,0:0:0:0:
448,192,65863,1,0,0:0:0:0:
192,192,65991,1,0,0:0:0:0:
448,192,65991,1,0,0:0:0:0:
320,192,65991,1,0,0:0:0:0:
64,192,65991,1,0,0:0:0:0:
320,192,66119,1,0,0:0:0:0:
320,192,66246,1,0,0:0:0:0:
64,192,66246,1,0,0:0:0:0:
192,192,66246,1,0,0:0:0:0:
448,192,66246,1,0,0:0:0:0:
64,192,66375,1,0,0:0:0:0:
192,192,66502,1,0,0:0:0:0:
448,192,66502,1,0,0:0:0:0:
448,192,66630,1,0,0:0:0:0:
320,192,66630,1,0,0:0:0:0:
64,192,66630,1,0,0:0:0:0:
192,192,66758,1,0,0:0:0:0:
64,192,66758,1,0,0:0:0:0:
448,192,66886,1,0,0:0:0:0:
192,192,66886,1,0,0:0:0:0:
448,192,67014,1,0,0:0:0:0:
320,192,67014,1,0,0:0:0:0:
64,192,67014,1,0,0:0:0:0:
448,192,67142,1,0,0:0:0:0:
192,192,67142,1,0,0:0:0:0:
448,192,67269,1,0,0:0:0:0:
320,192,67269,1,0,0:0:0:0:
448,192,67398,1,0,0:0:0:0:
192,192,67398,1,0,0:0:0:0:
64,192,67398,1,0,0:0:0:0:
320,192,67525,1,0,0:0:0:0:
64,192,67525,1,0,0:0:0:0:
192,192,67654,1,0,0:0:0:0:
320,192,67654,1,0,0:0:0:0:
64,192,67781,1,0,0:0:0:0:
192,192,67781,1,0,0:0:0:0:
320,192,67781,1,0,0:0:0:0:
448,192,67781,1,0,0:0:0:0:
