osu file format v14

[General]
AudioFilename: Pascal160.mp3
AudioLeadIn: 0
PreviewTime: 276
Countdown: 0
SampleSet: None
StackLeniency: 0.7
Mode: 3
LetterboxInBreaks: 0
SpecialStyle: 0
WidescreenStoryboard: 0

[Editor]
DistanceSpacing: 0.8
BeatDivisor: 3
GridSize: 16
TimelineZoom: 1

[Metadata]
Title:Pascal
TitleUnicode:Pascal
Artist:Keiichi Okabe
ArtistUnicode:Keiichi Okabe
Creator:ATing
Version:Kal dis is mal [1.6x Rate]
Source:NieR: Automata
Tags:
BeatmapID:2046173
BeatmapSetID:977654

[Difficulty]
HPDrainRate:8
CircleSize:4
OverallDifficulty:8
ApproachRate:5
SliderMultiplier:1.4
SliderTickRate:1

[Events]
//Background and Video events
0,0,"nier.jpg",0,0
//Break Periods
//Storyboard Layer 0 (Background)
//Storyboard Layer 1 (Fail)
//Storyboard Layer 2 (Pass)
//Storyboard Layer 3 (Foreground)
//Storyboard Sound Samples

[TimingPoints]
276,407.608695652174,4,1,0,15,1,0

[HitObjects]
64,192,276,5,0,0:0:0:0:
448,192,276,1,0,0:0:0:0:
192,192,412,1,0,0:0:0:0:
320,192,548,1,0,0:0:0:0:
448,192,684,1,0,0:0:0:0:
192,192,684,1,0,0:0:0:0:
320,192,819,1,0,0:0:0:0:
448,192,955,1,0,0:0:0:0:
64,192,1091,1,0,0:0:0:0:
192,192,1091,1,0,0:0:0:0:
448,192,1227,1,0,0:0:0:0:
64,192,1362,1,0,0:0:0:0:
320,192,1362,1,0,0:0:0:0:
64,192,1499,1,0,0:0:0:0:
192,192,1499,1,0,0:0:0:0:
448,192,1634,1,0,0:0:0:0:
192,192,1771,1,0,0:0:0:0:
448,192,1906,1,0,0:0:0:0:
64,192,1906,1,0,0:0:0:0:
320,192,2042,1,0,0:0:0:0:
192,192,2178,1,0,0:0:0:0:
64,192,2314,1,0,0:0:0:0:
320,192,2314,1,0,0:0:0:0:
192,192,2450,1,0,0:0:0:0:
64,192,2586,1,0,0:0:0:0:
448,192,2721,1,0,0:0:0:0:
320,192,2721,1,0,0:0:0:0:
64,192,2858,1,0,0:0:0:0:
448,192,2858,1,0,0:0:0:0:
448,192,2993,1,0,0:0:0:0:
192,192,2993,1,0,0:0:0:0:
448,192,3129,1,0,0:0:0:0:
320,192,3129,1,0,0:0:0:0:
64,192,3265,1,0,0:0:0:0:
320,192,3401,1,0,0:0:0:0:
64,192,3537,1,0,0:0:0:0:
192,192,3537,1,0,0:0:0:0:
320,192,3672,1,0,0:0:0:0:
448,192,3809,1,0,0:0:0:0:
192,192,3809,1,0,0:0:0:0:
64,192,3944,1,0,0:0:0:0:
448,192,3944,1,0,0:0:0:0:
320,192,4080,1,0,0:0:0:0:
192,192,4216,1,0,0:0:0:0:
320,192,4352,1,0,0:0:0:0:
448,192,4352,1,0,0:0:0:0:
64,192,4488,1,0,0:0:0:0:
192,192,4624,1,0,0:0:0:0:
448,192,4624,1,0,0:0:0:0:
448,192,4759,1,0,0:0:0:0:
64,192,4759,1,0,0:0:0:0:
320,192,4896,1,0,0:0:0:0:
192,192,5031,1,0,0:0:0:0:
448,192,5167,1,0,0:0:0:0:
320,192,5167,1,0,0:0:0:0:
192,192,5303,1,0,0:0:0:0:
320,192,5439,1,0,0:0:0:0:
64,192,5575,1,0,0:0:0:0:
448,192,5575,1,0,0:0:0:0:
192,192,5711,1,0,0:0:0:0:
320,192,5846,1,0,0:0:0:0:
64,192,5982,1,0,0:0:0:0:
192,192,5982,1,0,0:0:0:0:
448,192,6118,1,0,0:0:0:0:
64,192,6118,1,0,0:0:0:0:
64,192,6254,1,0,0:0:0:0:
320,192,6254,1,0,0:0:0:0:
448,192,6390,1,0,0:0:0:0:
64,192,6390,1,0,0:0:0:0:
192,192,6526,1,0,0:0:0:0:
320,192,6662,1,0,0:0:0:0:
192,192,6798,1,0,0:0:0:0:
64,192,6798,1,0,0:0:0:0:
448,192,6798,1,0,0:0:0:0:
192,192,6934,1,0,0:0:0:0:
320,192,7069,1,0,0:0:0:0:
64,192,7069,1,0,0:0:0:0:
64,192,7205,1,0,0:0:0:0:
448,192,7205,1,0,0:0:0:0:
192,192,7341,1,0,0:0:0:0:
320,192,7477,1,0,0:0:0:0:
64,192,7612,1,0,0:0:0:0:
448,192,7612,1,0,0:0:0:0:
64,192,7749,1,0,0:0:0:0:
320,192,7749,1,0,0:0:0:0:
64,192,7884,1,0,0:0:0:0:
192,192,7884,1,0,0:0:0:0:
448,192,8021,1,0,0:0:0:0:
64,192,8021,1,0,0:0:0:0:
320,192,8156,1,0,0:0:0:0:
192,192,8292,1,0,0:0:0:0:
64,192,8428,1,0,0:0:0:0:
320,192,8428,1,0,0:0:0:0:
320,192,8564,1,0,0:0:0:0:
192,192,8700,1,0,0:0:0:0:
448,192,8700,1,0,0:0:0:0:
64,192,8836,1,0,0:0:0:0:
448,192,8836,1,0,0:0:0:0:
320,192,8971,1,0,0:0:0:0:
192,192,9108,1,0,0:0:0:0:
64,192,9243,1,0,0:0:0:0:
448,192,9243,1,0,0:0:0:0:
192,192,9379,1,0,0:0:0:0:
448,192,9379,1,0,0:0:0:0:
320,192,9515,1,0,0:0:0:0:
448,192,9515,1,0,0:0:0:0:
64,192,9651,1,0,0:0:0:0:
448,192,9651,1,0,0:0:0:0:
192,192,9787,1,0,0:0:0:0:
448,192,9787,1,0,0:0:0:0:
64,192,9922,1,0,0:0:0:0:
448,192,9922,1,0,0:0:0:0:
64,192,10059,1,0,0:0:0:0:
192,192,10059,1,0,0:0:0:0:
448,192,10059,1,0,0:0:0:0:
192,192,10194,1,0,0:0:0:0:
320,192,10330,1,0,0:0:0:0:
448,192,10330,1,0,0:0:0:0:
64,192,10466,1,0,0:0:0:0:
448,192,10466,1,0,0:0:0:0:
192,192,10602,1,0,0:0:0:0:
320,192,10738,1,0,0:0:0:0:
192,192,10874,1,0,0:0:0:0:
64,192,10874,1,0,0:0:0:0:
64,192,11009,1,0,0:0:0:0:
448,192,11009,1,0,0:0:0:0:
64,192,11146,1,0,0:0:0:0:
320,192,11146,1,0,0:0:0:0:
64,192,11281,1,0,0:0:0:0:
192,192,11281,1,0,0:0:0:0:
448,192,11281,1,0,0:0:0:0:
320,192,11417,1,0,0:0:0:0:
192,192,11553,1,0,0:0:0:0:
64,192,11689,1,0,0:0:0:0:
320,192,11689,1,0,0:0:0:0:
320,192,11825,1,0,0:0:0:0:
64,192,11961,1,0,0:0:0:0:
192,192,11961,1,0,0:0:0:0:
64,192,12096,1,0,0:0:0:0:
448,192,12096,1,0,0:0:0:0:
320,192,12232,1,0,0:0:0:0:
192,192,12368,1,0,0:0:0:0:
320,192,12504,1,0,0:0:0:0:
448,192,12504,1,0,0:0:0:0:
64,192,12640,1,0,0:0:0:0:
448,192,12640,1,0,0:0:0:0:
320,192,12776,1,0,0:0:0:0:
448,192,12776,1,0,0:0:0:0:
64,192,12912,1,0,0:0:0:0:
448,192,12912,1,0,0:0:0:0:
192,192,12912,1,0,0:0:0:0:
320,192,13048,1,0,0:0:0:0:
192,192,13184,1,0,0:0:0:0:
64,192,13319,1,0,0:0:0:0:
192,192,13319,1,0,0:0:0:0:
320,192,13319,1,0,0:0:0:0:
448,192,13319,1,0,0:0:0:0:
320,192,13455,1,0,0:0:0:0:
192,192,13591,1,0,0:0:0:0:
64,192,13591,1,0,0:0:0:0:
64,192,13727,1,0,0:0:0:0:
192,192,13727,1,0,0:0:0:0:
320,192,13727,1,0,0:0:0:0:
448,192,13727,1,0,0:0:0:0:
320,192,13862,1,0,0:0:0:0:
192,192,13999,1,0,0:0:0:0:
64,192,14134,1,0,0:0:0:0:
192,192,14134,1,0,0:0:0:0:
320,192,14134,1,0,0:0:0:0:
448,192,14134,1,0,0:0:0:0:
448,192,14271,1,0,0:0:0:0:
64,192,14271,1,0,0:0:0:0:
448,192,14406,1,0,0:0:0:0:
192,192,14406,1,0,0:0:0:0:
448,192,14542,1,0,0:0:0:0:
64,192,14542,1,0,0:0:0:0:
320,192,14542,1,0,0:0:0:0:
320,192,14678,1,0,0:0:0:0:
64,192,14814,1,0,0:0:0:0:
64,192,14950,1,0,0:0:0:0:
192,192,14950,1,0,0:0:0:0:
448,192,14950,1,0,0:0:0:0:
320,192,14950,1,0,0:0:0:0:
192,192,15086,1,0,0:0:0:0:
320,192,15221,1,0,0:0:0:0:
448,192,15221,1,0,0:0:0:0:
448,192,15358,1,0,0:0:0:0:
320,192,15358,1,0,0:0:0:0:
192,192,15358,1,0,0:0:0:0:
64,192,15358,1,0,0:0:0:0:
192,192,15493,1,0,0:0:0:0:
320,192,15629,1,0,0:0:0:0:
448,192,15765,1,0,0:0:0:0:
320,192,15765,1,0,0:0:0:0:
192,192,15765,1,0,0:0:0:0:
64,192,15765,1,0,0:0:0:0:
64,192,15901,1,0,0:0:0:0:
448,192,15901,1,0,0:0:0:0:
64,192,16037,1,0,0:0:0:0:
320,192,16037,1,0,0:0:0:0:
64,192,16172,1,0,0:0:0:0:
448,192,16172,1,0,0:0:0:0:
192,192,16172,1,0,0:0:0:0:
192,192,16309,1,0,0:0:0:0:
448,192,16444,1,0,0:0:0:0:
448,192,16580,1,0,0:0:0:0:
320,192,16580,1,0,0:0:0:0:
64,192,16580,1,0,0:0:0:0:
192,192,16580,1,0,0:0:0:0:
64,192,16716,1,0,0:0:0:0:
448,192,16852,1,0,0:0:0:0:
320,192,16852,1,0,0:0:0:0:
320,192,16988,1,0,0:0:0:0:
448,192,16988,1,0,0:0:0:0:
64,192,16988,1,0,0:0:0:0:
192,192,16988,1,0,0:0:0:0:
192,192,17124,1,0,0:0:0:0:
448,192,17259,1,0,0:0:0:0:
64,192,17396,1,0,0:0:0:0:
192,192,17396,1,0,0:0:0:0:
320,192,17396,1,0,0:0:0:0:
448,192,17396,1,0,0:0:0:0:
64,192,17531,1,0,0:0:0:0:
320,192,17531,1,0,0:0:0:0:
64,192,17667,1,0,0:0:0:0:
192,192,17667,1,0,0:0:0:0:
64,192,17803,1,0,0:0:0:0:
320,192,17803,1,0,0:0:0:0:
448,192,17803,1,0,0:0:0:0:
192,192,17939,1,0,0:0:0:0:
320,192,18075,1,0,0:0:0:0:
64,192,18211,1,0,0:0:0:0:
192,192,18211,1,0,0:0:0:0:
320,192,18211,1,0,0:0:0:0:
448,192,18211,1,0,0:0:0:0:
448,192,18346,1,0,0:0:0:0:
192,192,18482,1,0,0:0:0:0:
64,192,18482,1,0,0:0:0:0:
192,192,18618,1,0,0:0:0:0:
64,192,18618,1,0,0:0:0:0:
448,192,18618,1,0,0:0:0:0:
320,192,18618,1,0,0:0:0:0:
320,192,18754,1,0,0:0:0:0:
64,192,18890,1,0,0:0:0:0:
448,192,19026,1,0,0:0:0:0:
320,192,19026,1,0,0:0:0:0:
192,192,19026,1,0,0:0:0:0:
64,192,19026,1,0,0:0:0:0:
448,192,19162,1,0,0:0:0:0:
192,192,19162,1,0,0:0:0:0:
448,192,19298,1,0,0:0:0:0:
320,192,19298,1,0,0:0:0:0:
448,192,19434,1,0,0:0:0:0:
192,192,19434,1,0,0:0:0:0:
64,192,19434,1,0,0:0:0:0:
320,192,19569,1,0,0:0:0:0:
64,192,19569,1,0,0:0:0:0:
64,192,19705,1,0,0:0:0:0:
448,192,19705,1,0,0:0:0:0:
64,192,19841,1,0,0:0:0:0:
192,192,19841,1,0,0:0:0:0:
320,192,19841,1,0,0:0:0:0:
448,192,19841,1,0,0:0:0:0:
320,192,19977,1,0,0:0:0:0:
64,192,20112,1,0,0:0:0:0:
448,192,20112,1,0,0:0:0:0:
64,192,20249,1,0,0:0:0:0:
192,192,20249,1,0,0:0:0:0:
320,192,20249,1,0,0:0:0:0:
448,192,20249,1,0,0:0:0:0:
192,192,20384,1,0,0:0:0:0:
320,192,20521,1,0,0:0:0:0:
64,192,20656,1,0,0:0:0:0:
192,192,20656,1,0,0:0:0:0:
448,192,20656,1,0,0:0:0:0:
320,192,20656,1,0,0:0:0:0:
64,192,20792,1,0,0:0:0:0:
192,192,20792,1,0,0:0:0:0:
64,192,20928,1,0,0:0:0:0:
448,192,20928,1,0,0:0:0:0:
64,192,21064,1,0,0:0:0:0:
192,192,21064,1,0,0:0:0:0:
320,192,21064,1,0,0:0:0:0:
448,192,21064,1,0,0:0:0:0:
320,192,21200,1,0,0:0:0:0:
64,192,21336,1,0,0:0:0:0:
64,192,21471,1,0,0:0:0:0:
192,192,21471,1,0,0:0:0:0:
448,192,21471,1,0,0:0:0:0:
320,192,21471,1,0,0:0:0:0:
192,192,21608,1,0,0:0:0:0:
64,192,21743,1,0,0:0:0:0:
448,192,21743,1,0,0:0:0:0:
64,192,21879,1,0,0:0:0:0:
192,192,21879,1,0,0:0:0:0:
448,192,21879,1,0,0:0:0:0:
320,192,21879,1,0,0:0:0:0:
320,192,22015,1,0,0:0:0:0:
192,192,22151,1,0,0:0:0:0:
64,192,22287,1,0,0:0:0:0:
192,192,22287,1,0,0:0:0:0:
320,192,22287,1,0,0:0:0:0:
448,192,22287,1,0,0:0:0:0:
448,192,22422,1,0,0:0:0:0:
64,192,22422,1,0,0:0:0:0:
192,192,22559,1,0,0:0:0:0:
448,192,22559,1,0,0:0:0:0:
64,192,22694,1,0,0:0:0:0:
448,192,22694,1,0,0:0:0:0:
320,192,22694,1,0,0:0:0:0:
64,192,22830,1,0,0:0:0:0:
192,192,22830,1,0,0:0:0:0:
192,192,22966,1,0,0:0:0:0:
448,192,22966,1,0,0:0:0:0:
64,192,23102,1,0,0:0:0:0:
192,192,23102,1,0,0:0:0:0:
320,192,23102,1,0,0:0:0:0:
448,192,23102,1,0,0:0:0:0:
64,192,23238,1,0,0:0:0:0:
192,192,23374,1,0,0:0:0:0:
448,192,23374,1,0,0:0:0:0:
64,192,23509,1,0,0:0:0:0:
192,192,23509,1,0,0:0:0:0:
320,192,23509,1,0,0:0:0:0:
448,192,23509,1,0,0:0:0:0:
320,192,23646,1,0,0:0:0:0:
192,192,23781,1,0,0:0:0:0:
64,192,23917,1,0,0:0:0:0:
448,192,23917,1,0,0:0:0:0:
192,192,23917,1,0,0:0:0:0:
64,192,24053,1,0,0:0:0:0:
448,192,24053,1,0,0:0:0:0:
64,192,24189,1,0,0:0:0:0:
320,192,24189,1,0,0:0:0:0:
64,192,24325,1,0,0:0:0:0:
192,192,24325,1,0,0:0:0:0:
320,192,24325,1,0,0:0:0:0:
448,192,24325,1,0,0:0:0:0:
192,192,24461,1,0,0:0:0:0:
320,192,24596,1,0,0:0:0:0:
64,192,24732,1,0,0:0:0:0:
192,192,24732,1,0,0:0:0:0:
320,192,24732,1,0,0:0:0:0:
448,192,24732,1,0,0:0:0:0:
448,192,24868,1,0,0:0:0:0:
64,192,25004,1,0,0:0:0:0:
320,192,25004,1,0,0:0:0:0:
64,192,25140,1,0,0:0:0:0:
192,192,25140,1,0,0:0:0:0:
448,192,25140,1,0,0:0:0:0:
320,192,25276,1,0,0:0:0:0:
192,192,25412,1,0,0:0:0:0:
64,192,25548,1,0,0:0:0:0:
448,192,25548,1,0,0:0:0:0:
192,192,25684,1,0,0:0:0:0:
448,192,25684,1,0,0:0:0:0:
64,192,25819,1,0,0:0:0:0:
448,192,25819,1,0,0:0:0:0:
64,192,25955,1,0,0:0:0:0:
192,192,25955,1,0,0:0:0:0:
448,192,25955,1,0,0:0:0:0:
64,192,26091,1,0,0:0:0:0:
320,192,26091,1,0,0:0:0:0:
64,192,26227,1,0,0:0:0:0:
448,192,26227,1,0,0:0:0:0:
64,192,26362,1,0,0:0:0:0:
192,192,26362,1,0,0:0:0:0:
448,192,26362,1,0,0:0:0:0:
320,192,26362,1,0,0:0:0:0:
192,192,26499,1,0,0:0:0:0:
320,192,26634,1,0,0:0:0:0:
448,192,26634,1,0,0:0:0:0:
64,192,26771,1,0,0:0:0:0:
192,192,26771,1,0,0:0:0:0:
448,192,26771,1,0,0:0:0:0:
320,192,26771,1,0,0:0:0:0:
192,192,26906,1,0,0:0:0:0:
64,192,27042,1,0,0:0:0:0:
64,192,27178,1,0,0:0:0:0:
192,192,27178,1,0,0:0:0:0:
448,192,27178,1,0,0:0:0:0:
320,192,27178,1,0,0:0:0:0:
320,192,27314,1,0,0:0:0:0:
448,192,27314,1,0,0:0:0:0:
192,192,27450,1,0,0:0:0:0:
64,192,27450,1,0,0:0:0:0:
64,192,27586,1,0,0:0:0:0:
192,192,27586,1,0,0:0:0:0:
320,192,27586,1,0,0:0:0:0:
448,192,27586,1,0,0:0:0:0:
320,192,27721,1,0,0:0:0:0:
192,192,27858,1,0,0:0:0:0:
64,192,27993,1,0,0:0:0:0:
192,192,27993,1,0,0:0:0:0:
448,192,27993,1,0,0:0:0:0:
320,192,27993,1,0,0:0:0:0:
448,192,28129,1,0,0:0:0:0:
64,192,28265,1,0,0:0:0:0:
192,192,28265,1,0,0:0:0:0:
64,192,28401,1,0,0:0:0:0:
192,192,28401,1,0,0:0:0:0:
320,192,28401,1,0,0:0:0:0:
448,192,28401,1,0,0:0:0:0:
320,192,28537,1,0,0:0:0:0:
448,192,28672,1,0,0:0:0:0:
64,192,28809,1,0,0:0:0:0:
192,192,28809,1,0,0:0:0:0:
320,192,28809,1,0,0:0:0:0:
448,192,28809,1,0,0:0:0:0:
192,192,28944,1,0,0:0:0:0:
64,192,28944,1,0,0:0:0:0:
64,192,29080,1,0,0:0:0:0:
320,192,29080,1,0,0:0:0:0:
64,192,29216,1,0,0:0:0:0:
448,192,29216,1,0,0:0:0:0:
320,192,29216,1,0,0:0:0:0:
448,192,29352,1,0,0:0:0:0:
320,192,29352,1,0,0:0:0:0:
448,192,29488,1,0,0:0:0:0:
192,192,29488,1,0,0:0:0:0:
64,192,29624,1,0,0:0:0:0:
192,192,29624,1,0,0:0:0:0:
320,192,29624,1,0,0:0:0:0:
448,192,29624,1,0,0:0:0:0:
320,192,29759,1,0,0:0:0:0:
192,192,29896,1,0,0:0:0:0:
64,192,29896,1,0,0:0:0:0:
320,192,30031,1,0,0:0:0:0:
448,192,30031,1,0,0:0:0:0:
192,192,30031,1,0,0:0:0:0:
64,192,30031,1,0,0:0:0:0:
448,192,30167,1,0,0:0:0:0:
320,192,30303,1,0,0:0:0:0:
64,192,30439,1,0,0:0:0:0:
192,192,30439,1,0,0:0:0:0:
448,192,30439,1,0,0:0:0:0:
64,192,30575,1,0,0:0:0:0:
320,192,30575,1,0,0:0:0:0:
64,192,30711,1,0,0:0:0:0:
192,192,30711,1,0,0:0:0:0:
192,192,30846,1,0,0:0:0:0:
64,192,30846,1,0,0:0:0:0:
320,192,30846,1,0,0:0:0:0:
448,192,30846,1,0,0:0:0:0:
320,192,30982,1,0,0:0:0:0:
192,192,31118,1,0,0:0:0:0:
320,192,31254,1,0,0:0:0:0:
448,192,31254,1,0,0:0:0:0:
192,192,31254,1,0,0:0:0:0:
64,192,31254,1,0,0:0:0:0:
448,192,31390,1,0,0:0:0:0:
320,192,31526,1,0,0:0:0:0:
64,192,31526,1,0,0:0:0:0:
64,192,31662,1,0,0:0:0:0:
192,192,31662,1,0,0:0:0:0:
448,192,31662,1,0,0:0:0:0:
320,192,31798,1,0,0:0:0:0:
192,192,31934,1,0,0:0:0:0:
64,192,32069,1,0,0:0:0:0:
448,192,32069,1,0,0:0:0:0:
448,192,32205,1,0,0:0:0:0:
192,192,32205,1,0,0:0:0:0:
320,192,32341,1,0,0:0:0:0:
448,192,32341,1,0,0:0:0:0:
64,192,32477,1,0,0:0:0:0:
192,192,32477,1,0,0:0:0:0:
448,192,32477,1,0,0:0:0:0:
64,192,32612,1,0,0:0:0:0:
320,192,32612,1,0,0:0:0:0:
64,192,32749,1,0,0:0:0:0:
192,192,32749,1,0,0:0:0:0:
192,192,32884,1,0,0:0:0:0:
64,192,32884,1,0,0:0:0:0:
320,192,32884,1,0,0:0:0:0:
448,192,32884,1,0,0:0:0:0:
320,192,33021,1,0,0:0:0:0:
448,192,33156,1,0,0:0:0:0:
64,192,33156,1,0,0:0:0:0:
320,192,33292,1,0,0:0:0:0:
448,192,33292,1,0,0:0:0:0:
192,192,33292,1,0,0:0:0:0:
64,192,33292,1,0,0:0:0:0:
192,192,33428,1,0,0:0:0:0:
64,192,33564,1,0,0:0:0:0:
448,192,33564,1,0,0:0:0:0:
192,192,33700,1,0,0:0:0:0:
64,192,33700,1,0,0:0:0:0:
320,192,33700,1,0,0:0:0:0:
448,192,33700,1,0,0:0:0:0:
320,192,33836,1,0,0:0:0:0:
64,192,33836,1,0,0:0:0:0:
448,192,33971,1,0,0:0:0:0:
192,192,33971,1,0,0:0:0:0:
320,192,34108,1,0,0:0:0:0:
448,192,34108,1,0,0:0:0:0:
192,192,34108,1,0,0:0:0:0:
64,192,34108,1,0,0:0:0:0:
64,192,34243,1,0,0:0:0:0:
192,192,34243,1,0,0:0:0:0:
320,192,34379,1,0,0:0:0:0:
448,192,34379,1,0,0:0:0:0:
192,192,34515,1,0,0:0:0:0:
64,192,34515,1,0,0:0:0:0:
320,192,34515,1,0,0:0:0:0:
448,192,34515,1,0,0:0:0:0:
192,192,34651,1,0,0:0:0:0:
64,192,34787,1,0,0:0:0:0:
448,192,34787,1,0,0:0:0:0:
320,192,34922,1,0,0:0:0:0:
448,192,34922,1,0,0:0:0:0:
192,192,34922,1,0,0:0:0:0:
64,192,34922,1,0,0:0:0:0:
320,192,35059,1,0,0:0:0:0:
448,192,35194,1,0,0:0:0:0:
64,192,35194,1,0,0:0:0:0:
192,192,35330,1,0,0:0:0:0:
64,192,35330,1,0,0:0:0:0:
320,192,35330,1,0,0:0:0:0:
448,192,35330,1,0,0:0:0:0:
320,192,35466,1,0,0:0:0:0:
448,192,35466,1,0,0:0:0:0:
192,192,35602,1,0,0:0:0:0:
64,192,35602,1,0,0:0:0:0:
320,192,35738,1,0,0:0:0:0:
448,192,35738,1,0,0:0:0:0:
192,192,35738,1,0,0:0:0:0:
64,192,35738,1,0,0:0:0:0:
192,192,35874,1,0,0:0:0:0:
448,192,35874,1,0,0:0:0:0:
320,192,36009,1,0,0:0:0:0:
64,192,36009,1,0,0:0:0:0:
192,192,36146,1,0,0:0:0:0:
64,192,36146,1,0,0:0:0:0:
320,192,36146,1,0,0:0:0:0:
448,192,36146,1,0,0:0:0:0:
192,192,36281,1,0,0:0:0:0:
320,192,36417,1,0,0:0:0:0:
448,192,36417,1,0,0:0:0:0:
320,192,36553,1,0,0:0:0:0:
448,192,36553,1,0,0:0:0:0:
192,192,36553,1,0,0:0:0:0:
64,192,36553,1,0,0:0:0:0:
192,192,36689,1,0,0:0:0:0:
320,192,36825,1,0,0:0:0:0:
64,192,36961,1,0,0:0:0:0:
448,192,36961,1,0,0:0:0:0:
64,192,37096,1,0,0:0:0:0:
320,192,37096,1,0,0:0:0:0:
64,192,37232,1,0,0:0:0:0:
192,192,37232,1,0,0:0:0:0:
192,192,37368,1,0,0:0:0:0:
64,192,37368,1,0,0:0:0:0:
320,192,37368,1,0,0:0:0:0:
448,192,37368,1,0,0:0:0:0:
192,192,37504,1,0,0:0:0:0:
448,192,37504,1,0,0:0:0:0:
320,192,37640,1,0,0:0:0:0:
448,192,37640,1,0,0:0:0:0:
320,192,37776,1,0,0:0:0:0:
448,192,37776,1,0,0:0:0:0:
192,192,37776,1,0,0:0:0:0:
64,192,37776,1,0,0:0:0:0:
192,192,37912,1,0,0:0:0:0:
64,192,38048,1,0,0:0:0:0:
320,192,38048,1,0,0:0:0:0:
64,192,38184,1,0,0:0:0:0:
448,192,38184,1,0,0:0:0:0:
192,192,38184,1,0,0:0:0:0:
320,192,38319,1,0,0:0:0:0:
448,192,38455,1,0,0:0:0:0:
64,192,38591,1,0,0:0:0:0:
320,192,38591,1,0,0:0:0:0:
64,192,38727,1,0,0:0:0:0:
448,192,38727,1,0,0:0:0:0:
64,192,38862,1,0,0:0:0:0:
192,192,38862,1,0,0:0:0:0:
64,192,38999,1,0,0:0:0:0:
320,192,38999,1,0,0:0:0:0:
448,192,38999,1,0,0:0:0:0:
64,192,39134,1,0,0:0:0:0:
448,192,39134,1,0,0:0:0:0:
320,192,39271,1,0,0:0:0:0:
448,192,39271,1,0,0:0:0:0:
192,192,39406,1,0,0:0:0:0:
64,192,39406,1,0,0:0:0:0:
320,192,39406,1,0,0:0:0:0:
448,192,39406,1,0,0:0:0:0:
192,192,39542,1,0,0:0:0:0:
64,192,39678,1,0,0:0:0:0:
320,192,39678,1,0,0:0:0:0:
320,192,39814,1,0,0:0:0:0:
448,192,39814,1,0,0:0:0:0:
192,192,39814,1,0,0:0:0:0:
64,192,39814,1,0,0:0:0:0:
448,192,39950,1,0,0:0:0:0:
320,192,40086,1,0,0:0:0:0:
192,192,40086,1,0,0:0:0:0:
192,192,40221,1,0,0:0:0:0:
64,192,40221,1,0,0:0:0:0:
320,192,40221,1,0,0:0:0:0:
448,192,40221,1,0,0:0:0:0:
64,192,40358,1,0,0:0:0:0:
320,192,40358,1,0,0:0:0:0:
192,192,40493,1,0,0:0:0:0:
448,192,40493,1,0,0:0:0:0:
320,192,40629,1,0,0:0:0:0:
448,192,40629,1,0,0:0:0:0:
192,192,40629,1,0,0:0:0:0:
64,192,40629,1,0,0:0:0:0:
320,192,40765,1,0,0:0:0:0:
192,192,40901,1,0,0:0:0:0:
448,192,40901,1,0,0:0:0:0:
192,192,41037,1,0,0:0:0:0:
64,192,41037,1,0,0:0:0:0:
320,192,41037,1,0,0:0:0:0:
448,192,41037,1,0,0:0:0:0:
64,192,41172,1,0,0:0:0:0:
192,192,41309,1,0,0:0:0:0:
320,192,41309,1,0,0:0:0:0:
320,192,41444,1,0,0:0:0:0:
448,192,41444,1,0,0:0:0:0:
192,192,41444,1,0,0:0:0:0:
64,192,41444,1,0,0:0:0:0:
448,192,41580,1,0,0:0:0:0:
192,192,41716,1,0,0:0:0:0:
64,192,41716,1,0,0:0:0:0:
192,192,41852,1,0,0:0:0:0:
64,192,41852,1,0,0:0:0:0:
320,192,41852,1,0,0:0:0:0:
448,192,41852,1,0,0:0:0:0:
320,192,41988,1,0,0:0:0:0:
448,192,41988,1,0,0:0:0:0:
320,192,42124,1,0,0:0:0:0:
192,192,42124,1,0,0:0:0:0:
320,192,42259,1,0,0:0:0:0:
448,192,42259,1,0,0:0:0:0:
192,192,42259,1,0,0:0:0:0:
64,192,42259,1,0,0:0:0:0:
64,192,42396,1,0,0:0:0:0:
192,192,42396,1,0,0:0:0:0:
320,192,42531,1,0,0:0:0:0:
448,192,42531,1,0,0:0:0:0:
192,192,42667,1,0,0:0:0:0:
64,192,42667,1,0,0:0:0:0:
320,192,42667,1,0,0:0:0:0:
448,192,42667,1,0,0:0:0:0:
192,192,42803,1,0,0:0:0:0:
64,192,42939,1,0,0:0:0:0:
320,192,42939,1,0,0:0:0:0:
64,192,43075,1,0,0:0:0:0:
192,192,43075,1,0,0:0:0:0:
448,192,43075,1,0,0:0:0:0:
320,192,43211,1,0,0:0:0:0:
192,192,43346,1,0,0:0:0:0:
64,192,43482,1,0,0:0:0:0:
448,192,43482,1,0,0:0:0:0:
320,192,43482,1,0,0:0:0:0:
192,192,43618,1,0,0:0:0:0:
448,192,43618,1,0,0:0:0:0:
64,192,43754,1,0,0:0:0:0:
192,192,43754,1,0,0:0:0:0:
64,192,43890,1,0,0:0:0:0:
192,192,43890,1,0,0:0:0:0:
448,192,43890,1,0,0:0:0:0:
64,192,44026,1,0,0:0:0:0:
320,192,44026,1,0,0:0:0:0:
320,192,44162,1,0,0:0:0:0:
448,192,44162,1,0,0:0:0:0:
64,192,44298,1,0,0:0:0:0:
192,192,44298,1,0,0:0:0:0:
448,192,44298,1,0,0:0:0:0:
320,192,44434,1,0,0:0:0:0:
192,192,44569,1,0,0:0:0:0:
64,192,44569,1,0,0:0:0:0:
64,192,44705,1,0,0:0:0:0:
448,192,44705,1,0,0:0:0:0:
320,192,44705,1,0,0:0:0:0:
192,192,44841,1,0,0:0:0:0:
320,192,44977,1,0,0:0:0:0:
64,192,45112,1,0,0:0:0:0:
192,192,45112,1,0,0:0:0:0:
448,192,45112,1,0,0:0:0:0:
64,192,45249,5,0,0:0:0:0:
320,192,45249,1,0,0:0:0:0:
192,192,45384,1,0,0:0:0:0:
320,192,45384,1,0,0:0:0:0:
64,192,45521,1,0,0:0:0:0:
320,192,45521,1,0,0:0:0:0:
448,192,45521,1,0,0:0:0:0:
192,192,45656,1,0,0:0:0:0:
448,192,45656,1,0,0:0:0:0:
320,192,45792,1,0,0:0:0:0:
192,192,45792,1,0,0:0:0:0:
320,192,45928,5,0,0:0:0:0:
448,192,45928,1,0,0:0:0:0:
192,192,45928,1,0,0:0:0:0:
64,192,45928,1,0,0:0:0:0:
64,192,46064,1,0,0:0:0:0:
192,192,46200,1,0,0:0:0:0:
64,192,46200,1,0,0:0:0:0:
320,192,46200,1,0,0:0:0:0:
448,192,46200,1,0,0:0:0:0:
192,192,46336,1,0,0:0:0:0:
320,192,46471,1,0,0:0:0:0:
448,192,46471,1,0,0:0:0:0:
192,192,46471,1,0,0:0:0:0:
64,192,46471,1,0,0:0:0:0:
320,192,46608,1,0,0:0:0:0:
192,192,46743,1,0,0:0:0:0:
64,192,46743,1,0,0:0:0:0:
320,192,46743,1,0,0:0:0:0:
448,192,46743,1,0,0:0:0:0:
448,192,46879,1,0,0:0:0:0:
192,192,46879,1,0,0:0:0:0:
320,192,47015,1,0,0:0:0:0:
192,192,47015,1,0,0:0:0:0:
64,192,47151,1,0,0:0:0:0:
320,192,47151,1,0,0:0:0:0:
448,192,47151,1,0,0:0:0:0:
192,192,47287,1,0,0:0:0:0:
64,192,47287,1,0,0:0:0:0:
320,192,47422,1,0,0:0:0:0:
192,192,47422,1,0,0:0:0:0:
320,192,47559,1,0,0:0:0:0:
448,192,47559,1,0,0:0:0:0:
192,192,47559,1,0,0:0:0:0:
64,192,47559,1,0,0:0:0:0:
448,192,47694,1,0,0:0:0:0:
192,192,47830,1,0,0:0:0:0:
64,192,47830,1,0,0:0:0:0:
320,192,47830,1,0,0:0:0:0:
448,192,47830,1,0,0:0:0:0:
320,192,47966,1,0,0:0:0:0:
320,192,48102,1,0,0:0:0:0:
448,192,48102,1,0,0:0:0:0:
192,192,48102,1,0,0:0:0:0:
64,192,48102,1,0,0:0:0:0:
192,192,48238,1,0,0:0:0:0:
192,192,48374,1,0,0:0:0:0:
64,192,48374,1,0,0:0:0:0:
320,192,48374,1,0,0:0:0:0:
448,192,48374,1,0,0:0:0:0:
64,192,48509,1,0,0:0:0:0:
320,192,48509,1,0,0:0:0:0:
192,192,48646,1,0,0:0:0:0:
320,192,48646,1,0,0:0:0:0:
64,192,48781,1,0,0:0:0:0:
192,192,48781,1,0,0:0:0:0:
448,192,48781,1,0,0:0:0:0:
320,192,48917,1,0,0:0:0:0:
448,192,48917,1,0,0:0:0:0:
192,192,49053,1,0,0:0:0:0:
320,192,49053,1,0,0:0:0:0:
320,192,49189,1,0,0:0:0:0:
448,192,49189,1,0,0:0:0:0:
192,192,49189,1,0,0:0:0:0:
64,192,49189,1,0,0:0:0:0:
448,192,49325,1,0,0:0:0:0:
192,192,49461,1,0,0:0:0:0:
64,192,49461,1,0,0:0:0:0:
320,192,49461,1,0,0:0:0:0:
448,192,49461,1,0,0:0:0:0:
192,192,49596,1,0,0:0:0:0:
320,192,49732,1,0,0:0:0:0:
448,192,49732,1,0,0:0:0:0:
192,192,49732,1,0,0:0:0:0:
64,192,49732,1,0,0:0:0:0:
320,192,49868,1,0,0:0:0:0:
192,192,50004,1,0,0:0:0:0:
64,192,50004,1,0,0:0:0:0:
320,192,50004,1,0,0:0:0:0:
448,192,50004,1,0,0:0:0:0:
64,192,50140,1,0,0:0:0:0:
320,192,50276,1,0,0:0:0:0:
448,192,50276,1,0,0:0:0:0:
192,192,50276,1,0,0:0:0:0:
64,192,50276,1,0,0:0:0:0:
192,192,50412,1,0,0:0:0:0:
192,192,50548,1,0,0:0:0:0:
64,192,50548,1,0,0:0:0:0:
320,192,50548,1,0,0:0:0:0:
448,192,50548,1,0,0:0:0:0:
448,192,50684,1,0,0:0:0:0:
320,192,50819,1,0,0:0:0:0:
448,192,50819,1,0,0:0:0:0:
192,192,50819,1,0,0:0:0:0:
64,192,50819,1,0,0:0:0:0:
320,192,50955,1,0,0:0:0:0:
64,192,51091,1,0,0:0:0:0:
320,192,51159,1,0,0:0:0:0:
192,192,51227,1,0,0:0:0:0:
64,192,51227,1,0,0:0:0:0:
448,192,51227,1,0,0:0:0:0:
320,192,51362,1,0,0:0:0:0:
192,192,51499,1,0,0:0:0:0:
64,192,51634,1,0,0:0:0:0:
448,192,51634,1,0,0:0:0:0:
320,192,51634,1,0,0:0:0:0:
192,192,51771,1,0,0:0:0:0:
448,192,51771,1,0,0:0:0:0:
64,192,51906,1,0,0:0:0:0:
320,192,51906,1,0,0:0:0:0:
64,192,52042,1,0,0:0:0:0:
448,192,52042,1,0,0:0:0:0:
192,192,52042,1,0,0:0:0:0:
320,192,52178,1,0,0:0:0:0:
64,192,52178,1,0,0:0:0:0:
192,192,52314,1,0,0:0:0:0:
448,192,52314,1,0,0:0:0:0:
64,192,52450,1,0,0:0:0:0:
320,192,52450,1,0,0:0:0:0:
192,192,52450,1,0,0:0:0:0:
448,192,52450,1,0,0:0:0:0:
320,192,52586,1,0,0:0:0:0:
192,192,52721,1,0,0:0:0:0:
448,192,52721,1,0,0:0:0:0:
320,192,52721,1,0,0:0:0:0:
64,192,52721,1,0,0:0:0:0:
192,192,52858,1,0,0:0:0:0:
320,192,52993,1,0,0:0:0:0:
64,192,52993,1,0,0:0:0:0:
192,192,52993,1,0,0:0:0:0:
448,192,52993,1,0,0:0:0:0:
64,192,53129,1,0,0:0:0:0:
192,192,53265,1,0,0:0:0:0:
448,192,53265,1,0,0:0:0:0:
320,192,53265,1,0,0:0:0:0:
64,192,53265,1,0,0:0:0:0:
448,192,53401,1,0,0:0:0:0:
320,192,53401,1,0,0:0:0:0:
64,192,53537,1,0,0:0:0:0:
448,192,53537,1,0,0:0:0:0:
64,192,53672,1,0,0:0:0:0:
192,192,53672,1,0,0:0:0:0:
320,192,53672,1,0,0:0:0:0:
192,192,53809,1,0,0:0:0:0:
448,192,53809,1,0,0:0:0:0:
320,192,53944,1,0,0:0:0:0:
448,192,53944,1,0,0:0:0:0:
320,192,54080,1,0,0:0:0:0:
64,192,54080,1,0,0:0:0:0:
192,192,54080,1,0,0:0:0:0:
448,192,54080,1,0,0:0:0:0:
64,192,54216,1,0,0:0:0:0:
192,192,54352,1,0,0:0:0:0:
448,192,54352,1,0,0:0:0:0:
320,192,54352,1,0,0:0:0:0:
64,192,54352,1,0,0:0:0:0:
192,192,54488,1,0,0:0:0:0:
320,192,54624,1,0,0:0:0:0:
64,192,54624,1,0,0:0:0:0:
192,192,54624,1,0,0:0:0:0:
448,192,54624,1,0,0:0:0:0:
320,192,54759,1,0,0:0:0:0:
192,192,54896,1,0,0:0:0:0:
448,192,54896,1,0,0:0:0:0:
320,192,54896,1,0,0:0:0:0:
64,192,54896,1,0,0:0:0:0:
64,192,55031,1,0,0:0:0:0:
192,192,55031,1,0,0:0:0:0:
192,192,55167,1,0,0:0:0:0:
448,192,55167,1,0,0:0:0:0:
64,192,55303,1,0,0:0:0:0:
320,192,55303,1,0,0:0:0:0:
448,192,55303,1,0,0:0:0:0:
192,192,55439,1,0,0:0:0:0:
320,192,55439,1,0,0:0:0:0:
448,192,55575,1,0,0:0:0:0:
192,192,55575,1,0,0:0:0:0:
320,192,55711,1,0,0:0:0:0:
64,192,55711,1,0,0:0:0:0:
192,192,55711,1,0,0:0:0:0:
448,192,55711,1,0,0:0:0:0:
320,192,55846,1,0,0:0:0:0:
192,192,55982,1,0,0:0:0:0:
448,192,55982,1,0,0:0:0:0:
320,192,55982,1,0,0:0:0:0:
64,192,55982,1,0,0:0:0:0:
192,192,56118,1,0,0:0:0:0:
320,192,56254,1,0,0:0:0:0:
64,192,56254,1,0,0:0:0:0:
192,192,56254,1,0,0:0:0:0:
448,192,56254,1,0,0:0:0:0:
448,192,56390,1,0,0:0:0:0:
192,192,56526,1,0,0:0:0:0:
448,192,56526,1,0,0:0:0:0:
320,192,56526,1,0,0:0:0:0:
64,192,56526,1,0,0:0:0:0:
320,192,56662,1,0,0:0:0:0:
320,192,56798,1,0,0:0:0:0:
64,192,56798,1,0,0:0:0:0:
192,192,56798,1,0,0:0:0:0:
448,192,56798,1,0,0:0:0:0:
64,192,56934,1,0,0:0:0:0:
320,192,57069,1,0,0:0:0:0:
64,192,57069,1,0,0:0:0:0:
192,192,57069,1,0,0:0:0:0:
448,192,57069,1,0,0:0:0:0:
192,192,57205,1,0,0:0:0:0:
192,192,57341,1,0,0:0:0:0:
448,192,57341,1,0,0:0:0:0:
320,192,57341,1,0,0:0:0:0:
64,192,57341,1,0,0:0:0:0:
448,192,57477,1,0,0:0:0:0:
320,192,57612,1,0,0:0:0:0:
64,192,57612,1,0,0:0:0:0:
64,192,57749,1,0,0:0:0:0:
192,192,57749,1,0,0:0:0:0:
448,192,57749,1,0,0:0:0:0:
320,192,57884,1,0,0:0:0:0:
448,192,57884,1,0,0:0:0:0:
64,192,58021,1,0,0:0:0:0:
320,192,58021,1,0,0:0:0:0:
64,192,58156,1,0,0:0:0:0:
192,192,58156,1,0,0:0:0:0:
448,192,58156,1,0,0:0:0:0:
64,192,58292,1,0,0:0:0:0:
320,192,58292,1,0,0:0:0:0:
64,192,58428,1,0,0:0:0:0:
192,192,58428,1,0,0:0:0:0:
64,192,58564,1,0,0:0:0:0:
320,192,58564,1,0,0:0:0:0:
448,192,58564,1,0,0:0:0:0:
192,192,58700,1,0,0:0:0:0:
448,192,58700,1,0,0:0:0:0:
320,192,58836,1,0,0:0:0:0:
448,192,58836,1,0,0:0:0:0:
192,192,58971,5,0,0:0:0:0:
320,192,58971,1,0,0:0:0:0:
64,192,58971,1,0,0:0:0:0:
448,192,58971,1,0,0:0:0:0:
64,192,59108,1,0,0:0:0:0:
320,192,59243,1,0,0:0:0:0:
448,192,59243,1,0,0:0:0:0:
192,192,59243,1,0,0:0:0:0:
64,192,59243,1,0,0:0:0:0:
320,192,59379,1,0,0:0:0:0:
192,192,59515,1,0,0:0:0:0:
64,192,59515,1,0,0:0:0:0:
320,192,59515,1,0,0:0:0:0:
448,192,59515,1,0,0:0:0:0:
192,192,59651,1,0,0:0:0:0:
320,192,59787,1,0,0:0:0:0:
448,192,59787,1,0,0:0:0:0:
192,192,59787,1,0,0:0:0:0:
64,192,59787,1,0,0:0:0:0:
64,192,59922,1,0,0:0:0:0:
320,192,59922,1,0,0:0:0:0:
192,192,60059,1,0,0:0:0:0:
320,192,60059,1,0,0:0:0:0:
448,192,60194,1,0,0:0:0:0:
192,192,60194,1,0,0:0:0:0:
64,192,60194,1,0,0:0:0:0:
320,192,60330,1,0,0:0:0:0:
448,192,60330,1,0,0:0:0:0:
192,192,60466,1,0,0:0:0:0:
320,192,60466,1,0,0:0:0:0:
192,192,60602,1,0,0:0:0:0:
64,192,60602,1,0,0:0:0:0:
320,192,60602,1,0,0:0:0:0:
448,192,60602,1,0,0:0:0:0:
64,192,60738,1,0,0:0:0:0:
320,192,60874,1,0,0:0:0:0:
448,192,60874,1,0,0:0:0:0:
192,192,60874,1,0,0:0:0:0:
64,192,60874,1,0,0:0:0:0:
192,192,61009,1,0,0:0:0:0:
192,192,61146,1,0,0:0:0:0:
64,192,61146,1,0,0:0:0:0:
320,192,61146,1,0,0:0:0:0:
448,192,61146,1,0,0:0:0:0:
320,192,61281,1,0,0:0:0:0:
320,192,61417,1,0,0:0:0:0:
448,192,61417,1,0,0:0:0:0:
192,192,61417,1,0,0:0:0:0:
64,192,61417,1,0,0:0:0:0:
448,192,61553,1,0,0:0:0:0:
64,192,61553,1,0,0:0:0:0:
320,192,61689,1,0,0:0:0:0:
192,192,61689,1,0,0:0:0:0:
448,192,61825,1,0,0:0:0:0:
320,192,61825,1,0,0:0:0:0:
64,192,61825,1,0,0:0:0:0:
192,192,61961,1,0,0:0:0:0:
64,192,61961,1,0,0:0:0:0:
320,192,62096,1,0,0:0:0:0:
192,192,62096,1,0,0:0:0:0:
192,192,62232,1,0,0:0:0:0:
64,192,62232,1,0,0:0:0:0:
320,192,62232,1,0,0:0:0:0:
448,192,62232,1,0,0:0:0:0:
64,192,62368,1,0,0:0:0:0:
320,192,62504,1,0,0:0:0:0:
448,192,62504,1,0,0:0:0:0:
192,192,62504,1,0,0:0:0:0:
64,192,62504,1,0,0:0:0:0:
320,192,62640,1,0,0:0:0:0:
192,192,62776,1,0,0:0:0:0:
64,192,62776,1,0,0:0:0:0:
320,192,62776,1,0,0:0:0:0:
448,192,62776,1,0,0:0:0:0:
192,192,62912,1,0,0:0:0:0:
320,192,63048,1,0,0:0:0:0:
448,192,63048,1,0,0:0:0:0:
192,192,63048,1,0,0:0:0:0:
64,192,63048,1,0,0:0:0:0:
448,192,63184,1,0,0:0:0:0:
192,192,63319,1,0,0:0:0:0:
64,192,63319,1,0,0:0:0:0:
320,192,63319,1,0,0:0:0:0:
448,192,63319,1,0,0:0:0:0:
320,192,63455,1,0,0:0:0:0:
320,192,63591,1,0,0:0:0:0:
448,192,63591,1,0,0:0:0:0:
192,192,63591,1,0,0:0:0:0:
64,192,63591,1,0,0:0:0:0:
64,192,63727,1,0,0:0:0:0:
192,192,63862,1,0,0:0:0:0:
64,192,63862,1,0,0:0:0:0:
320,192,63862,1,0,0:0:0:0:
448,192,63862,1,0,0:0:0:0:
192,192,63999,1,0,0:0:0:0:
448,192,64134,1,0,0:0:0:0:
192,192,64202,1,0,0:0:0:0:
320,192,64271,1,0,0:0:0:0:
448,192,64271,1,0,0:0:0:0:
64,192,64271,1,0,0:0:0:0:
192,192,64406,1,0,0:0:0:0:
320,192,64542,1,0,0:0:0:0:
448,192,64678,1,0,0:0:0:0:
64,192,64678,1,0,0:0:0:0:
192,192,64678,1,0,0:0:0:0:
320,192,64814,1,0,0:0:0:0:
64,192,64814,1,0,0:0:0:0:
448,192,64950,1,0,0:0:0:0:
192,192,64950,1,0,0:0:0:0:
448,192,65086,1,0,0:0:0:0:
64,192,65086,1,0,0:0:0:0:
320,192,65086,1,0,0:0:0:0:
192,192,65221,1,0,0:0:0:0:
448,192,65221,1,0,0:0:0:0:
320,192,65358,1,0,0:0:0:0:
64,192,65358,1,0,0:0:0:0:
448,192,65493,1,0,0:0:0:0:
192,192,65493,1,0,0:0:0:0:
320,192,65493,1,0,0:0:0:0:
64,192,65493,1,0,0:0:0:0:
192,192,65629,1,0,0:0:0:0:
320,192,65765,1,0,0:0:0:0:
64,192,65765,1,0,0:0:0:0:
192,192,65765,1,0,0:0:0:0:
448,192,65765,1,0,0:0:0:0:
320,192,65901,1,0,0:0:0:0:
192,192,66037,1,0,0:0:0:0:
448,192,66037,1,0,0:0:0:0:
320,192,66037,1,0,0:0:0:0:
64,192,66037,1,0,0:0:0:0:
448,192,66172,1,0,0:0:0:0:
320,192,66309,1,0,0:0:0:0:
64,192,66309,1,0,0:0:0:0:
192,192,66309,1,0,0:0:0:0:
448,192,66309,1,0,0:0:0:0:
64,192,66444,1,0,0:0:0:0:
192,192,66444,1,0,0:0:0:0:
448,192,66580,1,0,0:0:0:0:
64,192,66580,1,0,0:0:0:0:
448,192,66716,1,0,0:0:0:0:
320,192,66716,1,0,0:0:0:0:
192,192,66716,1,0,0:0:0:0:
320,192,66852,1,0,0:0:0:0:
64,192,66852,1,0,0:0:0:0:
192,192,66988,1,0,0:0:0:0:
64,192,66988,1,0,0:0:0:0:
192,192,67124,1,0,0:0:0:0:
448,192,67124,1,0,0:0:0:0:
320,192,67124,1,0,0:0:0:0:
64,192,67124,1,0,0:0:0:0:
448,192,67259,1,0,0:0:0:0:
320,192,67396,1,0,0:0:0:0:
64,192,67396,1,0,0:0:0:0:
192,192,67396,1,0,0:0:0:0:
448,192,67396,1,0,0:0:0:0:
320,192,67531,1,0,0:0:0:0:
192,192,67667,1,0,0:0:0:0:
448,192,67667,1,0,0:0:0:0:
320,192,67667,1,0,0:0:0:0:
64,192,67667,1,0,0:0:0:0:
192,192,67803,1,0,0:0:0:0:
320,192,67939,1,0,0:0:0:0:
64,192,67939,1,0,0:0:0:0:
192,192,67939,1,0,0:0:0:0:
448,192,67939,1,0,0:0:0:0:
448,192,68075,1,0,0:0:0:0:
320,192,68075,1,0,0:0:0:0:
320,192,68211,1,0,0:0:0:0:
64,192,68211,1,0,0:0:0:0:
448,192,68346,1,0,0:0:0:0:
192,192,68346,1,0,0:0:0:0:
64,192,68346,1,0,0:0:0:0:
320,192,68482,1,0,0:0:0:0:
192,192,68482,1,0,0:0:0:0:
64,192,68618,1,0,0:0:0:0:
320,192,68618,1,0,0:0:0:0:
192,192,68754,1,0,0:0:0:0:
448,192,68754,1,0,0:0:0:0:
320,192,68754,1,0,0:0:0:0:
64,192,68754,1,0,0:0:0:0:
192,192,68890,1,0,0:0:0:0:
320,192,69026,1,0,0:0:0:0:
64,192,69026,1,0,0:0:0:0:
192,192,69026,1,0,0:0:0:0:
448,192,69026,1,0,0:0:0:0:
320,192,69162,1,0,0:0:0:0:
192,192,69298,1,0,0:0:0:0:
448,192,69298,1,0,0:0:0:0:
320,192,69298,1,0,0:0:0:0:
64,192,69298,1,0,0:0:0:0:
64,192,69434,1,0,0:0:0:0:
320,192,69569,1,0,0:0:0:0:
64,192,69569,1,0,0:0:0:0:
192,192,69569,1,0,0:0:0:0:
448,192,69569,1,0,0:0:0:0:
192,192,69705,1,0,0:0:0:0:
192,192,69841,1,0,0:0:0:0:
448,192,69841,1,0,0:0:0:0:
320,192,69841,1,0,0:0:0:0:
64,192,69841,1,0,0:0:0:0:
448,192,69977,1,0,0:0:0:0:
192,192,70112,1,0,0:0:0:0:
448,192,70112,1,0,0:0:0:0:
320,192,70112,1,0,0:0:0:0:
64,192,70112,1,0,0:0:0:0:
320,192,70249,1,0,0:0:0:0:
320,192,70384,1,0,0:0:0:0:
64,192,70384,1,0,0:0:0:0:
192,192,70384,1,0,0:0:0:0:
448,192,70384,1,0,0:0:0:0:
64,192,70521,1,0,0:0:0:0:
192,192,70656,1,0,0:0:0:0:
448,192,70656,1,0,0:0:0:0:
448,192,70792,1,0,0:0:0:0:
320,192,70792,1,0,0:0:0:0:
64,192,70792,1,0,0:0:0:0:
192,192,70928,1,0,0:0:0:0:
64,192,70928,1,0,0:0:0:0:
448,192,71064,1,0,0:0:0:0:
192,192,71064,1,0,0:0:0:0:
448,192,71200,1,0,0:0:0:0:
320,192,71200,1,0,0:0:0:0:
64,192,71200,1,0,0:0:0:0:
448,192,71336,1,0,0:0:0:0:
192,192,71336,1,0,0:0:0:0:
448,192,71471,1,0,0:0:0:0:
320,192,71471,1,0,0:0:0:0:
448,192,71608,1,0,0:0:0:0:
192,192,71608,1,0,0:0:0:0:
64,192,71608,1,0,0:0:0:0:
320,192,71743,1,0,0:0:0:0:
64,192,71743,1,0,0:0:0:0:
192,192,71879,1,0,0:0:0:0:
320,192,71879,1,0,0:0:0:0:
64,192,72015,1,0,0:0:0:0:
192,192,72015,1,0,0:0:0:0:
320,192,72015,1,0,0:0:0:0:
448,192,72015,1,0,0:0:0:0:
