osu file format v14

[General]
AudioFilename: audio.mp3
AudioLeadIn: 0
PreviewTime: -1
Countdown: 1
SampleSet: None
StackLeniency: 0.7
Mode: 0
LetterboxInBreaks: 0
WidescreenStoryboard: 0

[Editor]
DistanceSpacing: 1.1
BeatDivisor: 4
GridSize: 4
TimelineZoom: 1

[Metadata]
Title:NieR: Automata OST - The Sound of the End
TitleUnicode:NieR: Automata OST - The Sound of the End
Artist:Keiichi Okabe
ArtistUnicode:Keiichi Okabe
Creator:LacieChan
Version:Normal
Source:Nier Automata
Tags:Nier Automata Game 2B
BeatmapID:1251091
BeatmapSetID:591170

[Difficulty]
HPDrainRate:3
CircleSize:5
OverallDifficulty:4
ApproachRate:5
SliderMultiplier:0.80000000596046
SliderTickRate:3

[Events]
//Background and Video events
0,0,"Nier-Automata-01.jpg",0,0
//Break Periods
2,39791,40678
2,167149,168821
//Storyboard Layer 0 (Background)
//Storyboard Layer 1 (Fail)
//Storyboard Layer 2 (Pass)
//Storyboard Layer 3 (Foreground)
//Storyboard Sound Samples

[TimingPoints]
46592.7424790445,285.714285714286,4,1,0,100,1,0

[HitObjects]
68,112,4735,5,0,0:0:0:0:
204,72,7449,1,0,0:0:0:0:
380,80,9807,1,0,0:0:0:0:
400,160,10664,1,0,0:0:0:0:
252,188,11735,1,0,0:0:0:0:
396,208,12949,1,0,0:0:0:0:
280,216,14164,1,0,0:0:0:0:
280,216,15307,1,0,0:0:0:0:
280,216,16449,1,0,0:0:0:0:
280,216,17664,1,0,0:0:0:0:
280,216,18878,1,0,0:0:0:0:
280,216,20092,1,0,0:0:0:0:
280,216,21164,1,0,0:0:0:0:
260,108,22235,1,0,0:0:0:0:
300,100,23521,1,0,0:0:0:0:
300,100,24592,1,0,0:0:0:0:
404,84,25664,1,0,0:0:0:0:
404,84,26878,1,0,0:0:0:0:
436,168,28092,1,0,0:0:0:0:
280,232,29307,1,0,0:0:0:0:
132,240,30449,1,0,0:0:0:0:
128,208,31449,1,0,0:0:0:0:
100,172,32735,1,0,0:0:0:0:
100,172,33378,2,0,B|332:84|340:80|324:76,1,240.000001788138
128,176,34949,2,0,L|376:300,5,260.000001937149
96,124,41878,6,0,L|168:96,17,60.0000004470345,0|0|0|0|0|0|0|0|0|2|0|0|0|0|0|0|0|0,0:0|0:0|0:0|0:0|0:0|0:0|0:0|0:0|0:0|0:0|0:0|0:0|0:0|0:0|0:0|0:0|0:0|0:0,0:0:0:0:
48,124,46592,5,0,0:0:0:0:
156,108,47735,1,0,0:0:0:0:
260,96,48878,1,0,0:0:0:0:
420,148,50021,1,0,0:0:0:0:
416,192,51235,1,0,0:0:0:0:
188,228,52378,1,0,0:0:0:0:
40,216,53449,1,0,0:0:0:0:
84,128,54521,1,0,0:0:0:0:
224,120,55949,1,4,0:0:0:0:
328,104,56878,1,4,0:0:0:0:
428,116,58092,1,4,0:0:0:0:
444,200,59235,1,4,0:0:0:0:
272,200,60378,1,4,0:0:0:0:
272,200,61521,1,4,0:0:0:0:
272,200,62735,1,4,0:0:0:0:
272,200,63878,1,4,0:0:0:0:
36,216,65021,6,8,P|400:80|456:360,1,760.000005662437,0|0,0:0|0:0,0:0:0:0:
132,128,70092,5,0,0:0:0:0:
208,96,71449,1,0,0:0:0:0:
312,96,72807,1,0,0:0:0:0:
440,120,74235,1,0,0:0:0:0:
156,172,75378,1,0,0:0:0:0:
144,136,76521,1,0,0:0:0:0:
400,52,77021,1,0,0:0:0:0:
288,116,78807,1,0,0:0:0:0:
304,108,79949,1,0,0:0:0:0:
412,124,81164,1,0,0:0:0:0:
176,332,82307,1,0,0:0:0:0:
24,192,83521,1,0,0:0:0:0:
228,68,84807,1,0,0:0:0:0:
468,184,85878,1,0,0:0:0:0:
272,304,87592,1,0,0:0:0:0:
16,200,89164,1,0,0:0:0:0:
36,204,92235,2,0,P|304:192|60:272,1,760.000005662437
76,212,96449,6,0,L|412:104,1,340.000002533195
56,72,97949,2,0,B|464:280|408:96,1,440.000003278253
36,72,100735,1,0,0:0:0:0:
40,160,102021,1,0,0:0:0:0:
84,192,103021,1,0,0:0:0:0:
176,192,104164,1,0,0:0:0:0:
280,192,105307,1,0,0:0:0:0:
356,184,106592,1,0,0:0:0:0:
440,188,107735,1,0,0:0:0:0:
456,104,108949,1,0,0:0:0:0:
352,80,110164,1,0,0:0:0:0:
204,80,111164,1,0,0:0:0:0:
52,80,112307,1,0,0:0:0:0:
160,132,113449,1,0,0:0:0:0:
68,232,114664,1,0,0:0:0:0:
140,120,115735,1,0,0:0:0:0:
140,120,116878,1,0,0:0:0:0:
140,120,118021,1,0,0:0:0:0:
252,152,119164,1,0,0:0:0:0:
256,192,120235,12,0,126092,0:0:0:0:
64,120,129664,5,0,0:0:0:0:
188,120,130807,1,0,0:0:0:0:
460,128,132021,1,0,0:0:0:0:
8,292,133092,1,0,0:0:0:0:
168,288,134164,1,0,0:0:0:0:
408,296,135235,1,0,0:0:0:0:
48,80,137235,1,0,0:0:0:0:
352,72,138878,1,0,0:0:0:0:
264,192,139949,1,0,0:0:0:0:
264,192,141092,1,0,0:0:0:0:
264,192,142378,1,0,0:0:0:0:
264,192,143449,1,0,0:0:0:0:
264,192,144592,1,0,0:0:0:0:
264,192,145735,1,0,0:0:0:0:
264,192,146949,1,0,0:0:0:0:
264,192,148092,1,0,0:0:0:0:
264,192,149235,1,0,0:0:0:0:
264,192,150449,1,0,0:0:0:0:
264,192,151449,1,0,0:0:0:0:
420,108,152664,1,0,0:0:0:0:
208,92,153807,1,0,0:0:0:0:
132,176,155021,1,0,0:0:0:0:
128,200,156092,1,0,0:0:0:0:
124,232,157235,1,0,0:0:0:0:
140,280,158449,1,0,0:0:0:0:
396,352,158949,1,0,0:0:0:0:
128,200,159521,1,0,0:0:0:0:
276,200,160735,1,0,0:0:0:0:
8,36,161307,1,0,0:0:0:0:
336,164,161949,1,0,0:0:0:0:
324,248,163021,1,0,0:0:0:0:
12,228,163592,1,0,0:0:0:0:
344,124,164235,1,0,0:0:0:0:
264,180,164592,6,0,B|16:276|172:232,3,220.000001639126
64,116,170021,6,0,L|472:244,3,420.000003129241
232,204,175307,2,0,P|120:212|112:220,4,120.000000894069
72,132,177592,2,0,B|424:200|424:200|432:204,5,360.000002682207
60,120,184949,5,0,0:0:0:0:
100,144,186092,1,0,0:0:0:0:
312,124,187307,1,0,0:0:0:0:
392,144,188521,1,0,0:0:0:0:
412,200,189664,1,0,0:0:0:0:
256,220,190735,1,0,0:0:0:0:
