osu file format v14

[General]
AudioFilename: Drakengard 3 OST - Mission Select Menu - Emi Evans.mp3
AudioLeadIn: 0
PreviewTime: 416
Countdown: 0
SampleSet: Soft
StackLeniency: 0.7
Mode: 0
LetterboxInBreaks: 0
WidescreenStoryboard: 0

[Editor]
Bookmarks: 70537,124730
DistanceSpacing: 1.2
BeatDivisor: 2
GridSize: 4
TimelineZoom: 1

[Metadata]
Title:Descendeus
TitleUnicode:Descendeus
Artist:Keiichi Okabe
ArtistUnicode:Keiichi Okabe
Creator:FlobuFlobs
Version:Easy
Source:Drag-on Dragoon 3
Tags:Drakengard 3 Emi Evans SQUARE ENIX
BeatmapID:1396963
BeatmapSetID:659645

[Difficulty]
HPDrainRate:2
CircleSize:4
OverallDifficulty:3
ApproachRate:3
SliderMultiplier:1
SliderTickRate:1

[Events]
//Background and Video events
0,0,"maxresdefault.jpg",0,0
//Break Periods
//Storyboard Layer 0 (Background)
//Storyboard Layer 1 (Fail)
//Storyboard Layer 2 (Pass)
//Storyboard Layer 3 (Foreground)
//Storyboard Sound Samples

[TimingPoints]
900,967.741935483871,4,2,2,30,1,0
120900,-100,4,2,2,30,0,0
122835,-100,4,2,2,20,0,0
124730,-100,4,2,2,10,0,0

[Colours]
Combo1 : 31,97,64
Combo2 : 159,159,223

[HitObjects]
80,100,900,6,0,B|156:64|220:120|220:120|288:180|376:132,1,300,2|0,0:0|0:0,0:0:0:0:
456,72,4770,2,0,P|480:168|456:284,1,200,2|0,0:0|0:0,0:0:0:0:
228,312,8641,6,0,P|176:308|124:312,2,100,2|0|0,0:0|0:0|0:0,0:0:0:0:
344,344,11545,1,0,0:0:0:0:
448,284,12512,2,0,B|424:228|464:192|464:192|424:144|448:96,1,200,2|0,0:0|0:0,0:0:0:0:
216,132,16383,6,0,P|264:148|316:132,2,100,2|0|0,0:0|0:0|0:0,0:0:0:0:
108,76,19287,1,2,0:0:0:0:
20,158,20254,6,0,P|13:203|28:258,1,100,2|0,0:0|0:0,0:0:0:0:
99,356,22190,1,0,0:0:0:0:
198,288,23158,1,0,0:0:0:0:
304,343,24125,6,0,B|355:376|431:332|502:343,2,200,6|0|0,0:0|0:0|0:0,0:0:0:0:
198,288,28964,1,0,0:0:0:0:
99,356,29932,1,0,0:0:0:0:
97,237,30900,1,0,0:0:0:0:
76,118,31867,6,0,P|44:122|-8:106,2,50,2|0|0,0:0|0:0|0:0,0:0:0:0:
131,95,33319,1,0,0:0:0:0:
187,114,33803,1,0,0:0:0:0:
286,47,34770,2,0,P|322:39|362:47,1,50
393,51,35738,6,0,B|449:141|411:245,1,200,2|0,0:0|0:0,0:0:0:0:
361,351,38641,1,0,0:0:0:0:
257,290,39609,6,0,L|196:297,1,50,2|0,0:0|0:0,0:0:0:0:
166,340,40577,2,0,L|116:334,1,50,2|0,0:0|0:0,0:0:0:0:
71,294,41545,1,0,0:0:0:0:
14,188,42512,2,0,P|46:184|82:164,1,50
38,121,43480,6,0,P|122:161|242:150,1,200,2|0,0:0|0:0,0:0:0:0:
331,97,46383,1,0,0:0:0:0:
421,175,47351,5,2,0:0:0:0:
417,234,47835,1,2,0:0:0:0:
370,271,48319,2,0,P|417:288|475:264,2,100,2|0|0,0:0|0:0|0:0,0:0:0:0:
275,345,51222,6,0,P|179:319|81:338,1,200,2|2,0:0|0:0,0:0:0:0:
369,343,55093,6,0,B|437:355|465:315|465:315|453:267|477:219,1,200,0|0,0:0|0:0,0:0:0:0:
476,40,58964,6,0,B|408:24|336:56|336:56|251:100|169:54,1,300,2|0,0:0|0:0,0:0:0:0:
65,64,62835,6,0,L|70:113,1,50,2|0,0:0|0:0,0:0:0:0:
78,173,63803,1,0,0:0:0:0:
84,232,64287,1,0,0:0:0:0:
39,272,64770,2,0,P|56:286|93:290,1,50
143,290,65738,2,0,P|167:294|192:309,1,50
234,345,66706,6,0,P|283:336|327:314,3,100,2|2|0|0,0:0|0:0|0:0|0:0,0:0:0:0:
439,357,70577,6,0,P|455:259|431:162,1,200,2|0,0:0|0:0,0:0:0:0:
336,76,73480,2,0,P|360:88|408:80,1,50,2|0,0:0|0:0,0:0:0:0:
423,45,74448,6,0,P|319:41|227:93,1,200,2|0,0:0|0:0,0:0:0:0:
204,129,76867,1,0,0:0:0:0:
184,185,77351,1,0,0:0:0:0:
187,247,77835,1,0,0:0:0:0:
141,285,78319,6,0,P|187:309|239:285,2,100,2|0|0,0:0|0:0|0:0,0:0:0:0:
81,180,81222,1,0,0:0:0:0:
111,128,81706,1,0,0:0:0:0:
75,79,82190,6,0,P|143:52|215:69,1,150,2|0,0:0|0:0,0:0:0:0:
259,110,84125,2,0,P|306:123|352:107,1,100,2|0,0:0|0:0,0:0:0:0:
398,68,85577,1,0,0:0:0:0:
446,102,86061,6,0,B|446:150|446:150|450:170|450:170|450:246,1,100,2|0,0:0|0:0,0:0:0:0:
458,261,87512,1,0,0:0:0:0:
469,319,87996,2,0,P|426:341|337:327,1,100
251,358,89932,6,0,P|260:315|258:258,1,100
240,201,91383,1,0,0:0:0:0:
240,140,91867,2,0,P|264:135|320:136,1,50
332,174,92835,2,0,P|356:172|381:167,1,50
440,176,93803,6,0,P|451:225|443:273,3,100,2|2|2|2,0:0|0:0|0:0|0:0,0:0:0:0:
494,384,97674,2,0,P|412:330|318:354,1,200,6|0,0:0|0:0,0:0:0:0:
256,252,100577,1,0,0:0:0:0:
137,230,101545,6,0,P|136:279|158:324,2,100,2|0|0,0:0|0:0|0:0,0:0:0:0:
170,114,104448,1,0,0:0:0:0:
271,50,105416,6,0,L|320:46,1,50,2|0,0:0|0:0,0:0:0:0:
332,104,106383,2,0,L|382:108,1,50
431,141,107351,2,0,P|439:189|427:238,1,100,2|0,0:0|0:0,0:0:0:0:
334,314,109287,6,0,L|284:311,1,50,2|0,0:0|0:0,0:0:0:0:
265,254,110254,2,0,L|215:257,1,50
160,232,111222,1,2,0:0:0:0:
44,265,112190,2,0,P|40:237|48:201,1,50,2|0,0:0|0:0,0:0:0:0:
82,170,113158,6,0,B|102:130|98:82|90:70|90:70|38:94|-18:46,1,200,2|0,0:0|0:0,0:0:0:0:
256,192,117029,12,0,124770,0:0:0:0:
