osu file format v14

[General]
AudioFilename: Drakengard 3 OST - Mission Select Menu - Emi Evans.mp3
AudioLeadIn: 0
PreviewTime: 416
Countdown: 0
SampleSet: Soft
StackLeniency: 0.7
Mode: 0
LetterboxInBreaks: 0
WidescreenStoryboard: 1

[Editor]
Bookmarks: 70577,124770
DistanceSpacing: 0.9
BeatDivisor: 4
GridSize: 4
TimelineZoom: 1

[Metadata]
Title:Descendeus
TitleUnicode:Descendeus
Artist:Keiichi Okabe
ArtistUnicode:Keiichi Okabe
Creator:FlobuFlobs
Version:Ax3
Source:Drag-on Dragoon 3
Tags:Drakengard 3 Emi Evans SQUARE ENIX
BeatmapID:1397004
BeatmapSetID:659645

[Difficulty]
HPDrainRate:4
CircleSize:5.5
OverallDifficulty:6
ApproachRate:4
SliderMultiplier:1
SliderTickRate:1

[Events]
//Background and Video events
0,0,"maxresdefault.jpg",0,0
//Break Periods
//Storyboard Layer 0 (Background)
//Storyboard Layer 1 (Fail)
//Storyboard Layer 2 (Pass)
//Storyboard Layer 3 (Foreground)
//Storyboard Sound Samples

[TimingPoints]
900,967.741935483871,4,2,2,50,1,0
13480,-100,4,2,2,5,0,0
13722,-100,4,2,2,50,0,0
36706,-100,4,2,2,5,0,0
36948,-100,4,2,2,50,0,0
49287,-100,4,2,2,5,0,0
49529,-100,4,2,2,50,0,0
52190,-100,4,2,2,5,0,0
52432,-100,4,2,2,50,0,0
58722,-100,4,2,2,5,0,0
58964,-100,4,2,2,50,0,0
61867,-100,4,2,2,5,0,0
62835,-100,4,2,2,25,0,0
63077,-100,4,2,2,5,0,0
63803,-100,4,2,2,25,0,0
64045,-100,4,2,2,5,0,0
64770,-100,4,2,2,25,0,0
65012,-100,4,2,2,5,0,0
65738,-100,4,2,2,35,0,0
118964,-100,4,2,2,40,0,0
120900,-100,4,2,2,30,0,0
122835,-100,4,2,2,20,0,0
124770,-100,4,2,2,10,0,0

[Colours]
Combo1 : 31,97,64
Combo2 : 159,159,223

[HitObjects]
38,83,900,6,0,B|89:100|139:93|139:93|194:112|234:104,1,200,2|0,0:0|0:0,0:0:0:0:
432,72,3803,1,0,0:0:0:0:
432,72,4770,2,0,P|470:162|446:257,1,200,2|0,0:0|0:0,0:0:0:0:
47,303,8641,6,0,P|147:301|265:311,1,200,2|0,0:0|0:0,0:0:0:0:
367,337,11545,1,0,0:0:0:0:
458,195,12512,2,0,P|339:181|261:216,1,200,2|0,0:0|0:0,0:0:0:0:
8,123,16383,6,0,P|127:137|205:102,1,200,2|0,0:0|0:0,0:0:0:0:
275,27,19287,1,0,0:0:0:0:
464,89,20254,2,0,P|476:136|455:202,1,100,2|0,0:0|0:0,0:0:0:0:
392,276,22190,2,0,P|361:238|352:169,1,100
463,335,24125,6,0,B|406:348|367:340|367:340|312:330|261:355,1,200,6|0,0:0|0:0,0:0:0:0:
266,352,27029,1,0,0:0:0:0:
36,302,27996,2,0,P|75:292|152:297,3,100,2|0|0|0,0:0|0:0|0:0|0:0,0:0:0:0:
323,360,31867,6,0,P|333:330|333:290,1,50,2|0,0:0|0:0,0:0:0:0:
256,256,32835,2,0,P|246:226|246:186,1,50,2|0,0:0|0:0,0:0:0:0:
274,116,33803,1,0,0:0:0:0:
459,41,34770,1,0,0:0:0:0:
459,41,35738,6,0,B|476:92|469:142|469:142|488:197|480:237,1,200,2|0,0:0|0:0,0:0:0:0:
458,323,38641,1,0,0:0:0:0:
324,341,39609,6,0,L|271:335,1,50,2|0,0:0|0:0,0:0:0:0:
212,256,40577,2,0,L|162:261,1,50
78,353,41545,2,0,P|54:316|48:244,1,100
49,80,43480,6,0,P|98:73|140:47,3,100,6|0|0|0,0:0|0:0|0:0|0:0,0:0:0:0:
202,116,47351,6,0,P|227:115|253:109,1,50,2|0,0:0|0:0,0:0:0:0:
303,194,48319,2,0,P|327:188|500:219,1,200,2|0,0:0|0:0,0:0:0:0:
223,348,51222,2,0,B|235:305|209:252|209:252|189:207|208:139,1,200,2|0,0:0|0:0,0:0:0:0:
219,69,54125,1,0,0:0:0:0:
256,192,55093,12,0,58722,0:0:0:0:
256,192,58964,12,0,61867,0:0:0:0:
416,50,62835,6,0,L|369:52,1,25
270,140,63803,2,0,L|294:141,1,25
471,222,64770,2,0,L|424:224,1,25
351,310,65738,2,0,P|323:311|285:326,1,50
218,354,66706,6,0,P|114:369|16:352,2,200,6|0|0,0:0|0:0|0:0,0:0:0:0:
302,317,71545,1,0,0:0:0:0:
390,286,72512,1,0,0:0:0:0:
471,336,73480,2,0,P|481:309|482:270,1,50
316,179,74448,6,0,B|378:202|419:192|419:192|476:170|523:188,2,200,6|0|0,0:0|0:0|0:0,0:0:0:0:
240,128,79287,1,0,0:0:0:0:
167,181,80254,1,0,0:0:0:0:
85,147,81222,2,0,P|77:178|83:206,1,50
5,295,82190,6,0,P|114:293|212:337,1,200,2|0,0:0|0:0,0:0:0:0:
275,384,85093,1,0,0:0:0:0:
320,304,85577,1,0,0:0:0:0:
377,363,86061,6,0,P|361:313|362:248,1,100,2|0,0:0|0:0,0:0:0:0:
425,204,87996,2,0,P|422:154|407:106,1,100,2|0,0:0|0:0,0:0:0:0:
342,43,89932,6,0,P|247:30|137:47,1,200,6|0,0:0|0:0,0:0:0:0:
132,50,92835,1,0,0:0:0:0:
0,182,93803,6,0,L|64:167,1,50,2|0,0:0|0:0,0:0:0:0:
79,250,94770,2,0,L|127:261,1,50,2|0,0:0|0:0,0:0:0:0:
174,177,95738,2,0,L|238:162,1,50,2|0,0:0|0:0,0:0:0:0:
244,277,96706,2,0,L|292:288,1,50,2|0,0:0|0:0,0:0:0:0:
421,366,97674,6,0,P|454:306|435:168,1,200,6|0,0:0|0:0,0:0:0:0:
317,46,101545,6,0,P|284:47|262:50,1,50,2|0,0:0|0:0,0:0:0:0:
128,110,102512,2,0,P|152:110|177:113,1,50,2|0,0:0|0:0,0:0:0:0:
294,179,103480,2,0,P|261:180|239:183,1,50,2|0,0:0|0:0,0:0:0:0:
145,250,104448,2,0,P|178:251|200:254,1,50,2|0,0:0|0:0,0:0:0:0:
314,321,105416,6,0,P|225:351|105:348,1,200,6|0,0:0|0:0,0:0:0:0:
26,81,109287,6,0,B|70:72|126:77|126:77|179:83|238:68,1,200,2|0,0:0|0:0,0:0:0:0:
437,71,112190,2,0,P|405:72|368:62,1,50,0|0,0:0|0:0,0:0:0:0:
311,167,113158,2,0,P|408:154|519:168,1,200,2|0,0:0|0:0,0:0:0:0:
256,192,117029,12,0,124770,0:0:0:0:
