osu file format v14

[General]
AudioFilename: audio.mp3
AudioLeadIn: 0
PreviewTime: 829
Countdown: 1
SampleSet: None
StackLeniency: 0.7
Mode: 0
LetterboxInBreaks: 0
WidescreenStoryboard: 0

[Editor]
Bookmarks: 15429,44229,58629,87429,116229,130629,145029,173829,188229,217029,245829,260229,289029,303429,325029,328629,330579
DistanceSpacing: 1.2
BeatDivisor: 4
GridSize: 4
TimelineZoom: 1

[Metadata]
Title:City Ruins (Shade)
TitleUnicode:City Ruins (Shade)
Artist:Keiichi Okabe
ArtistUnicode:Keiichi Okabe
Creator:Parachute
Version:Extra
Source:NieR:Automata
Tags:
BeatmapID:1881750
BeatmapSetID:901145

[Difficulty]
HPDrainRate:7
CircleSize:5.3
OverallDifficulty:9.3
ApproachRate:8.5
SliderMultiplier:3
SliderTickRate:1

[Events]
//Background and Video events
0,0,"9g95ph4na6501.jpg",0,0
//Break Periods
//Storyboard Layer 0 (Background)
//Storyboard Layer 1 (Fail)
//Storyboard Layer 2 (Pass)
//Storyboard Layer 3 (Foreground)
//Storyboard Sound Samples

[TimingPoints]
429,600,3,2,0,30,1,0
1029,600,6,2,0,50,1,0

[Colours]
Combo1 : 232,232,232
Combo2 : 150,255,34
Combo3 : 174,174,174
Combo4 : 47,255,109

[HitObjects]
256,192,829,5,0,0:0:0:0:
256,192,929,1,0,0:0:0:0:
256,192,1029,6,0,P|352:240|324:376,1,225
160,346,1629,2,0,P|160:239|256:192,1,225
256,300,2229,2,0,L|256:52,1,225
68,16,2829,2,0,P|68:100|192:140,1,225
296,204,3429,2,0,P|241:283|216:204,1,225
326,142,4029,2,0,P|429:120|444:16,1,225
476,212,4629,6,0,B|436:325|368:257|323:364,1,225
224,268,5229,2,0,P|229:195|288:268,1,225
188,364,5829,2,0,B|143:257|75:325|36:212,1,225
4,24,6429,2,0,P|140:56|212:136,1,225
292,192,7029,2,0,P|254:273|220:192,1,225
313,113,7629,2,0,P|398:41|508:24,1,225
450,230,8229,6,0,P|365:302|256:320,1,225
220,192,8829,2,0,P|257:110|292:192,1,225
256,320,9429,2,0,P|146:302|61:230,1,225
0,40,10029,2,0,P|109:57|194:129,1,225
317,129,10629,2,0,P|401:57|511:39,1,225
368,0,11229,2,0,L|132:0,1,225
128,228,11829,6,0,P|151:331|256:344,1,225
383,228,12428,2,0,P|360:331|256:344,1,225
256,121,13029,2,0,B|280:220|228:228|256:344,1,225
118,144,13629,2,0,P|152:41|256:8,1,225
392,145,14229,2,0,P|359:42|256:8,1,225
364,256,14829,2,0,L|139:256,1,225
364,256,15429,6,0,P|302:184|139:256,1,300
112,40,16329,2,0,L|112:120,1,75
280,40,16629,2,0,L|212:96,1,75
436,80,16929,2,0,L|361:80,1,75
478,191,17229,2,0,B|360:168|376:216|256:192,1,225
33,191,17829,2,0,B|152:168|136:216|256:192,1,225
374,295,18429,2,0,B|254:271|270:319|152:296,1,225
394,144,19029,6,0,P|442:84|338:124,1,300
364,336,19929,2,0,L|276:336,1,75
252,192,20229,2,0,L|252:272,1,75
148,336,20529,2,0,L|236:336,1,75
118,144,20829,2,0,P|86:102|174:124,1,225
333,115,21429,2,0,P|398:56|394:143,1,225
220,192,22029,2,0,P|250:273|292:192,1,225
139,279,22629,6,0,P|256:359|372:279,1,300
376,76,23529,2,0,P|368:52|296:28,1,75
256,76,23829,2,0,P|234:62|163:90,1,75
158,150,24129,2,0,P|123:159|100:188,1,75
28,380,24429,2,0,P|104:312|232:324,1,225
483,379,25029,2,0,P|400:309|290:317,1,225
256,56,25629,2,0,B|276:76|280:88|280:116|280:132|272:144|268:152|255:159|244:168|240:176|232:188|232:204|232:232|236:244|253:258,1,225
111,191,26229,6,0,P|80:90|162:23,1,225
349,23,26829,2,0,P|431:90|400:191,1,225
184,244,27429,2,0,P|108:272|16:396,1,225
328,244,28029,2,0,P|404:272|496:396,1,225
356,384,28554,1,0,0:0:0:0:
356,384,28629,2,0,P|262:331|260:224,1,225
155,0,29229,2,0,P|249:52|251:159,1,225
152,304,29829,6,0,P|219:336|360:304,1,225
376,292,30429,1,0,0:0:0:0:
168,100,30729,2,0,P|148:144|172:184,1,75
256,68,31029,2,0,L|256:-8,1,75
357,167,31329,2,0,P|363:130|344:99,1,75
120,24,31629,2,0,P|56:144|92:248,1,225
152,328,32229,2,0,P|252:364|360:328,1,225
436,224,32829,2,0,P|452:115|392:24,1,225
224,160,33429,6,0,P|220:225|288:160,1,225
256,152,34029,1,0,0:0:0:0:
130,318,34329,2,0,P|101:341|88:376,1,75
220,356,34629,2,0,P|256:364|292:356,1,75
381,318,34929,2,0,P|410:341|424:376,1,75
504,192,35229,2,0,P|488:92|384:176,1,225
304,224,35829,2,0,P|294:159|208:224,1,225
122,112,36429,2,0,P|23:92|8:192,1,225
160,364,37029,6,0,P|224:319|352:364,1,225
368,384,37629,1,0,0:0:0:0:
432,192,37929,2,0,P|380:152|372:128,1,75
256,228,38229,2,0,L|256:153,1,75
135,145,38529,2,0,P|113:175|80:192,1,75
32,332,38829,2,0,P|112:340|164:212,1,225
168,80,39429,2,0,P|242:22|344:80,1,225
342,224,40029,2,0,P|374:325|480:332,1,225
252,360,40629,6,0,B|284:256|224:256|256:136,1,225
256,108,41229,1,0,0:0:0:0:
184,356,41529,2,0,B|148:350|148:364|108:356,1,75
328,356,41829,2,0,B|363:350|364:364|404:356,1,75
220,236,42129,2,0,P|256:227|292:235,1,75
152,112,42429,2,0,P|227:78|360:112,1,225
396,364,43029,2,0,L|396:264,1,75
300,192,43329,2,0,L|300:284,1,75
116,364,43629,2,0,L|116:264,1,75
212,192,43929,2,0,L|212:267,1,75
256,60,44229,5,0,0:0:0:0:
