osu file format v14

[General]
AudioFilename: audio.mp3
AudioLeadIn: 0
PreviewTime: 83310
Countdown: 0
SampleSet: Normal
StackLeniency: 0.7
Mode: 0
LetterboxInBreaks: 0
WidescreenStoryboard: 1

[Editor]
DistanceSpacing: 1.2
BeatDivisor: 2
GridSize: 4
TimelineZoom: 1

[Metadata]
Title:Song of the Ancients - Atonement
TitleUnicode:Song of the Ancients - Atonement
Artist:Keiichi Okabe (MONACA)
ArtistUnicode:Keiichi Okabe (MONACA)
Creator:RockmanAxl
Version:Normal
Source:NieR:Automata
Tags:nier automata
BeatmapID:1412604
BeatmapSetID:667630

[Difficulty]
HPDrainRate:5
CircleSize:4
OverallDifficulty:5
ApproachRate:5
SliderMultiplier:1.2
SliderTickRate:1

[Events]
//Background and Video events
0,0,"bg.jpg",0,0
//Break Periods
//Storyboard Layer 0 (Background)
//Storyboard Layer 1 (Fail)
//Storyboard Layer 2 (Pass)
//Storyboard Layer 3 (Foreground)
//Storyboard Sound Samples

[TimingPoints]
8252,469.116497263487,4,1,0,40,1,0
83310,-100,4,1,0,40,0,1
143357,-100,4,1,0,40,0,0

[Colours]
Combo1 : 128,128,255
Combo2 : 145,145,145
Combo3 : 255,128,128
Combo4 : 255,255,170

[HitObjects]
84,116,8252,6,0,P|156:108|196:84,1,120,4|8,0:0|0:0,0:0:0:0:
256,44,8955,1,0,0:0:0:0:
316,84,9190,2,0,P|368:112|428:116,1,120,0|8,0:0|0:0,0:0:0:0:
428,260,10128,6,0,P|356:268|316:292,1,120,0|8,0:0|0:0,0:0:0:0:
256,332,10831,1,0,0:0:0:0:
196,292,11066,2,0,P|144:264|84:260,1,120,0|8,0:0|0:0,0:0:0:0:
88,116,12004,6,0,L|40:76,2,60,0|0|8,0:0|0:0|0:0,0:0:0:0:
160,116,12708,1,0,0:0:0:0:
232,116,12943,2,0,L|368:116,1,120,0|8,0:0|0:0,0:0:0:0:
432,236,13881,6,0,L|480:196,2,60,0|0|8,0:0|0:0|0:0,0:0:0:0:
360,236,14585,1,0,0:0:0:0:
288,236,14820,2,0,L|152:236,1,120,0|8,0:0|0:0,0:0:0:0:
72,344,15757,6,0,L|12:344,2,60,0|0|8,0:0|0:0|0:0,0:0:0:0:
140,320,16461,1,0,0:0:0:0:
208,344,16696,2,0,L|268:344,2,60,0|0|8,0:0|0:0|0:0,0:0:0:0:
140,216,17634,6,0,L|80:216,2,60,0|0|8,0:0|0:0|0:0,0:0:0:0:
208,192,18338,1,0,0:0:0:0:
276,216,18573,2,0,L|336:216,2,60,0|0|8,0:0|0:0|0:0,0:0:0:0:
208,88,19510,6,0,L|148:88,2,60,0|0|8,0:0|0:0|0:0,0:0:0:0:
276,64,20214,1,0,0:0:0:0:
344,88,20449,2,0,L|404:88,2,60,0|0|8,0:0|0:0|0:0,0:0:0:0:
256,192,21387,12,4,23263,0:0:0:0:
64,64,24201,5,0,0:0:0:0:
208,64,24671,1,8,0:0:0:0:
136,188,25140,1,0,0:0:0:0:
296,336,25843,5,0,0:0:0:0:
340,280,26078,2,0,P|374:231|426:203,1,120,0|8,0:0|0:0,0:0:0:0:
432,132,26782,1,0,0:0:0:0:
372,92,27016,2,0,L|132:92,1,240
32,196,28424,1,8,0:0:0:0:
128,304,28893,6,0,L|72:360,2,60,0|0|8,0:0|0:0|0:0,0:0:0:0:
192,272,29596,1,0,0:0:0:0:
256,304,29831,2,0,P|312:320|376:304,1,120,0|8,0:0|0:0,0:0:0:0:
464,196,30769,6,0,P|408:180|344:196,1,120,0|8,0:0|0:0,0:0:0:0:
288,232,31473,1,0,0:0:0:0:
228,272,31707,2,0,P|176:288|112:269,1,120,0|8,0:0|0:0,0:0:0:0:
176,140,32646,1,0,0:0:0:0:
384,80,33349,5,0,0:0:0:0:
424,140,33584,2,0,P|460:192|440:240,1,120,0|8,0:0|0:0,0:0:0:0:
376,272,34287,1,0,0:0:0:0:
312,240,34522,2,0,B|232:280|136:200|72:240,1,240
24,104,35929,1,8,0:0:0:0:
168,104,36398,2,0,B|200:80|256:128|284:108,1,120,0|8,0:0|0:0,0:0:0:0:
352,132,37102,1,0,0:0:0:0:
420,108,37337,2,0,L|420:44,2,60,0|0|8,0:0|0:0|0:0,0:0:0:0:
420,252,38275,6,0,B|356:276|332:332,1,120,0|8,0:0|0:0,0:0:0:0:
264,308,38979,1,0,0:0:0:0:
196,332,39213,2,0,B|172:278|108:254,1,120,0|8,0:0|0:0,0:0:0:0:
72,192,39917,1,0,0:0:0:0:
112,132,40151,1,0,0:0:0:0:
316,60,40855,5,0,0:0:0:0:
376,100,41090,2,0,P|420:168|464:188,1,120,0|8,0:0|0:0,0:0:0:0:
464,256,41793,1,0,0:0:0:0:
404,296,42028,2,0,P|292:320|168:296,1,240
40,236,43435,1,8,0:0:0:0:
168,172,43904,6,0,P|225:158|288:172,1,120,0|8,0:0|0:0,0:0:0:0:
420,220,44843,2,0,L|420:292,2,60,0|0|8,0:0|0:0|0:0,0:0:0:0:
416,76,45781,6,0,L|256:76,1,120,0|8,0:0|0:0,0:0:0:0:
224,92,46484,1,0,0:0:0:0:
152,76,46719,2,0,L|32:76,2,120,0|8|0,0:0|0:0|0:0,0:0:0:0:
364,120,48361,5,0,0:0:0:0:
404,180,48596,2,0,B|388:220|332:220|308:248,1,120,0|8,0:0|0:0,0:0:0:0:
244,280,49299,1,0,0:0:0:0:
256,192,49534,12,4,52818,0:0:0:0:
408,192,53287,6,0,P|352:200|288:192,1,120,0|8,0:0|0:0,0:0:0:0:
236,144,53990,1,0,0:0:0:0:
180,192,54225,2,0,P|120:199|61:191,1,120,0|8,0:0|0:0,0:0:0:0:
120,60,55163,1,0,0:0:0:0:
336,64,55867,5,0,0:0:0:0:
376,124,56101,2,0,B|416:124|432:188|472:188,1,120,0|8,0:0|0:0,0:0:0:0:
496,256,56805,1,0,0:0:0:0:
456,316,57040,2,0,P|344:348|224:316,1,240
120,224,58447,1,8,0:0:0:0:
112,80,58916,6,0,L|48:80,2,60,0|0|8,0:0|0:0|0:0,0:0:0:0:
256,80,59854,2,0,B|288:56|352:104|376:80,1,120,0|8,0:0|0:0,0:0:0:0:
492,164,60793,6,0,B|513:184|465:248|489:280,1,120,0|8,0:0|0:0,0:0:0:0:
440,332,61496,1,0,0:0:0:0:
372,308,61731,2,0,B|351:329|287:281|252:308,1,120,0|8,0:0|0:0,0:0:0:0:
112,312,62669,1,0,0:0:0:0:
104,96,63373,5,0,0:0:0:0:
160,140,63607,2,0,P|216:132|280:140,1,120,0|8,0:0|0:0,0:0:0:0:
336,96,64311,1,0,0:0:0:0:
392,140,64545,2,0,P|456:236|392:332,1,240
256,296,65953,1,8,0:0:0:0:
116,332,66422,1,0,0:0:0:0:
84,192,66891,5,8,0:0:0:0:
116,52,67360,2,0,L|52:52,2,60,0|0|8,0:0|0:0|0:0,0:0:0:0:
260,48,68298,6,0,B|228:88|284:120|260:164,1,120,0|8,0:0|0:0,0:0:0:0:
204,208,69002,1,0,0:0:0:0:
144,168,69237,2,0,B|122:125|178:93|146:53,2,120,0|8|0,0:0|0:0|0:0,0:0:0:0:
360,160,70879,5,0,0:0:0:0:
432,164,71113,2,0,P|440:220|500:276,1,120,0|8,0:0|0:0,0:0:0:0:
432,320,71817,1,0,0:0:0:0:
360,316,72051,2,0,P|352:260|292:204,2,120,0|8|0,0:0|0:0|0:0,0:0:0:0:
224,364,73459,5,8,0:0:0:0:
88,316,73928,1,0,0:0:0:0:
208,236,74397,1,8,0:0:0:0:
112,128,74866,2,0,L|76:80,2,60,0|0|8,0:0|0:0|0:0,0:0:0:0:
208,236,75804,6,0,P|256:264|280:324,1,120,0|8,0:0|0:0,0:0:0:0:
352,316,76508,1,0,0:0:0:0:
376,248,76743,2,0,P|325:217|304:162,2,120,0|8|0,0:0|0:0|0:0,0:0:0:0:
500,72,78384,5,0,0:0:0:0:
440,32,78618,2,0,P|381:25|322:33,1,120,0|8,0:0|0:0,0:0:0:0:
260,72,79322,1,0,0:0:0:0:
256,192,79557,12,2,82841,0:0:0:0:
360,88,83310,6,0,P|256:32|160:88,1,240
68,200,84717,1,8,0:0:0:0:
160,310,85187,2,0,P|264:366|360:310,1,240
452,200,86594,5,8,0:0:0:0:
412,140,86829,1,0,0:0:0:0:
348,108,87063,2,0,L|204:108,1,120,0|8,0:0|0:0,0:0:0:0:
160,132,87767,1,0,0:0:0:0:
120,192,88001,2,0,P|104:256|120:312,2,120,0|8|0,0:0|0:0|0:0,0:0:0:0:
408,192,89878,6,0,P|431:246|408:304,1,120,0|8,0:0|0:0,0:0:0:0:
360,352,90581,1,0,0:0:0:0:
308,304,90816,2,0,P|252:296|188:304,1,120,0|8,0:0|0:0,0:0:0:0:
136,352,91520,1,0,0:0:0:0:
84,304,91754,2,0,P|63:249|87:195,1,120,0|8,0:0|0:0,0:0:0:0:
132,140,92458,5,0,0:0:0:0:
196,172,92692,2,0,P|255:179|316:172,1,120,0|8,0:0|0:0,0:0:0:0:
380,140,93396,1,0,0:0:0:0:
320,100,93631,2,0,P|260:92|201:100,1,120,0|8,0:0|0:0,0:0:0:0:
140,136,94334,1,0,0:0:0:0:
76,100,94569,1,0,0:0:0:0:
256,192,95038,12,4,98322,0:0:0:0:
184,52,99729,5,8,0:0:0:0:
328,52,100198,1,0,0:0:0:0:
472,212,100902,5,0,0:0:0:0:
400,216,101137,2,0,B|364:243|320:191|284:216,1,120,0|8,0:0|0:0,0:0:0:0:
232,264,101840,1,0,0:0:0:0:
178,216,102075,2,0,B|142:191|98:243|62:216,1,120,0|8,0:0|0:0,0:0:0:0:
24,156,102778,1,0,0:0:0:0:
62,95,103013,2,0,B|132:56|232:136|298:95,1,240
452,337,104889,6,0,P|396:329|332:337,1,120,0|8,0:0|0:0,0:0:0:0:
268,367,105593,1,0,0:0:0:0:
202,337,105828,2,0,P|146:329|82:337,1,120,0|8,0:0|0:0,0:0:0:0:
46,275,106531,1,0,0:0:0:0:
83,213,106766,2,0,P|142:220|201:212,1,120,0|8,0:0|0:0,0:0:0:0:
265,177,107470,5,0,0:0:0:0:
327,213,107704,2,0,P|383:221|447:213,1,120,0|8,0:0|0:0,0:0:0:0:
508,177,108408,1,0,0:0:0:0:
448,137,108642,2,0,P|388:129|329:137,1,120,0|8,0:0|0:0,0:0:0:0:
269,176,109346,1,0,0:0:0:0:
227,117,109581,2,0,P|110:114|30:199,1,240
167,244,110988,1,8,0:0:0:0:
91,366,111457,6,0,P|147:385|207:381,1,120,0|8,0:0|0:0,0:0:0:0:
263,336,112161,1,0,0:0:0:0:
317,289,112395,2,0,P|320:229|301:172,1,120,0|8,0:0|0:0,0:0:0:0:
212,59,113334,6,0,P|104:95|72:207,1,240
176,307,114741,1,8,0:0:0:0:
312,355,115210,2,0,P|420:319|452:207,1,240
348,107,116617,5,8,0:0:0:0:
282,136,116852,1,0,0:0:0:0:
215,107,117087,2,0,P|151:107|103:135,1,120,0|8,0:0|0:0,0:0:0:0:
71,198,117790,1,0,0:0:0:0:
102,263,118025,2,0,P|155:289|214:288,1,120,0|8,0:0|0:0,0:0:0:0:
327,198,118963,1,0,0:0:0:0:
67,72,119901,6,0,L|67:192,1,120,0|8,0:0|0:0,0:0:0:0:
118,243,120605,1,0,0:0:0:0:
169,192,120839,2,0,L|169:72,1,120,0|8,0:0|0:0,0:0:0:0:
230,34,121543,1,0,0:0:0:0:
291,72,121778,2,0,L|291:192,1,120,0|8,0:0|0:0,0:0:0:0:
349,234,122481,5,0,0:0:0:0:
408,192,122716,2,0,L|408:72,1,120,0|8,0:0|0:0,0:0:0:0:
469,34,123420,1,0,0:0:0:0:
488,103,123654,2,0,L|488:223,1,120,0|8,0:0|0:0,0:0:0:0:
430,266,124358,1,0,0:0:0:0:
373,222,124592,1,0,0:0:0:0:
256,192,125062,12,4,128345,0:0:0:0:
256,116,129753,5,8,0:0:0:0:
256,260,130222,1,0,0:0:0:0:
52,192,130925,5,0,0:0:0:0:
114,155,131160,2,0,B|146:139|158:247|198:227,1,120,0|8,0:0|0:0,0:0:0:0:
260,196,131864,1,0,0:0:0:0:
320,156,132098,2,0,B|352:140|364:248|404:228,1,120,0|8,0:0|0:0,0:0:0:0:
463,192,132802,1,0,0:0:0:0:
463,120,133036,2,0,B|463:0,2,120,0|8|0,0:0|0:0|0:0,0:0:0:0:
272,336,134913,6,0,P|212:324|156:336,1,120,0|8,0:0|0:0,0:0:0:0:
111,279,135617,1,0,0:0:0:0:
156,223,135851,2,0,P|214:235|272:223,1,120,0|8,0:0|0:0,0:0:0:0:
328,176,136555,1,0,0:0:0:0:
272,131,136789,2,0,P|213:118|156:131,1,120,0|8,0:0|0:0,0:0:0:0:
110,74,137493,1,0,0:0:0:0:
155,18,137728,6,0,P|213:30|271:18,1,120,0|8,0:0|0:0,0:0:0:0:
316,74,138431,1,0,0:0:0:0:
272,131,138666,2,0,P|213:118|156:131,1,120,0|8,0:0|0:0,0:0:0:0:
110,74,139370,1,0,0:0:0:0:
256,192,139604,12,4,143357,0:0:0:0:
