osu file format v14

[General]
AudioFilename: audio.mp3
AudioLeadIn: 0
PreviewTime: 61836
Countdown: 0
SampleSet: Soft
StackLeniency: 0.6
Mode: 0
LetterboxInBreaks: 0
WidescreenStoryboard: 1

[Editor]
DistanceSpacing: 1.2
BeatDivisor: 2
GridSize: 8
TimelineZoom: 1

[Metadata]
Title:Vague Hope - Cold Rain
TitleUnicode:曖昧ナ希望/氷雨
Artist:Keigo Hoashi
ArtistUnicode:帆足圭吾
Creator:Silent Rock
Version:Hard
Source:NieR:Automata
Tags:monaca ニーア オートマタ platinumgames square enix nier automata
BeatmapID:1812737
BeatmapSetID:867112

[Difficulty]
HPDrainRate:5
CircleSize:4
OverallDifficulty:6
ApproachRate:6
SliderMultiplier:1.2
SliderTickRate:1

[Events]
//Background and Video events
0,0,"NieR BG.jpg",0,0
//Break Periods
//Storyboard Layer 0 (Background)
//Storyboard Layer 1 (Fail)
//Storyboard Layer 2 (Pass)
//Storyboard Layer 3 (Foreground)
//Storyboard Sound Samples

[TimingPoints]
899,468.75,3,2,1,10,1,0
3711,-100,3,2,1,20,0,0
6524,-100,3,2,1,30,0,0
9336,-111.111111111111,3,2,1,30,0,0
12149,-100,3,2,1,30,0,0
34649,-100,3,2,1,40,0,0
55742,-133.333333333333,3,2,1,40,0,0
62774,-90.9090909090909,3,2,1,50,0,1
90899,-133.333333333333,3,2,1,30,0,0
92305,-100,3,2,1,30,0,0
156992,-133.333333333333,3,2,1,30,0,0
164024,-90.9090909090909,3,2,1,50,0,1
192149,-100,3,2,1,30,0,0

[Colours]
Combo1 : 255,255,255
Combo2 : 0,0,159
Combo3 : 128,128,128
Combo4 : 128,0,128

[HitObjects]
151,201,899,6,0,P|204:232|262:233,1,120
363,169,1836,2,0,P|359:210|353:239,1,60
344,287,2305,1,2,0:0:0:0:
283,121,3711,6,0,P|217:133|159:122,1,120
64,59,4649,2,0,P|68:25|66:-8,2,60,0|0|2,0:0|0:0|0:0,0:0:0:0:
64,59,6524,6,0,P|126:71|190:56,1,120
245,27,7227,1,0,0:0:0:0:
307,62,7461,2,0,P|301:104|308:137,1,60
329,189,7930,2,0,B|340:227|325:270|325:270|287:303|284:358,1,180,2|0,0:0|0:0,0:0:0:0:
284,365,9336,6,0,P|377:289|262:323,1,323.999990112305,2|8,0:0|0:0,0:0:0:0:
323,317,12149,5,2,0:0:0:0:
394,221,12617,1,0,0:0:0:0:
276,197,13086,1,0,0:0:0:0:
209,297,13555,2,0,P|126:337|42:316,2,180,2|0|2,0:0|0:0|0:0,0:0:0:0:
116,220,15430,6,0,P|104:169|127:102,1,120
219,33,16367,1,0,0:0:0:0:
219,33,17774,6,0,P|218:101|246:156,1,120,2|0,0:0|0:0,0:0:0:0:
296,191,18477,1,0,0:0:0:0:
244,241,18711,2,0,P|216:251|179:247,1,60
296,191,19180,2,0,P|316:250|285:301,1,120,2|0,0:0|0:0,0:0:0:0:
310,366,19883,2,0,B|352:345|368:309|368:309|388:318|411:319,1,120
462,276,20586,6,0,P|409:283|346:257,2,120,2|0|0,0:0|0:0|0:0,0:0:0:0:
427,136,21992,1,2,0:0:0:0:
348,258,22461,1,0,0:0:0:0:
281,129,22930,1,0,0:0:0:0:
427,136,23399,6,0,P|420:199|381:240,1,120,2|0,0:0|0:0,0:0:0:0:
310,240,24102,1,0,0:0:0:0:
256,287,24336,2,0,P|229:289|191:278,1,60
310,240,24805,2,0,P|327:299|296:346,1,120,2|0,0:0|0:0,0:0:0:0:
256,287,25508,2,0,P|239:228|270:181,1,120
340,172,26211,5,2,0:0:0:0:
210,234,26680,1,0,0:0:0:0:
103,137,27149,1,0,0:0:0:0:
62,274,27617,1,0,0:0:0:0:
62,274,29024,6,0,P|114:294|184:281,1,120,2|0,0:0|0:0,0:0:0:0:
234,242,29727,1,0,0:0:0:0:
301,217,29961,2,0,P|338:208|375:213,1,60
409,261,30430,2,0,B|405:232|388:212|388:212|451:163|421:89,2,180,2|0|2,0:0|0:0|0:0,0:0:0:0:
343,132,32305,5,0,0:0:0:0:
246,239,32774,1,2,0:0:0:0:
151,130,33242,1,2,0:0:0:0:
151,130,34649,6,0,P|171:73|221:37,1,120,2|0,0:0|0:0,0:0:0:0:
288,28,35352,1,0,0:0:0:0:
275,98,35586,2,0,P|274:136|287:165,2,60,2|0|2,0:0|0:0|0:0,0:0:0:0:
383,296,36524,5,0,0:0:0:0:
314,273,36758,1,0,0:0:0:0:
258,319,36992,2,2,P|231:339|203:345,1,60
248,247,37461,2,0,P|299:259|333:318,1,120
182,147,38399,2,0,P|181:117|191:86,2,60,0|0|2,0:0|0:0|0:0,0:0:0:0:
454,219,40274,6,0,P|388:237|330:224,1,120,2|0,0:0|0:0,0:0:0:0:
272,197,40977,1,0,0:0:0:0:
208,230,41211,2,0,P|204:264|211:300,2,60,2|0|2,0:0|0:0|0:0,0:0:0:0:
301,120,42149,6,0,P|335:124|371:117,1,60
252,62,42617,2,2,P|218:58|182:65,1,60
301,120,43086,2,0,P|326:75|304:6,2,120
179,196,44492,1,8,0:0:0:0:
457,366,45899,6,0,P|471:315|449:248,1,120,2|0,0:0|0:0,0:0:0:0:
446,244,46836,1,2,0:0:0:0:
389,287,47070,1,0,0:0:0:0:
317,295,47305,2,0,P|264:287|211:241,1,120,2|0,0:0|0:0,0:0:0:0:
209,173,48008,2,0,P|241:131|308:108,1,120,2|0,0:0|0:0,0:0:0:0:
368,137,48711,6,0,P|388:185|374:255,2,120,2|0|0,0:0|0:0|0:0,0:0:0:0:
209,173,50117,2,0,P|188:124|202:54,2,120,2|0|0,0:0|0:0|0:0,0:0:0:0:
64,290,51524,6,0,P|169:286|197:147,1,240,2|0,0:0|0:0,0:0:0:0:
35,21,52930,2,0,B|-9:86|52:125|12:206,2,180,2|0|2,0:0|0:0|0:0,0:0:0:0:
208,228,55742,6,0,P|296:245|390:224,1,180.000006866455,2|0,0:0|0:0,0:0:0:0:
383,226,57149,1,8,0:0:0:0:
256,192,57383,12,8,61367,0:0:0:0:
149,240,62774,6,0,P|225:281|296:204,1,198.000006042481,4|0,0:1|0:0,0:0:0:0:
217,200,63711,2,2,P|220:230|236:263,1,66.0000020141602
295,212,64180,2,0,P|290:162|219:120,1,132.00000402832
148,139,64883,2,0,P|90:162|29:126,1,132.00000402832
94,81,65586,5,2,0:0:0:0:
115,238,66055,1,0,0:0:0:0:
280,315,66524,1,2,0:0:0:0:
465,247,66992,1,10,0:0:0:0:
465,247,67930,6,0,P|466:215|449:177,1,66.0000020141602
351,111,68399,2,0,P|293:132|221:117,1,132.00000402832,4|0,0:1|0:0,0:0:0:0:
153,85,69102,1,2,0:0:0:0:
127,159,69336,2,0,P|123:190|136:223,1,66.0000020141602,2|0,0:0|0:0,0:0:0:0:
96,291,69805,2,0,P|168:298|209:255,2,132.00000402832,2|0|2,0:0|0:0|0:0,0:0:0:0:
319,342,71211,1,2,0:0:0:0:
298,140,71680,6,0,P|318:301|405:363,1,264.000008056641,0|8,0:0|0:0,0:0:0:0:
298,140,74024,6,0,P|233:161|173:148,1,132.00000402832,4|0,0:1|0:0,0:0:0:0:
110,97,74727,1,0,0:0:0:0:
146,26,74961,2,2,P|179:18|215:25,1,66.0000020141602
284,49,75430,2,0,P|349:64|409:44,2,132.00000402832
489,127,76836,6,0,P|451:182|448:245,1,132.00000402832,2|0,0:0|0:0,0:0:0:0:
451,325,77539,2,0,P|419:314|387:316,1,66.0000020141602,2|0,0:0|0:0,0:0:0:0:
313,344,78008,1,0,0:0:0:0:
218,268,78242,1,8,0:0:0:0:
218,268,79180,6,0,P|228:236|227:204,1,66.0000020141602
134,294,79649,6,0,P|221:359|295:313,1,198.000006042481,4|0,0:1|0:0,0:0:0:0:
318,248,80586,1,2,0:0:0:0:
369,307,80820,1,0,0:0:0:0:
351,177,81055,6,0,B|303:159|260:180|242:221|242:221|192:210|164:261|111:234,1,264.000008056641,2|0,0:0|0:0,0:0:0:0:
223,80,82461,6,0,B|246:140|243:221|243:221|256:191|296:170,1,198.000006042481
133,363,83867,1,8,0:0:0:0:
133,363,84805,5,0,0:0:0:0:
50,208,85274,6,0,P|100:243|174:245,2,132.00000402832,4|2|2,0:1|0:0|0:0,0:0:0:0:
235,191,86680,2,0,B|267:247|237:302|237:302|264:269|315:272,1,198.000006042481
449,83,88086,6,0,P|399:118|325:120,2,132.00000402832,0|2|2,0:0|0:0|0:0,0:0:0:0:
185,0,89492,2,0,B|199:68|260:81|260:81|236:120|262:169,1,198.000006042481
502,10,90899,5,12,0:0:0:0:
256,192,91133,12,8,95117,0:0:0:0:
192,226,96524,6,0,P|282:251|302:136,1,240,4|0,0:0|0:0,0:0:0:0:
251,186,97695,1,0,0:0:0:0:
231,116,97930,1,2,0:0:0:0:
39,330,98867,5,0,0:0:0:0:
59,260,99102,1,0,0:0:0:0:
107,313,99336,1,2,0:0:0:0:
394,326,100274,5,0,0:0:0:0:
437,268,100508,1,0,0:0:0:0:
397,208,100742,2,0,P|386:181|384:145,2,60,2|0|2,0:0|0:0|0:0,0:0:0:0:
503,9,101680,1,2,0:0:0:0:
205,100,102149,6,0,P|204:167|218:220,1,120,4|0,0:0|0:0,0:0:0:0:
222,226,103086,2,0,P|184:218|150:219,2,60,0|0|2,0:0|0:0|0:0,0:0:0:0:
445,313,104492,6,0,P|457:349|474:378,2,60,0|0|2,0:0|0:0|0:0,0:0:0:0:
415,74,105899,6,0,P|440:45|457:15,2,60,0|0|10,0:0|0:0|0:0,0:0:0:0:
348,101,106602,1,0,0:0:0:0:
403,147,106836,1,2,0:0:0:0:
39,25,107774,6,0,P|52:85|45:142,1,120,4|0,0:0|0:0,0:0:0:0:
42,152,108711,1,0,0:0:0:0:
112,137,108945,1,0,0:0:0:0:
176,168,109180,1,2,0:0:0:0:
470,232,110117,5,0,0:0:0:0:
400,247,110351,1,0,0:0:0:0:
336,216,110586,1,2,0:0:0:0:
246,73,111055,1,0,0:0:0:0:
207,285,111524,1,0,0:0:0:0:
425,116,111992,1,8,0:0:0:0:
425,116,113399,6,0,P|373:140|307:129,1,120,2|0,0:0|0:0,0:0:0:0:
248,97,114102,2,0,P|277:146|273:212,1,120,2|0,0:0|0:0,0:0:0:0:
247,273,114805,1,2,0:0:0:0:
83,131,115508,1,0,0:0:0:0:
42,343,116211,6,0,P|103:354|160:336,1,120,2|0,0:0|0:0,0:0:0:0:
247,273,117149,1,0,0:0:0:0:
311,363,117617,1,0,0:0:0:0:
311,363,119024,6,0,P|293:304|298:246,1,120,2|0,0:0|0:0,0:0:0:0:
332,183,119727,2,0,P|350:124|345:66,1,120,2|0,0:0|0:0,0:0:0:0:
277,91,120430,2,0,P|315:134|381:130,1,120,2|2,0:0|0:0,0:0:0:0:
425,82,121133,2,0,P|448:134|418:192,1,120,2|0,0:0|0:0,0:0:0:0:
372,238,121836,6,0,B|349:234|331:224|331:224|300:223|252:236,2,120,2|0|0,0:0|0:0|0:0,0:0:0:0:
182,359,123242,1,2,0:0:0:0:
111,233,123711,1,0,0:0:0:0:
255,235,124180,1,0,0:0:0:0:
182,359,124649,6,0,P|161:308|166:240,1,120,2|0,0:0|0:0,0:0:0:0:
202,182,125352,1,0,0:0:0:0:
186,111,125586,1,0,0:0:0:0:
183,99,126055,2,0,P|239:107|299:86,1,120,2|0,0:0|0:0,0:0:0:0:
359,49,126758,1,0,0:0:0:0:
391,114,126992,2,2,P|398:143|394:180,1,60
335,212,127461,6,0,P|391:204|451:225,2,120,0|2|0,0:0|0:0|0:0,0:0:0:0:
335,212,128867,1,0,0:0:0:0:
169,349,130274,6,0,P|177:293|153:232,1,120,2|0,0:0|0:0,0:0:0:0:
108,180,130977,1,0,0:0:0:0:
70,118,131211,2,2,P|64:87|68:54,1,60
144,116,131680,6,0,P|92:187|11:161,2,180,0|2|0,0:0|0:0|0:0,0:0:0:0:
116,257,133555,5,0,0:0:0:0:
227,348,134024,1,0,0:0:0:0:
364,304,134492,1,0,0:0:0:0:
364,304,135899,6,0,P|328:257|322:186,1,120,2|0,0:0|0:0,0:0:0:0:
337,127,136602,1,0,0:0:0:0:
271,97,136836,2,2,P|241:96|209:108,1,60
156,150,137305,6,0,P|164:210|143:266,1,120
19,192,138242,1,2,0:0:0:0:
156,150,138711,2,0,P|208:152|266:184,1,120
367,287,139649,2,0,P|399:302|431:303,2,60,2|0|2,0:0|0:0|0:0,0:0:0:0:
477,50,141524,6,0,P|474:111|445:162,1,120,2|0,0:0|0:0,0:0:0:0:
395,213,142227,1,0,0:0:0:0:
463,234,142461,2,0,P|475:264|474:292,2,60,2|2|0,0:0|0:0|0:0,0:0:0:0:
317,103,143399,2,0,P|285:96|257:103,1,60
211,157,143867,2,0,P|179:163|151:156,1,60,2|0,0:0|0:0,0:0:0:0:
90,120,144336,6,0,P|104:179|92:236,2,120,2|0|0,0:0|0:0|0:0,0:0:0:0:
90,120,145742,1,8,0:0:0:0:
288,30,147149,6,0,P|274:89|286:146,1,120,2|0,0:0|0:0,0:0:0:0:
332,201,147852,1,0,0:0:0:0:
351,270,148086,2,2,P|353:299|339:335,1,60
401,371,148555,2,0,B|423:333|425:293|425:293|444:312|464:318,1,120
407,260,149258,2,0,P|400:204|421:134,1,120
411,70,149961,6,0,B|383:72|364:90|364:90|337:66|291:59,2,120,2|0|2,0:0|0:0|0:0,0:0:0:0:
248,135,151367,2,0,P|335:168|290:285,1,240,2|0,0:0|0:0,0:0:0:0:
86,146,152774,2,0,P|79:89|107:26,2,120,2|0|2,0:0|0:0|0:0,0:0:0:0:
86,146,154180,5,2,0:0:0:0:
299,116,154883,1,2,0:0:0:0:
230,320,155586,1,2,0:0:0:0:
230,320,156992,6,0,P|318:330|399:287,1,180.000006866455
461,202,158399,1,8,0:0:0:0:
256,192,158633,12,8,162617,0:0:0:0:
334,272,164024,6,0,P|298:196|344:96,1,198.000006042481,4|0,0:1|0:0,0:0:0:0:
405,50,164961,2,2,P|422:86|421:113,1,66.0000020141602
368,171,165430,2,0,P|311:171|265:116,1,132.00000402832
248,39,166133,2,0,B|249:72|240:93|240:93|204:108|181:148,1,132.00000402832
154,217,166836,6,0,P|157:282|198:337,2,132.00000402832,2|0|2,0:0|0:0|0:0,0:0:0:0:
57,91,168242,1,2,0:0:0:0:
57,91,169180,5,0,0:0:0:0:
10,155,169414,1,0,0:0:0:0:
24,233,169649,6,0,P|67:284|132:298,1,132.00000402832,4|0,0:1|0:0,0:0:0:0:
204,273,170352,2,2,P|236:263|271:268,1,66.0000020141602
338,302,170820,1,0,0:0:0:0:
333,222,171055,2,0,P|347:166|408:121,1,132.00000402832,2|2,0:0|0:0,0:0:0:0:
256,63,171992,1,0,0:0:0:0:
109,123,172461,6,0,P|161:160|179:222,1,132.00000402832,2|0,0:0|0:0,0:0:0:0:
164,300,173164,1,0,0:0:0:0:
105,246,173399,2,2,P|128:227|162:221,1,66.0000020141602
90,320,173867,1,8,0:0:0:0:
107,123,175274,6,0,P|202:154|300:133,1,198.000006042481,4|0,0:1|0:0,0:0:0:0:
367,102,176211,2,2,P|399:92|434:97,1,66.0000020141602
361,183,176680,2,0,P|308:158|286:86,2,132.00000402832,0|2|0,0:0|0:0|0:0,0:0:0:0:
279,318,178086,6,0,B|208:360|154:290|75:333,1,198.000006042481,2|0,0:0|0:0,0:0:0:0:
17,367,179024,2,2,P|27:335|22:300,1,66.0000020141602
4,226,179492,1,0,0:0:0:0:
4,226,180430,5,0,0:0:0:0:
48,160,180664,1,0,0:0:0:0:
119,194,180899,6,0,P|173:214|250:197,1,132.00000402832,4|0,0:1|0:0,0:0:0:0:
313,161,181602,2,0,P|367:141|444:158,1,132.00000402832,2|0,0:0|0:0,0:0:0:0:
388,216,182305,2,0,P|375:108|512:121,1,264.000008056641,2|0,0:0|0:0,0:0:0:0:
369,13,183711,6,0,P|315:33|238:16,1,132.00000402832,2|0,0:0|0:0,0:0:0:0:
177,62,184414,2,0,P|167:118|114:176,1,132.00000402832,2|0,0:0|0:0,0:0:0:0:
120,253,185117,2,0,P|164:289|188:364,2,132.00000402832,10|0|0,0:0|0:0|0:0,0:0:0:0:
239,148,186524,5,4,0:1:0:0:
274,302,186992,1,0,0:0:0:0:
120,253,187461,1,0,0:0:0:0:
169,102,187930,2,0,P|249:62|320:131,1,198.000006042481,2|2,0:0|0:0,0:0:0:0:
361,361,189336,5,2,0:0:0:0:
433,220,189805,1,0,0:0:0:0:
274,231,190274,1,0,0:0:0:0:
361,361,190742,2,0,B|431:318|394:237|471:195,1,198.000006042481,2|2,0:0|0:0,0:0:0:0:
338,22,192149,1,12,0:0:0:0:
256,192,192383,12,8,196367,0:0:0:0:
256,192,197774,5,4,0:0:0:0:
142,103,198242,1,0,0:0:0:0:
142,103,198711,2,0,P|124:130|119:162,2,60,0|0|2,0:0|0:0|0:0,0:0:0:0:
280,145,199649,5,0,0:0:0:0:
280,145,200117,2,0,P|265:115|240:95,2,60,0|0|2,0:0|0:0|0:0,0:0:0:0:
175,245,201055,5,0,0:0:0:0:
175,245,201523,2,0,P|207:247|237:235,2,60,0|0|2,0:0|0:0|0:0,0:0:0:0:
105,225,202227,1,0,0:0:0:0:
124,294,202461,1,2,0:0:0:0:
280,51,202930,1,2,0:0:0:0:
285,233,203399,2,0,P|258:186|260:116,1,120,4|0,0:0|0:0,0:0:0:0:
400,145,204336,6,0,P|372:158|342:160,2,60,0|0|2,0:0|0:0|0:0,0:0:0:0:
188,340,205742,6,0,P|190:309|204:282,2,60,0|0|2,0:0|0:0|0:0,0:0:0:0:
139,55,207149,6,0,P|164:72|180:97,2,60,0|0|10,0:0|0:0|0:0,0:0:0:0:
67,67,207852,1,0,0:0:0:0:
109,124,208086,1,2,0:0:0:0:
109,124,209024,6,0,P|118:184|102:240,1,120,4|0,0:0|0:0,0:0:0:0:
186,356,209961,6,0,P|214:369|244:371,2,60,0|0|2,0:0|0:0|0:0,0:0:0:0:
441,222,211367,6,0,P|413:235|383:237,2,60,0|0|2,0:0|0:0|0:0,0:0:0:0:
296,223,212305,1,0,0:0:0:0:
456,344,212774,1,2,0:0:0:0:
487,96,213242,1,8,0:0:0:0:
