osu file format v14

[General]
AudioFilename: audio.mp3
AudioLeadIn: 0
PreviewTime: 223209
Countdown: 0
SampleSet: Soft
StackLeniency: 0.7
Mode: 3
LetterboxInBreaks: 0
SpecialStyle: 0
WidescreenStoryboard: 0

[Editor]
Bookmarks: 4859,23086,41314,59542,77766,102070,132449,150677,168905,205361,223589,247892,278272
DistanceSpacing: 0.5
BeatDivisor: 4
GridSize: 4
TimelineZoom: 1

[Metadata]
Title:Bipolar Nightmare
TitleUnicode:Bipolar Nightmare
Artist:Keigo Hoashi
ArtistUnicode:Keigo Hoashi
Creator:EYA-
Version:Me[A]ningless [C]ode
Source:Nier: Automata
Tags:
BeatmapID:1612477
BeatmapSetID:767111

[Difficulty]
HPDrainRate:8
CircleSize:7
OverallDifficulty:8
ApproachRate:5
SliderMultiplier:1.4
SliderTickRate:1

[Events]
//Background and Video events
0,0,"bLwYNCK.jpg",0,0
//Break Periods
//Storyboard Layer 0 (Background)
//Storyboard Layer 1 (Fail)
//Storyboard Layer 2 (Pass)
//Storyboard Layer 3 (Foreground)
//Storyboard Layer 4 (Overlay)
//Storyboard Sound Samples

[TimingPoints]
4859,379.746835443038,4,2,0,10,1,0
77770,-100,4,2,0,10,0,1
132453,-100,4,2,0,10,0,0
150681,-100,4,2,0,10,0,1
168909,-100,4,2,0,10,0,0
223593,-100,4,2,0,10,0,1
278276,-100,4,2,0,10,0,0

[HitObjects]
329,192,4859,5,0,0:0:0:0:
182,192,4859,1,0,0:0:0:0:
475,192,4859,128,0,5048:0:0:0:0:
109,192,4953,1,0,0:0:0:0:
36,192,5048,1,0,0:0:0:0:
256,192,5048,128,0,5238:0:0:0:0:
329,192,5143,1,0,0:0:0:0:
109,192,5238,1,0,0:0:0:0:
182,192,5238,1,0,0:0:0:0:
402,192,5333,1,0,0:0:0:0:
475,192,5428,1,0,0:0:0:0:
256,192,5428,1,0,0:0:0:0:
36,192,5428,128,0,5618:0:0:0:0:
109,192,5523,1,0,0:0:0:0:
329,192,5618,1,0,0:0:0:0:
182,192,5618,1,0,0:0:0:0:
475,192,5713,1,0,0:0:0:0:
402,192,5808,1,0,0:0:0:0:
256,192,5808,128,0,5998:0:0:0:0:
109,192,5903,1,0,0:0:0:0:
36,192,5998,1,0,0:0:0:0:
182,192,5998,1,0,0:0:0:0:
329,192,5998,1,0,0:0:0:0:
402,192,6093,1,0,0:0:0:0:
256,192,6188,1,0,0:0:0:0:
475,192,6188,128,0,6377:0:0:0:0:
109,192,6283,1,0,0:0:0:0:
182,192,6377,1,0,0:0:0:0:
402,192,6377,1,0,0:0:0:0:
329,192,6377,1,0,0:0:0:0:
36,192,6472,1,0,0:0:0:0:
109,192,6567,1,0,0:0:0:0:
182,192,6567,128,0,6757:0:0:0:0:
402,192,6662,1,0,0:0:0:0:
475,192,6757,1,0,0:0:0:0:
36,192,6757,1,0,0:0:0:0:
256,192,6757,1,0,0:0:0:0:
109,192,6852,1,0,0:0:0:0:
329,192,6852,1,0,0:0:0:0:
182,192,6947,1,0,0:0:0:0:
402,192,6947,1,0,0:0:0:0:
256,192,7042,1,0,0:0:0:0:
475,192,7042,1,0,0:0:0:0:
329,192,7137,1,0,0:0:0:0:
182,192,7137,1,0,0:0:0:0:
36,192,7137,128,0,7327:0:0:0:0:
109,192,7232,1,0,0:0:0:0:
402,192,7327,1,0,0:0:0:0:
475,192,7327,1,0,0:0:0:0:
256,192,7422,1,0,0:0:0:0:
36,192,7517,1,0,0:0:0:0:
182,192,7517,128,0,7707:0:0:0:0:
329,192,7612,1,0,0:0:0:0:
402,192,7707,1,0,0:0:0:0:
109,192,7707,1,0,0:0:0:0:
256,192,7707,1,0,0:0:0:0:
475,192,7802,1,0,0:0:0:0:
36,192,7896,1,0,0:0:0:0:
329,192,7896,128,0,8086:0:0:0:0:
109,192,7991,1,0,0:0:0:0:
182,192,8086,1,0,0:0:0:0:
256,192,8086,1,0,0:0:0:0:
402,192,8181,1,0,0:0:0:0:
329,192,8276,1,0,0:0:0:0:
36,192,8276,1,0,0:0:0:0:
475,192,8276,128,0,8466:0:0:0:0:
109,192,8371,1,0,0:0:0:0:
256,192,8466,1,0,0:0:0:0:
182,192,8466,1,0,0:0:0:0:
402,192,8561,1,0,0:0:0:0:
109,192,8656,1,0,0:0:0:0:
475,192,8656,1,0,0:0:0:0:
36,192,8656,128,0,8846:0:0:0:0:
256,192,8751,1,0,0:0:0:0:
329,192,8846,1,0,0:0:0:0:
182,192,8846,1,0,0:0:0:0:
109,192,8941,1,0,0:0:0:0:
36,192,9036,1,0,0:0:0:0:
256,192,9036,1,0,0:0:0:0:
475,192,9036,1,0,0:0:0:0:
109,192,9131,1,0,0:0:0:0:
329,192,9131,1,0,0:0:0:0:
182,192,9226,1,0,0:0:0:0:
402,192,9226,1,0,0:0:0:0:
256,192,9321,1,0,0:0:0:0:
475,192,9321,1,0,0:0:0:0:
182,192,9415,1,0,0:0:0:0:
36,192,9415,1,0,0:0:0:0:
329,192,9415,128,0,9605:0:0:0:0:
109,192,9510,1,0,0:0:0:0:
475,192,9605,1,0,0:0:0:0:
402,192,9605,1,0,0:0:0:0:
256,192,9700,1,0,0:0:0:0:
182,192,9795,1,0,0:0:0:0:
36,192,9795,128,0,9985:0:0:0:0:
329,192,9890,1,0,0:0:0:0:
109,192,9985,1,0,0:0:0:0:
256,192,9985,1,0,0:0:0:0:
402,192,9985,1,0,0:0:0:0:
182,192,10080,1,0,0:0:0:0:
402,192,10175,128,0,10365:0:0:0:0:
475,192,10175,1,0,0:0:0:0:
36,192,10270,1,0,0:0:0:0:
109,192,10365,1,0,0:0:0:0:
329,192,10365,1,0,0:0:0:0:
256,192,10460,1,0,0:0:0:0:
475,192,10555,1,0,0:0:0:0:
36,192,10555,1,0,0:0:0:0:
182,192,10555,128,0,10745:0:0:0:0:
329,192,10650,1,0,0:0:0:0:
109,192,10745,1,0,0:0:0:0:
402,192,10745,1,0,0:0:0:0:
256,192,10840,1,0,0:0:0:0:
182,192,10934,1,0,0:0:0:0:
36,192,10934,128,0,11124:0:0:0:0:
329,192,10934,1,0,0:0:0:0:
475,192,11029,1,0,0:0:0:0:
402,192,11124,1,0,0:0:0:0:
256,192,11124,1,0,0:0:0:0:
182,192,11219,1,0,0:0:0:0:
109,192,11314,1,0,0:0:0:0:
329,192,11314,1,0,0:0:0:0:
402,192,11409,1,0,0:0:0:0:
182,192,11409,1,0,0:0:0:0:
256,192,11504,1,0,0:0:0:0:
475,192,11504,1,0,0:0:0:0:
36,192,11599,1,0,0:0:0:0:
329,192,11599,1,0,0:0:0:0:
109,192,11694,1,0,0:0:0:0:
182,192,11694,1,0,0:0:0:0:
402,192,11694,128,0,11884:0:0:0:0:
475,192,11789,1,0,0:0:0:0:
329,192,11884,1,0,0:0:0:0:
36,192,11884,1,0,0:0:0:0:
256,192,11979,1,0,0:0:0:0:
402,192,12074,1,0,0:0:0:0:
182,192,12074,128,0,12264:0:0:0:0:
475,192,12169,1,0,0:0:0:0:
109,192,12264,1,0,0:0:0:0:
36,192,12264,1,0,0:0:0:0:
329,192,12264,1,0,0:0:0:0:
402,192,12359,1,0,0:0:0:0:
256,192,12453,1,0,0:0:0:0:
475,192,12453,128,0,12643:0:0:0:0:
182,192,12548,1,0,0:0:0:0:
329,192,12643,1,0,0:0:0:0:
36,192,12643,1,0,0:0:0:0:
109,192,12738,1,0,0:0:0:0:
182,192,12833,1,0,0:0:0:0:
402,192,12833,1,0,0:0:0:0:
256,192,12833,128,0,13023:0:0:0:0:
36,192,12833,1,0,0:0:0:0:
329,192,12928,1,0,0:0:0:0:
109,192,13023,1,0,0:0:0:0:
475,192,13023,1,0,0:0:0:0:
402,192,13118,1,0,0:0:0:0:
329,192,13213,1,0,0:0:0:0:
182,192,13213,1,0,0:0:0:0:
36,192,13213,128,0,13403:0:0:0:0:
256,192,13308,1,0,0:0:0:0:
402,192,13403,1,0,0:0:0:0:
475,192,13403,1,0,0:0:0:0:
182,192,13498,1,0,0:0:0:0:
109,192,13593,1,0,0:0:0:0:
329,192,13593,1,0,0:0:0:0:
402,192,13688,1,0,0:0:0:0:
182,192,13688,1,0,0:0:0:0:
475,192,13783,1,0,0:0:0:0:
256,192,13783,1,0,0:0:0:0:
329,192,13877,1,0,0:0:0:0:
182,192,13877,1,0,0:0:0:0:
36,192,13972,128,0,14162:0:0:0:0:
109,192,13972,1,0,0:0:0:0:
402,192,13972,1,0,0:0:0:0:
256,192,14067,1,0,0:0:0:0:
402,192,14162,1,0,0:0:0:0:
329,192,14162,1,0,0:0:0:0:
109,192,14257,1,0,0:0:0:0:
36,192,14352,1,0,0:0:0:0:
256,192,14352,1,0,0:0:0:0:
475,192,14352,128,0,14542:0:0:0:0:
402,192,14447,1,0,0:0:0:0:
182,192,14542,1,0,0:0:0:0:
329,192,14542,1,0,0:0:0:0:
109,192,14542,1,0,0:0:0:0:
36,192,14637,1,0,0:0:0:0:
109,192,14732,1,0,0:0:0:0:
256,192,14732,128,0,14922:0:0:0:0:
182,192,14827,1,0,0:0:0:0:
475,192,14922,1,0,0:0:0:0:
329,192,14922,1,0,0:0:0:0:
109,192,15017,1,0,0:0:0:0:
256,192,15112,1,0,0:0:0:0:
36,192,15112,128,0,15302:0:0:0:0:
182,192,15112,1,0,0:0:0:0:
402,192,15207,1,0,0:0:0:0:
329,192,15302,1,0,0:0:0:0:
109,192,15302,1,0,0:0:0:0:
182,192,15396,1,0,0:0:0:0:
402,192,15491,1,0,0:0:0:0:
329,192,15491,128,0,15681:0:0:0:0:
475,192,15491,1,0,0:0:0:0:
109,192,15586,1,0,0:0:0:0:
36,192,15681,1,0,0:0:0:0:
475,192,15681,1,0,0:0:0:0:
256,192,15681,1,0,0:0:0:0:
182,192,15776,1,0,0:0:0:0:
329,192,15871,1,0,0:0:0:0:
109,192,15871,1,0,0:0:0:0:
36,192,15966,1,0,0:0:0:0:
402,192,15966,1,0,0:0:0:0:
182,192,16061,1,0,0:0:0:0:
475,192,16061,1,0,0:0:0:0:
109,192,16156,1,0,0:0:0:0:
329,192,16156,1,0,0:0:0:0:
36,192,16251,1,0,0:0:0:0:
256,192,16251,1,0,0:0:0:0:
475,192,16251,128,0,16441:0:0:0:0:
182,192,16346,1,0,0:0:0:0:
329,192,16441,1,0,0:0:0:0:
402,192,16441,1,0,0:0:0:0:
182,192,16536,1,0,0:0:0:0:
109,192,16631,1,0,0:0:0:0:
256,192,16631,1,0,0:0:0:0:
36,192,16726,1,0,0:0:0:0:
475,192,16821,1,0,0:0:0:0:
182,192,16821,128,0,17010:0:0:0:0:
329,192,16821,1,0,0:0:0:0:
402,192,16915,1,0,0:0:0:0:
256,192,17010,1,0,0:0:0:0:
36,192,17010,1,0,0:0:0:0:
109,192,17105,1,0,0:0:0:0:
182,192,17200,1,0,0:0:0:0:
475,192,17200,128,0,17390:0:0:0:0:
402,192,17295,1,0,0:0:0:0:
256,192,17390,1,0,0:0:0:0:
329,192,17390,1,0,0:0:0:0:
36,192,17390,1,0,0:0:0:0:
109,192,17485,1,0,0:0:0:0:
182,192,17580,128,0,17770:0:0:0:0:
402,192,17580,1,0,0:0:0:0:
256,192,17675,1,0,0:0:0:0:
329,192,17770,1,0,0:0:0:0:
475,192,17770,1,0,0:0:0:0:
109,192,17770,1,0,0:0:0:0:
256,192,17865,1,0,0:0:0:0:
36,192,17960,1,0,0:0:0:0:
329,192,17960,1,0,0:0:0:0:
402,192,18055,1,0,0:0:0:0:
109,192,18055,1,0,0:0:0:0:
182,192,18150,1,0,0:0:0:0:
475,192,18150,1,0,0:0:0:0:
256,192,18245,1,0,0:0:0:0:
329,192,18245,1,0,0:0:0:0:
182,192,18340,1,0,0:0:0:0:
402,192,18340,1,0,0:0:0:0:
329,192,18434,1,0,0:0:0:0:
109,192,18434,1,0,0:0:0:0:
36,192,18529,1,0,0:0:0:0:
256,192,18529,1,0,0:0:0:0:
475,192,18529,128,0,18719:0:0:0:0:
402,192,18624,1,0,0:0:0:0:
329,192,18719,1,0,0:0:0:0:
182,192,18814,1,0,0:0:0:0:
109,192,18909,1,0,0:0:0:0:
329,192,18909,1,0,0:0:0:0:
256,192,19004,1,0,0:0:0:0:
109,192,19099,128,0,19289:0:0:0:0:
36,192,19099,1,0,0:0:0:0:
402,192,19099,1,0,0:0:0:0:
475,192,19194,1,0,0:0:0:0:
402,192,19289,1,0,0:0:0:0:
182,192,19289,1,0,0:0:0:0:
256,192,19384,1,0,0:0:0:0:
36,192,19479,1,0,0:0:0:0:
329,192,19479,128,0,19669:0:0:0:0:
182,192,19574,1,0,0:0:0:0:
402,192,19669,1,0,0:0:0:0:
109,192,19669,1,0,0:0:0:0:
475,192,19669,1,0,0:0:0:0:
256,192,19764,1,0,0:0:0:0:
329,192,19858,1,0,0:0:0:0:
475,192,19858,128,0,20048:0:0:0:0:
182,192,19858,1,0,0:0:0:0:
109,192,20048,1,0,0:0:0:0:
256,192,20048,1,0,0:0:0:0:
36,192,20048,1,0,0:0:0:0:
329,192,20143,1,0,0:0:0:0:
402,192,20238,1,0,0:0:0:0:
182,192,20238,1,0,0:0:0:0:
109,192,20333,1,0,0:0:0:0:
256,192,20428,1,0,0:0:0:0:
36,192,20428,1,0,0:0:0:0:
475,192,20523,1,0,0:0:0:0:
182,192,20523,1,0,0:0:0:0:
402,192,20618,1,0,0:0:0:0:
109,192,20618,1,0,0:0:0:0:
36,192,20713,1,0,0:0:0:0:
329,192,20713,1,0,0:0:0:0:
475,192,20808,1,0,0:0:0:0:
256,192,20808,1,0,0:0:0:0:
182,192,20808,128,0,20998:0:0:0:0:
402,192,20903,1,0,0:0:0:0:
109,192,20998,1,0,0:0:0:0:
36,192,21093,1,0,0:0:0:0:
402,192,21188,128,0,21377:0:0:0:0:
475,192,21188,1,0,0:0:0:0:
109,192,21283,1,0,0:0:0:0:
36,192,21377,1,0,0:0:0:0:
182,192,21377,1,0,0:0:0:0:
256,192,21377,1,0,0:0:0:0:
329,192,21472,1,0,0:0:0:0:
475,192,21567,1,0,0:0:0:0:
36,192,21567,128,0,21757:0:0:0:0:
402,192,21662,1,0,0:0:0:0:
329,192,21757,1,0,0:0:0:0:
475,192,21757,1,0,0:0:0:0:
182,192,21852,1,0,0:0:0:0:
402,192,21947,1,0,0:0:0:0:
36,192,21947,1,0,0:0:0:0:
256,192,21947,128,0,22137:0:0:0:0:
109,192,22042,1,0,0:0:0:0:
182,192,22137,1,0,0:0:0:0:
329,192,22137,1,0,0:0:0:0:
109,192,22327,1,0,0:0:0:0:
36,192,22327,1,0,0:0:0:0:
475,192,22327,128,0,22517:0:0:0:0:
182,192,22422,1,0,0:0:0:0:
402,192,22517,1,0,0:0:0:0:
256,192,22517,1,0,0:0:0:0:
329,192,22612,1,0,0:0:0:0:
36,192,22707,1,0,0:0:0:0:
256,192,22707,1,0,0:0:0:0:
182,192,22802,1,0,0:0:0:0:
329,192,22802,1,0,0:0:0:0:
109,192,22896,1,0,0:0:0:0:
475,192,22896,1,0,0:0:0:0:
36,192,22991,1,0,0:0:0:0:
402,192,22991,1,0,0:0:0:0:
329,192,23086,5,0,0:0:0:0:
182,192,23086,1,0,0:0:0:0:
475,192,23086,1,0,0:0:0:0:
109,192,23181,1,0,0:0:0:0:
36,192,23276,1,0,0:0:0:0:
256,192,23276,128,0,23466:0:0:0:0:
329,192,23371,1,0,0:0:0:0:
109,192,23466,1,0,0:0:0:0:
182,192,23466,1,0,0:0:0:0:
402,192,23561,1,0,0:0:0:0:
475,192,23656,1,0,0:0:0:0:
256,192,23656,1,0,0:0:0:0:
36,192,23656,128,0,23846:0:0:0:0:
109,192,23751,1,0,0:0:0:0:
329,192,23846,1,0,0:0:0:0:
182,192,23846,1,0,0:0:0:0:
475,192,23941,1,0,0:0:0:0:
402,192,24036,1,0,0:0:0:0:
256,192,24036,128,0,24226:0:0:0:0:
109,192,24131,1,0,0:0:0:0:
36,192,24226,1,0,0:0:0:0:
182,192,24226,1,0,0:0:0:0:
329,192,24226,1,0,0:0:0:0:
402,192,24321,1,0,0:0:0:0:
256,192,24415,1,0,0:0:0:0:
475,192,24415,128,0,24605:0:0:0:0:
109,192,24510,1,0,0:0:0:0:
182,192,24605,1,0,0:0:0:0:
402,192,24605,1,0,0:0:0:0:
329,192,24605,1,0,0:0:0:0:
36,192,24700,1,0,0:0:0:0:
109,192,24795,1,0,0:0:0:0:
182,192,24795,128,0,24985:0:0:0:0:
402,192,24890,1,0,0:0:0:0:
475,192,24985,1,0,0:0:0:0:
36,192,24985,1,0,0:0:0:0:
256,192,24985,1,0,0:0:0:0:
109,192,25080,1,0,0:0:0:0:
329,192,25080,1,0,0:0:0:0:
182,192,25175,1,0,0:0:0:0:
402,192,25175,1,0,0:0:0:0:
256,192,25270,1,0,0:0:0:0:
475,192,25270,1,0,0:0:0:0:
329,192,25365,1,0,0:0:0:0:
182,192,25365,1,0,0:0:0:0:
36,192,25365,128,0,25555:0:0:0:0:
109,192,25460,1,0,0:0:0:0:
402,192,25555,1,0,0:0:0:0:
475,192,25555,1,0,0:0:0:0:
256,192,25650,1,0,0:0:0:0:
36,192,25745,1,0,0:0:0:0:
182,192,25745,128,0,25934:0:0:0:0:
329,192,25840,1,0,0:0:0:0:
402,192,25934,1,0,0:0:0:0:
109,192,25934,1,0,0:0:0:0:
256,192,25934,1,0,0:0:0:0:
475,192,26029,1,0,0:0:0:0:
36,192,26124,1,0,0:0:0:0:
329,192,26124,128,0,26314:0:0:0:0:
109,192,26219,1,0,0:0:0:0:
182,192,26314,1,0,0:0:0:0:
256,192,26314,1,0,0:0:0:0:
402,192,26409,1,0,0:0:0:0:
329,192,26504,1,0,0:0:0:0:
36,192,26504,1,0,0:0:0:0:
475,192,26504,128,0,26694:0:0:0:0:
109,192,26599,1,0,0:0:0:0:
256,192,26694,1,0,0:0:0:0:
182,192,26694,1,0,0:0:0:0:
402,192,26789,1,0,0:0:0:0:
109,192,26884,1,0,0:0:0:0:
475,192,26884,1,0,0:0:0:0:
36,192,26884,128,0,27074:0:0:0:0:
256,192,26979,1,0,0:0:0:0:
329,192,27074,1,0,0:0:0:0:
182,192,27074,1,0,0:0:0:0:
109,192,27169,1,0,0:0:0:0:
36,192,27264,1,0,0:0:0:0:
256,192,27264,1,0,0:0:0:0:
475,192,27264,1,0,0:0:0:0:
109,192,27358,1,0,0:0:0:0:
329,192,27358,1,0,0:0:0:0:
182,192,27453,1,0,0:0:0:0:
402,192,27453,1,0,0:0:0:0:
256,192,27548,1,0,0:0:0:0:
475,192,27548,1,0,0:0:0:0:
182,192,27643,1,0,0:0:0:0:
36,192,27643,1,0,0:0:0:0:
329,192,27643,128,0,27833:0:0:0:0:
109,192,27738,1,0,0:0:0:0:
475,192,27833,1,0,0:0:0:0:
402,192,27833,1,0,0:0:0:0:
256,192,27928,1,0,0:0:0:0:
182,192,28023,1,0,0:0:0:0:
36,192,28023,128,0,28213:0:0:0:0:
329,192,28118,1,0,0:0:0:0:
109,192,28213,1,0,0:0:0:0:
256,192,28213,1,0,0:0:0:0:
402,192,28213,1,0,0:0:0:0:
182,192,28308,1,0,0:0:0:0:
402,192,28403,128,0,28593:0:0:0:0:
475,192,28403,1,0,0:0:0:0:
36,192,28498,1,0,0:0:0:0:
109,192,28593,1,0,0:0:0:0:
329,192,28593,1,0,0:0:0:0:
256,192,28688,1,0,0:0:0:0:
475,192,28783,1,0,0:0:0:0:
36,192,28783,1,0,0:0:0:0:
182,192,28783,128,0,28972:0:0:0:0:
329,192,28877,1,0,0:0:0:0:
109,192,28972,1,0,0:0:0:0:
402,192,28972,1,0,0:0:0:0:
256,192,29067,1,0,0:0:0:0:
182,192,29162,1,0,0:0:0:0:
36,192,29162,128,0,29352:0:0:0:0:
329,192,29162,1,0,0:0:0:0:
475,192,29257,1,0,0:0:0:0:
402,192,29352,1,0,0:0:0:0:
256,192,29352,1,0,0:0:0:0:
182,192,29447,1,0,0:0:0:0:
109,192,29542,1,0,0:0:0:0:
329,192,29542,1,0,0:0:0:0:
402,192,29637,1,0,0:0:0:0:
182,192,29637,1,0,0:0:0:0:
256,192,29732,1,0,0:0:0:0:
475,192,29732,1,0,0:0:0:0:
36,192,29827,1,0,0:0:0:0:
329,192,29827,1,0,0:0:0:0:
109,192,29922,1,0,0:0:0:0:
182,192,29922,1,0,0:0:0:0:
402,192,29922,128,0,30112:0:0:0:0:
475,192,30017,1,0,0:0:0:0:
329,192,30112,1,0,0:0:0:0:
36,192,30112,1,0,0:0:0:0:
256,192,30207,1,0,0:0:0:0:
402,192,30302,1,0,0:0:0:0:
182,192,30302,128,0,30491:0:0:0:0:
475,192,30396,1,0,0:0:0:0:
109,192,30491,1,0,0:0:0:0:
36,192,30491,1,0,0:0:0:0:
329,192,30491,1,0,0:0:0:0:
402,192,30586,1,0,0:0:0:0:
256,192,30681,1,0,0:0:0:0:
475,192,30681,128,0,30871:0:0:0:0:
182,192,30776,1,0,0:0:0:0:
329,192,30871,1,0,0:0:0:0:
36,192,30871,1,0,0:0:0:0:
109,192,30966,1,0,0:0:0:0:
182,192,31061,1,0,0:0:0:0:
402,192,31061,1,0,0:0:0:0:
256,192,31061,128,0,31251:0:0:0:0:
36,192,31061,1,0,0:0:0:0:
329,192,31156,1,0,0:0:0:0:
109,192,31251,1,0,0:0:0:0:
475,192,31251,1,0,0:0:0:0:
402,192,31346,1,0,0:0:0:0:
329,192,31441,1,0,0:0:0:0:
182,192,31441,1,0,0:0:0:0:
36,192,31441,128,0,31631:0:0:0:0:
256,192,31536,1,0,0:0:0:0:
402,192,31631,1,0,0:0:0:0:
475,192,31631,1,0,0:0:0:0:
182,192,31726,1,0,0:0:0:0:
109,192,31821,1,0,0:0:0:0:
329,192,31821,1,0,0:0:0:0:
402,192,31915,1,0,0:0:0:0:
182,192,31915,1,0,0:0:0:0:
475,192,32010,1,0,0:0:0:0:
256,192,32010,1,0,0:0:0:0:
329,192,32105,1,0,0:0:0:0:
182,192,32105,1,0,0:0:0:0:
36,192,32200,128,0,32390:0:0:0:0:
109,192,32200,1,0,0:0:0:0:
402,192,32200,1,0,0:0:0:0:
256,192,32295,1,0,0:0:0:0:
402,192,32390,1,0,0:0:0:0:
329,192,32390,1,0,0:0:0:0:
109,192,32485,1,0,0:0:0:0:
36,192,32580,1,0,0:0:0:0:
256,192,32580,1,0,0:0:0:0:
475,192,32580,128,0,32770:0:0:0:0:
402,192,32675,1,0,0:0:0:0:
182,192,32770,1,0,0:0:0:0:
329,192,32770,1,0,0:0:0:0:
109,192,32770,1,0,0:0:0:0:
36,192,32865,1,0,0:0:0:0:
109,192,32960,1,0,0:0:0:0:
256,192,32960,128,0,33150:0:0:0:0:
182,192,33055,1,0,0:0:0:0:
475,192,33150,1,0,0:0:0:0:
329,192,33150,1,0,0:0:0:0:
109,192,33245,1,0,0:0:0:0:
256,192,33340,1,0,0:0:0:0:
36,192,33340,128,0,33529:0:0:0:0:
182,192,33340,1,0,0:0:0:0:
402,192,33434,1,0,0:0:0:0:
329,192,33529,1,0,0:0:0:0:
109,192,33529,1,0,0:0:0:0:
182,192,33624,1,0,0:0:0:0:
402,192,33719,1,0,0:0:0:0:
329,192,33719,128,0,33909:0:0:0:0:
475,192,33719,1,0,0:0:0:0:
109,192,33814,1,0,0:0:0:0:
36,192,33909,1,0,0:0:0:0:
475,192,33909,1,0,0:0:0:0:
256,192,33909,1,0,0:0:0:0:
182,192,34004,1,0,0:0:0:0:
329,192,34099,1,0,0:0:0:0:
109,192,34099,1,0,0:0:0:0:
36,192,34194,1,0,0:0:0:0:
402,192,34194,1,0,0:0:0:0:
182,192,34289,1,0,0:0:0:0:
475,192,34289,1,0,0:0:0:0:
109,192,34384,1,0,0:0:0:0:
329,192,34384,1,0,0:0:0:0:
36,192,34479,1,0,0:0:0:0:
256,192,34479,1,0,0:0:0:0:
475,192,34479,128,0,34669:0:0:0:0:
182,192,34574,1,0,0:0:0:0:
329,192,34669,1,0,0:0:0:0:
402,192,34669,1,0,0:0:0:0:
182,192,34764,1,0,0:0:0:0:
109,192,34859,1,0,0:0:0:0:
256,192,34859,1,0,0:0:0:0:
36,192,34953,1,0,0:0:0:0:
475,192,35048,1,0,0:0:0:0:
182,192,35048,128,0,35238:0:0:0:0:
329,192,35048,1,0,0:0:0:0:
402,192,35143,1,0,0:0:0:0:
256,192,35238,1,0,0:0:0:0:
36,192,35238,1,0,0:0:0:0:
109,192,35333,1,0,0:0:0:0:
182,192,35428,1,0,0:0:0:0:
475,192,35428,128,0,35618:0:0:0:0:
402,192,35523,1,0,0:0:0:0:
256,192,35618,1,0,0:0:0:0:
329,192,35618,1,0,0:0:0:0:
36,192,35618,1,0,0:0:0:0:
109,192,35713,1,0,0:0:0:0:
182,192,35808,128,0,35998:0:0:0:0:
402,192,35808,1,0,0:0:0:0:
256,192,35903,1,0,0:0:0:0:
329,192,35998,1,0,0:0:0:0:
475,192,35998,1,0,0:0:0:0:
109,192,35998,1,0,0:0:0:0:
256,192,36093,1,0,0:0:0:0:
36,192,36188,1,0,0:0:0:0:
329,192,36188,1,0,0:0:0:0:
402,192,36283,1,0,0:0:0:0:
109,192,36283,1,0,0:0:0:0:
182,192,36377,1,0,0:0:0:0:
475,192,36377,1,0,0:0:0:0:
256,192,36472,1,0,0:0:0:0:
329,192,36472,1,0,0:0:0:0:
182,192,36567,1,0,0:0:0:0:
402,192,36567,1,0,0:0:0:0:
329,192,36662,1,0,0:0:0:0:
109,192,36662,1,0,0:0:0:0:
36,192,36757,1,0,0:0:0:0:
256,192,36757,1,0,0:0:0:0:
475,192,36757,128,0,36947:0:0:0:0:
402,192,36852,1,0,0:0:0:0:
329,192,36947,1,0,0:0:0:0:
182,192,37042,1,0,0:0:0:0:
109,192,37137,1,0,0:0:0:0:
329,192,37137,1,0,0:0:0:0:
256,192,37232,1,0,0:0:0:0:
109,192,37327,128,0,37517:0:0:0:0:
36,192,37327,1,0,0:0:0:0:
402,192,37327,1,0,0:0:0:0:
475,192,37422,1,0,0:0:0:0:
402,192,37517,1,0,0:0:0:0:
182,192,37517,1,0,0:0:0:0:
256,192,37612,1,0,0:0:0:0:
36,192,37707,1,0,0:0:0:0:
329,192,37707,128,0,37896:0:0:0:0:
182,192,37802,1,0,0:0:0:0:
402,192,37896,1,0,0:0:0:0:
109,192,37896,1,0,0:0:0:0:
475,192,37896,1,0,0:0:0:0:
256,192,37991,1,0,0:0:0:0:
329,192,38086,1,0,0:0:0:0:
475,192,38086,128,0,38276:0:0:0:0:
182,192,38086,1,0,0:0:0:0:
109,192,38276,1,0,0:0:0:0:
256,192,38276,1,0,0:0:0:0:
36,192,38276,1,0,0:0:0:0:
329,192,38371,1,0,0:0:0:0:
402,192,38466,1,0,0:0:0:0:
182,192,38466,1,0,0:0:0:0:
109,192,38561,1,0,0:0:0:0:
256,192,38656,1,0,0:0:0:0:
36,192,38656,1,0,0:0:0:0:
475,192,38751,1,0,0:0:0:0:
182,192,38751,1,0,0:0:0:0:
402,192,38846,1,0,0:0:0:0:
109,192,38846,1,0,0:0:0:0:
36,192,38941,1,0,0:0:0:0:
329,192,38941,1,0,0:0:0:0:
475,192,39036,1,0,0:0:0:0:
256,192,39036,1,0,0:0:0:0:
182,192,39036,128,0,39226:0:0:0:0:
402,192,39131,1,0,0:0:0:0:
109,192,39226,1,0,0:0:0:0:
36,192,39321,1,0,0:0:0:0:
402,192,39415,128,0,39605:0:0:0:0:
475,192,39415,1,0,0:0:0:0:
109,192,39510,1,0,0:0:0:0:
36,192,39605,1,0,0:0:0:0:
182,192,39605,1,0,0:0:0:0:
256,192,39605,1,0,0:0:0:0:
329,192,39700,1,0,0:0:0:0:
475,192,39795,1,0,0:0:0:0:
36,192,39795,128,0,39985:0:0:0:0:
402,192,39890,1,0,0:0:0:0:
329,192,39985,1,0,0:0:0:0:
475,192,39985,1,0,0:0:0:0:
182,192,40080,1,0,0:0:0:0:
402,192,40175,1,0,0:0:0:0:
36,192,40175,1,0,0:0:0:0:
256,192,40175,128,0,40365:0:0:0:0:
109,192,40270,1,0,0:0:0:0:
182,192,40365,1,0,0:0:0:0:
329,192,40365,1,0,0:0:0:0:
109,192,40555,1,0,0:0:0:0:
36,192,40555,1,0,0:0:0:0:
475,192,40555,128,0,40745:0:0:0:0:
182,192,40650,1,0,0:0:0:0:
402,192,40745,1,0,0:0:0:0:
256,192,40745,1,0,0:0:0:0:
329,192,40840,1,0,0:0:0:0:
256,192,40934,1,0,0:0:0:0:
109,192,40934,1,0,0:0:0:0:
182,192,41029,1,0,0:0:0:0:
329,192,41029,1,0,0:0:0:0:
402,192,41124,1,0,0:0:0:0:
36,192,41124,1,0,0:0:0:0:
475,192,41219,1,0,0:0:0:0:
109,192,41219,1,0,0:0:0:0:
329,192,41314,5,0,0:0:0:0:
182,192,41314,1,0,0:0:0:0:
36,192,41314,1,0,0:0:0:0:
402,192,41409,1,0,0:0:0:0:
256,192,41504,128,0,41694:0:0:0:0:
475,192,41504,1,0,0:0:0:0:
182,192,41599,1,0,0:0:0:0:
329,192,41694,1,0,0:0:0:0:
402,192,41694,1,0,0:0:0:0:
109,192,41789,1,0,0:0:0:0:
475,192,41884,128,0,42074:0:0:0:0:
256,192,41884,1,0,0:0:0:0:
36,192,41884,1,0,0:0:0:0:
402,192,41979,1,0,0:0:0:0:
329,192,42074,1,0,0:0:0:0:
182,192,42074,1,0,0:0:0:0:
36,192,42169,1,0,0:0:0:0:
256,192,42264,128,0,42453:0:0:0:0:
109,192,42264,1,0,0:0:0:0:
402,192,42359,1,0,0:0:0:0:
182,192,42453,1,0,0:0:0:0:
329,192,42453,1,0,0:0:0:0:
475,192,42453,1,0,0:0:0:0:
109,192,42548,1,0,0:0:0:0:
36,192,42643,128,0,42833:0:0:0:0:
256,192,42643,1,0,0:0:0:0:
402,192,42738,1,0,0:0:0:0:
182,192,42833,1,0,0:0:0:0:
109,192,42833,1,0,0:0:0:0:
329,192,42833,1,0,0:0:0:0:
475,192,42928,1,0,0:0:0:0:
329,192,43023,128,0,43213:0:0:0:0:
402,192,43023,1,0,0:0:0:0:
109,192,43118,1,0,0:0:0:0:
256,192,43213,1,0,0:0:0:0:
475,192,43213,1,0,0:0:0:0:
36,192,43213,1,0,0:0:0:0:
182,192,43308,1,0,0:0:0:0:
402,192,43308,1,0,0:0:0:0:
109,192,43403,1,0,0:0:0:0:
329,192,43403,1,0,0:0:0:0:
36,192,43498,1,0,0:0:0:0:
256,192,43498,1,0,0:0:0:0:
475,192,43593,128,0,43783:0:0:0:0:
329,192,43593,1,0,0:0:0:0:
182,192,43593,1,0,0:0:0:0:
402,192,43688,1,0,0:0:0:0:
36,192,43783,1,0,0:0:0:0:
109,192,43783,1,0,0:0:0:0:
256,192,43877,1,0,0:0:0:0:
329,192,43972,128,0,44162:0:0:0:0:
475,192,43972,1,0,0:0:0:0:
182,192,44067,1,0,0:0:0:0:
256,192,44162,1,0,0:0:0:0:
402,192,44162,1,0,0:0:0:0:
109,192,44162,1,0,0:0:0:0:
36,192,44257,1,0,0:0:0:0:
182,192,44352,128,0,44542:0:0:0:0:
475,192,44352,1,0,0:0:0:0:
402,192,44447,1,0,0:0:0:0:
256,192,44542,1,0,0:0:0:0:
329,192,44542,1,0,0:0:0:0:
109,192,44637,1,0,0:0:0:0:
36,192,44732,128,0,44922:0:0:0:0:
475,192,44732,1,0,0:0:0:0:
182,192,44732,1,0,0:0:0:0:
402,192,44827,1,0,0:0:0:0:
329,192,44922,1,0,0:0:0:0:
256,192,44922,1,0,0:0:0:0:
109,192,45017,1,0,0:0:0:0:
475,192,45112,128,0,45302:0:0:0:0:
36,192,45112,1,0,0:0:0:0:
402,192,45112,1,0,0:0:0:0:
256,192,45207,1,0,0:0:0:0:
329,192,45302,1,0,0:0:0:0:
182,192,45302,1,0,0:0:0:0:
402,192,45396,1,0,0:0:0:0:
36,192,45491,1,0,0:0:0:0:
256,192,45491,1,0,0:0:0:0:
475,192,45491,1,0,0:0:0:0:
182,192,45586,1,0,0:0:0:0:
402,192,45586,1,0,0:0:0:0:
109,192,45681,1,0,0:0:0:0:
329,192,45681,1,0,0:0:0:0:
36,192,45776,1,0,0:0:0:0:
256,192,45776,1,0,0:0:0:0:
182,192,45871,128,0,46061:0:0:0:0:
475,192,45871,1,0,0:0:0:0:
329,192,45871,1,0,0:0:0:0:
402,192,45966,1,0,0:0:0:0:
109,192,46061,1,0,0:0:0:0:
36,192,46061,1,0,0:0:0:0:
256,192,46156,1,0,0:0:0:0:
475,192,46251,128,0,46441:0:0:0:0:
329,192,46251,1,0,0:0:0:0:
182,192,46346,1,0,0:0:0:0:
109,192,46441,1,0,0:0:0:0:
256,192,46441,1,0,0:0:0:0:
402,192,46441,1,0,0:0:0:0:
329,192,46536,1,0,0:0:0:0:
36,192,46631,1,0,0:0:0:0:
109,192,46631,128,0,46821:0:0:0:0:
475,192,46726,1,0,0:0:0:0:
182,192,46821,1,0,0:0:0:0:
402,192,46821,1,0,0:0:0:0:
256,192,46915,1,0,0:0:0:0:
329,192,47010,128,0,47200:0:0:0:0:
475,192,47010,1,0,0:0:0:0:
36,192,47010,1,0,0:0:0:0:
182,192,47105,1,0,0:0:0:0:
109,192,47200,1,0,0:0:0:0:
402,192,47200,1,0,0:0:0:0:
256,192,47295,1,0,0:0:0:0:
182,192,47390,1,0,0:0:0:0:
475,192,47390,128,0,47580:0:0:0:0:
329,192,47390,1,0,0:0:0:0:
36,192,47485,1,0,0:0:0:0:
256,192,47580,1,0,0:0:0:0:
109,192,47580,1,0,0:0:0:0:
329,192,47675,1,0,0:0:0:0:
182,192,47770,1,0,0:0:0:0:
402,192,47770,1,0,0:0:0:0:
329,192,47865,1,0,0:0:0:0:
109,192,47865,1,0,0:0:0:0:
36,192,47960,1,0,0:0:0:0:
256,192,47960,1,0,0:0:0:0:
182,192,48055,1,0,0:0:0:0:
475,192,48055,1,0,0:0:0:0:
109,192,48150,128,0,48340:0:0:0:0:
329,192,48150,1,0,0:0:0:0:
402,192,48150,1,0,0:0:0:0:
36,192,48245,1,0,0:0:0:0:
475,192,48340,1,0,0:0:0:0:
182,192,48340,1,0,0:0:0:0:
256,192,48434,1,0,0:0:0:0:
329,192,48529,128,0,48719:0:0:0:0:
109,192,48529,1,0,0:0:0:0:
36,192,48624,1,0,0:0:0:0:
182,192,48719,1,0,0:0:0:0:
475,192,48719,1,0,0:0:0:0:
402,192,48719,1,0,0:0:0:0:
109,192,48814,1,0,0:0:0:0:
36,192,48909,128,0,49099:0:0:0:0:
256,192,48909,1,0,0:0:0:0:
329,192,49004,1,0,0:0:0:0:
475,192,49099,1,0,0:0:0:0:
182,192,49099,1,0,0:0:0:0:
402,192,49194,1,0,0:0:0:0:
256,192,49289,128,0,49479:0:0:0:0:
475,192,49289,1,0,0:0:0:0:
329,192,49289,1,0,0:0:0:0:
109,192,49289,1,0,0:0:0:0:
182,192,49384,1,0,0:0:0:0:
36,192,49479,1,0,0:0:0:0:
402,192,49479,1,0,0:0:0:0:
109,192,49574,1,0,0:0:0:0:
475,192,49669,128,0,49859:0:0:0:0:
329,192,49669,1,0,0:0:0:0:
182,192,49669,1,0,0:0:0:0:
256,192,49764,1,0,0:0:0:0:
36,192,49859,1,0,0:0:0:0:
109,192,49859,1,0,0:0:0:0:
329,192,49953,1,0,0:0:0:0:
182,192,50048,1,0,0:0:0:0:
402,192,50048,1,0,0:0:0:0:
329,192,50143,1,0,0:0:0:0:
109,192,50143,1,0,0:0:0:0:
256,192,50238,1,0,0:0:0:0:
36,192,50238,1,0,0:0:0:0:
329,192,50333,1,0,0:0:0:0:
182,192,50333,1,0,0:0:0:0:
109,192,50428,1,0,0:0:0:0:
402,192,50428,1,0,0:0:0:0:
475,192,50428,128,0,50618:0:0:0:0:
256,192,50523,1,0,0:0:0:0:
182,192,50618,1,0,0:0:0:0:
109,192,50618,1,0,0:0:0:0:
402,192,50713,1,0,0:0:0:0:
36,192,50808,128,0,50998:0:0:0:0:
256,192,50808,1,0,0:0:0:0:
475,192,50808,1,0,0:0:0:0:
109,192,50903,1,0,0:0:0:0:
402,192,50998,1,0,0:0:0:0:
182,192,50998,1,0,0:0:0:0:
329,192,50998,1,0,0:0:0:0:
475,192,51093,1,0,0:0:0:0:
256,192,51188,128,0,51377:0:0:0:0:
402,192,51188,1,0,0:0:0:0:
329,192,51283,1,0,0:0:0:0:
182,192,51377,1,0,0:0:0:0:
36,192,51377,1,0,0:0:0:0:
402,192,51472,1,0,0:0:0:0:
329,192,51567,1,0,0:0:0:0:
475,192,51567,128,0,51757:0:0:0:0:
256,192,51567,1,0,0:0:0:0:
109,192,51662,1,0,0:0:0:0:
402,192,51757,1,0,0:0:0:0:
182,192,51757,1,0,0:0:0:0:
329,192,51852,1,0,0:0:0:0:
36,192,51947,1,0,0:0:0:0:
182,192,51947,128,0,52137:0:0:0:0:
109,192,51947,1,0,0:0:0:0:
402,192,52042,1,0,0:0:0:0:
256,192,52137,1,0,0:0:0:0:
36,192,52137,1,0,0:0:0:0:
475,192,52137,1,0,0:0:0:0:
329,192,52232,1,0,0:0:0:0:
402,192,52327,1,0,0:0:0:0:
182,192,52327,1,0,0:0:0:0:
109,192,52422,1,0,0:0:0:0:
475,192,52422,1,0,0:0:0:0:
36,192,52517,1,0,0:0:0:0:
329,192,52517,1,0,0:0:0:0:
182,192,52612,1,0,0:0:0:0:
402,192,52612,1,0,0:0:0:0:
36,192,52707,128,0,52896:0:0:0:0:
256,192,52707,1,0,0:0:0:0:
475,192,52707,1,0,0:0:0:0:
329,192,52802,1,0,0:0:0:0:
109,192,52896,1,0,0:0:0:0:
182,192,52896,1,0,0:0:0:0:
329,192,52991,1,0,0:0:0:0:
256,192,53086,1,0,0:0:0:0:
402,192,53086,1,0,0:0:0:0:
475,192,53181,1,0,0:0:0:0:
182,192,53276,1,0,0:0:0:0:
329,192,53276,128,0,53466:0:0:0:0:
36,192,53276,1,0,0:0:0:0:
109,192,53371,1,0,0:0:0:0:
475,192,53466,1,0,0:0:0:0:
256,192,53466,1,0,0:0:0:0:
402,192,53561,1,0,0:0:0:0:
36,192,53656,128,0,53846:0:0:0:0:
329,192,53656,1,0,0:0:0:0:
109,192,53751,1,0,0:0:0:0:
475,192,53846,1,0,0:0:0:0:
182,192,53846,1,0,0:0:0:0:
256,192,53846,1,0,0:0:0:0:
402,192,53941,1,0,0:0:0:0:
109,192,54036,1,0,0:0:0:0:
329,192,54036,128,0,54226:0:0:0:0:
256,192,54131,1,0,0:0:0:0:
402,192,54226,1,0,0:0:0:0:
36,192,54226,1,0,0:0:0:0:
182,192,54226,1,0,0:0:0:0:
256,192,54321,1,0,0:0:0:0:
182,192,54415,1,0,0:0:0:0:
475,192,54415,1,0,0:0:0:0:
402,192,54510,1,0,0:0:0:0:
109,192,54510,1,0,0:0:0:0:
36,192,54605,1,0,0:0:0:0:
329,192,54605,1,0,0:0:0:0:
182,192,54700,1,0,0:0:0:0:
256,192,54700,1,0,0:0:0:0:
109,192,54795,1,0,0:0:0:0:
329,192,54795,1,0,0:0:0:0:
402,192,54890,1,0,0:0:0:0:
182,192,54890,1,0,0:0:0:0:
36,192,54985,128,0,55175:0:0:0:0:
256,192,54985,1,0,0:0:0:0:
475,192,54985,1,0,0:0:0:0:
109,192,55080,1,0,0:0:0:0:
182,192,55175,1,0,0:0:0:0:
329,192,55270,1,0,0:0:0:0:
182,192,55365,1,0,0:0:0:0:
402,192,55365,1,0,0:0:0:0:
256,192,55460,1,0,0:0:0:0:
109,192,55555,1,0,0:0:0:0:
475,192,55555,1,0,0:0:0:0:
402,192,55555,128,0,55745:0:0:0:0:
36,192,55650,1,0,0:0:0:0:
329,192,55745,1,0,0:0:0:0:
109,192,55745,1,0,0:0:0:0:
256,192,55840,1,0,0:0:0:0:
182,192,55934,128,0,56124:0:0:0:0:
475,192,55934,1,0,0:0:0:0:
329,192,56029,1,0,0:0:0:0:
36,192,56124,1,0,0:0:0:0:
402,192,56124,1,0,0:0:0:0:
109,192,56124,1,0,0:0:0:0:
256,192,56219,1,0,0:0:0:0:
329,192,56314,1,0,0:0:0:0:
36,192,56314,128,0,56504:0:0:0:0:
182,192,56314,1,0,0:0:0:0:
475,192,56504,1,0,0:0:0:0:
256,192,56504,1,0,0:0:0:0:
402,192,56504,1,0,0:0:0:0:
182,192,56599,1,0,0:0:0:0:
329,192,56694,1,0,0:0:0:0:
109,192,56694,1,0,0:0:0:0:
402,192,56789,1,0,0:0:0:0:
475,192,56884,1,0,0:0:0:0:
256,192,56884,1,0,0:0:0:0:
329,192,56979,1,0,0:0:0:0:
36,192,56979,1,0,0:0:0:0:
402,192,57074,1,0,0:0:0:0:
109,192,57074,1,0,0:0:0:0:
182,192,57169,1,0,0:0:0:0:
475,192,57169,1,0,0:0:0:0:
329,192,57264,128,0,57453:0:0:0:0:
256,192,57264,1,0,0:0:0:0:
36,192,57264,1,0,0:0:0:0:
109,192,57359,1,0,0:0:0:0:
402,192,57453,1,0,0:0:0:0:
475,192,57548,1,0,0:0:0:0:
36,192,57643,1,0,0:0:0:0:
109,192,57643,128,0,57833:0:0:0:0:
402,192,57738,1,0,0:0:0:0:
256,192,57833,1,0,0:0:0:0:
329,192,57833,1,0,0:0:0:0:
475,192,57833,1,0,0:0:0:0:
182,192,57928,1,0,0:0:0:0:
475,192,58023,128,0,58213:0:0:0:0:
36,192,58023,1,0,0:0:0:0:
109,192,58118,1,0,0:0:0:0:
36,192,58213,1,0,0:0:0:0:
182,192,58213,1,0,0:0:0:0:
329,192,58308,1,0,0:0:0:0:
256,192,58403,128,0,58593:0:0:0:0:
475,192,58403,1,0,0:0:0:0:
109,192,58403,1,0,0:0:0:0:
402,192,58498,1,0,0:0:0:0:
182,192,58593,1,0,0:0:0:0:
329,192,58593,1,0,0:0:0:0:
36,192,58783,128,0,58972:0:0:0:0:
475,192,58783,1,0,0:0:0:0:
402,192,58783,1,0,0:0:0:0:
329,192,58877,1,0,0:0:0:0:
256,192,58972,1,0,0:0:0:0:
109,192,58972,1,0,0:0:0:0:
182,192,59067,1,0,0:0:0:0:
256,192,59162,1,0,0:0:0:0:
475,192,59162,1,0,0:0:0:0:
182,192,59257,1,0,0:0:0:0:
329,192,59257,1,0,0:0:0:0:
402,192,59352,1,0,0:0:0:0:
109,192,59352,1,0,0:0:0:0:
475,192,59447,1,0,0:0:0:0:
36,192,59447,1,0,0:0:0:0:
329,192,59542,5,0,0:0:0:0:
182,192,59542,1,0,0:0:0:0:
256,192,59542,1,0,0:0:0:0:
109,192,59637,1,0,0:0:0:0:
36,192,59732,1,0,0:0:0:0:
256,192,59732,128,0,59922:0:0:0:0:
329,192,59827,1,0,0:0:0:0:
109,192,59922,1,0,0:0:0:0:
182,192,59922,1,0,0:0:0:0:
402,192,60017,1,0,0:0:0:0:
475,192,60112,1,0,0:0:0:0:
256,192,60112,1,0,0:0:0:0:
36,192,60112,128,0,60302:0:0:0:0:
109,192,60207,1,0,0:0:0:0:
329,192,60302,1,0,0:0:0:0:
182,192,60302,1,0,0:0:0:0:
475,192,60396,1,0,0:0:0:0:
402,192,60491,1,0,0:0:0:0:
256,192,60491,128,0,60681:0:0:0:0:
109,192,60586,1,0,0:0:0:0:
36,192,60681,1,0,0:0:0:0:
182,192,60681,1,0,0:0:0:0:
329,192,60681,1,0,0:0:0:0:
402,192,60776,1,0,0:0:0:0:
256,192,60871,1,0,0:0:0:0:
475,192,60871,128,0,61061:0:0:0:0:
109,192,60966,1,0,0:0:0:0:
182,192,61061,1,0,0:0:0:0:
402,192,61061,1,0,0:0:0:0:
329,192,61061,1,0,0:0:0:0:
36,192,61156,1,0,0:0:0:0:
109,192,61251,1,0,0:0:0:0:
182,192,61251,128,0,61441:0:0:0:0:
402,192,61346,1,0,0:0:0:0:
475,192,61441,1,0,0:0:0:0:
36,192,61441,1,0,0:0:0:0:
256,192,61441,1,0,0:0:0:0:
109,192,61536,1,0,0:0:0:0:
329,192,61536,1,0,0:0:0:0:
182,192,61631,1,0,0:0:0:0:
402,192,61631,1,0,0:0:0:0:
256,192,61726,1,0,0:0:0:0:
475,192,61726,1,0,0:0:0:0:
329,192,61821,1,0,0:0:0:0:
182,192,61821,1,0,0:0:0:0:
36,192,61821,128,0,62010:0:0:0:0:
109,192,61915,1,0,0:0:0:0:
402,192,62010,1,0,0:0:0:0:
475,192,62010,1,0,0:0:0:0:
256,192,62105,1,0,0:0:0:0:
36,192,62200,1,0,0:0:0:0:
182,192,62200,128,0,62390:0:0:0:0:
329,192,62295,1,0,0:0:0:0:
402,192,62390,1,0,0:0:0:0:
109,192,62390,1,0,0:0:0:0:
256,192,62390,1,0,0:0:0:0:
475,192,62485,1,0,0:0:0:0:
36,192,62580,1,0,0:0:0:0:
329,192,62580,128,0,62770:0:0:0:0:
109,192,62675,1,0,0:0:0:0:
182,192,62770,1,0,0:0:0:0:
256,192,62770,1,0,0:0:0:0:
402,192,62865,1,0,0:0:0:0:
329,192,62960,1,0,0:0:0:0:
36,192,62960,1,0,0:0:0:0:
475,192,62960,128,0,63150:0:0:0:0:
109,192,63055,1,0,0:0:0:0:
256,192,63150,1,0,0:0:0:0:
182,192,63150,1,0,0:0:0:0:
402,192,63245,1,0,0:0:0:0:
109,192,63340,1,0,0:0:0:0:
475,192,63340,1,0,0:0:0:0:
36,192,63340,128,0,63529:0:0:0:0:
256,192,63434,1,0,0:0:0:0:
329,192,63529,1,0,0:0:0:0:
182,192,63529,1,0,0:0:0:0:
109,192,63624,1,0,0:0:0:0:
36,192,63719,1,0,0:0:0:0:
256,192,63719,1,0,0:0:0:0:
475,192,63719,1,0,0:0:0:0:
109,192,63814,1,0,0:0:0:0:
329,192,63814,1,0,0:0:0:0:
182,192,63909,1,0,0:0:0:0:
402,192,63909,1,0,0:0:0:0:
256,192,64004,1,0,0:0:0:0:
475,192,64004,1,0,0:0:0:0:
182,192,64099,1,0,0:0:0:0:
36,192,64099,1,0,0:0:0:0:
329,192,64099,128,0,64289:0:0:0:0:
109,192,64194,1,0,0:0:0:0:
475,192,64289,1,0,0:0:0:0:
402,192,64289,1,0,0:0:0:0:
256,192,64384,1,0,0:0:0:0:
182,192,64479,1,0,0:0:0:0:
36,192,64479,128,0,64669:0:0:0:0:
329,192,64574,1,0,0:0:0:0:
109,192,64669,1,0,0:0:0:0:
256,192,64669,1,0,0:0:0:0:
402,192,64669,1,0,0:0:0:0:
182,192,64764,1,0,0:0:0:0:
402,192,64859,128,0,65048:0:0:0:0:
475,192,64859,1,0,0:0:0:0:
36,192,64953,1,0,0:0:0:0:
109,192,65048,1,0,0:0:0:0:
329,192,65048,1,0,0:0:0:0:
256,192,65143,1,0,0:0:0:0:
475,192,65238,1,0,0:0:0:0:
36,192,65238,1,0,0:0:0:0:
182,192,65238,128,0,65428:0:0:0:0:
329,192,65333,1,0,0:0:0:0:
109,192,65428,1,0,0:0:0:0:
402,192,65428,1,0,0:0:0:0:
256,192,65523,1,0,0:0:0:0:
182,192,65618,1,0,0:0:0:0:
36,192,65618,128,0,65808:0:0:0:0:
329,192,65618,1,0,0:0:0:0:
475,192,65713,1,0,0:0:0:0:
402,192,65808,1,0,0:0:0:0:
256,192,65808,1,0,0:0:0:0:
182,192,65903,1,0,0:0:0:0:
109,192,65998,1,0,0:0:0:0:
329,192,65998,1,0,0:0:0:0:
402,192,66093,1,0,0:0:0:0:
182,192,66093,1,0,0:0:0:0:
256,192,66188,1,0,0:0:0:0:
475,192,66188,1,0,0:0:0:0:
36,192,66283,1,0,0:0:0:0:
329,192,66283,1,0,0:0:0:0:
109,192,66377,1,0,0:0:0:0:
182,192,66377,1,0,0:0:0:0:
402,192,66377,128,0,66567:0:0:0:0:
475,192,66472,1,0,0:0:0:0:
329,192,66567,1,0,0:0:0:0:
36,192,66567,1,0,0:0:0:0:
256,192,66662,1,0,0:0:0:0:
402,192,66757,1,0,0:0:0:0:
182,192,66757,128,0,66947:0:0:0:0:
475,192,66852,1,0,0:0:0:0:
109,192,66947,1,0,0:0:0:0:
36,192,66947,1,0,0:0:0:0:
329,192,66947,1,0,0:0:0:0:
402,192,67042,1,0,0:0:0:0:
256,192,67137,1,0,0:0:0:0:
475,192,67137,128,0,67327:0:0:0:0:
182,192,67232,1,0,0:0:0:0:
329,192,67327,1,0,0:0:0:0:
36,192,67327,1,0,0:0:0:0:
109,192,67422,1,0,0:0:0:0:
182,192,67517,1,0,0:0:0:0:
402,192,67517,1,0,0:0:0:0:
256,192,67517,128,0,67707:0:0:0:0:
36,192,67517,1,0,0:0:0:0:
329,192,67612,1,0,0:0:0:0:
109,192,67707,1,0,0:0:0:0:
475,192,67707,1,0,0:0:0:0:
402,192,67802,1,0,0:0:0:0:
329,192,67896,1,0,0:0:0:0:
182,192,67896,1,0,0:0:0:0:
36,192,67896,128,0,68086:0:0:0:0:
256,192,67991,1,0,0:0:0:0:
402,192,68086,1,0,0:0:0:0:
475,192,68086,1,0,0:0:0:0:
182,192,68181,1,0,0:0:0:0:
109,192,68276,1,0,0:0:0:0:
329,192,68276,1,0,0:0:0:0:
402,192,68371,1,0,0:0:0:0:
182,192,68371,1,0,0:0:0:0:
475,192,68466,1,0,0:0:0:0:
256,192,68466,1,0,0:0:0:0:
329,192,68561,1,0,0:0:0:0:
182,192,68561,1,0,0:0:0:0:
36,192,68656,128,0,68846:0:0:0:0:
109,192,68656,1,0,0:0:0:0:
402,192,68656,1,0,0:0:0:0:
256,192,68751,1,0,0:0:0:0:
402,192,68846,1,0,0:0:0:0:
329,192,68846,1,0,0:0:0:0:
109,192,68941,1,0,0:0:0:0:
36,192,69036,1,0,0:0:0:0:
256,192,69036,1,0,0:0:0:0:
475,192,69036,128,0,69226:0:0:0:0:
402,192,69131,1,0,0:0:0:0:
182,192,69226,1,0,0:0:0:0:
329,192,69226,1,0,0:0:0:0:
109,192,69226,1,0,0:0:0:0:
36,192,69321,1,0,0:0:0:0:
109,192,69415,1,0,0:0:0:0:
256,192,69415,128,0,69605:0:0:0:0:
182,192,69510,1,0,0:0:0:0:
475,192,69605,1,0,0:0:0:0:
329,192,69605,1,0,0:0:0:0:
109,192,69700,1,0,0:0:0:0:
256,192,69795,1,0,0:0:0:0:
36,192,69795,128,0,69985:0:0:0:0:
182,192,69795,1,0,0:0:0:0:
402,192,69890,1,0,0:0:0:0:
329,192,69985,1,0,0:0:0:0:
109,192,69985,1,0,0:0:0:0:
182,192,70080,1,0,0:0:0:0:
402,192,70175,1,0,0:0:0:0:
329,192,70175,128,0,70365:0:0:0:0:
475,192,70175,1,0,0:0:0:0:
109,192,70270,1,0,0:0:0:0:
36,192,70365,1,0,0:0:0:0:
475,192,70365,1,0,0:0:0:0:
256,192,70365,1,0,0:0:0:0:
182,192,70460,1,0,0:0:0:0:
329,192,70555,1,0,0:0:0:0:
109,192,70555,1,0,0:0:0:0:
36,192,70650,1,0,0:0:0:0:
402,192,70650,1,0,0:0:0:0:
182,192,70745,1,0,0:0:0:0:
475,192,70745,1,0,0:0:0:0:
109,192,70840,1,0,0:0:0:0:
329,192,70840,1,0,0:0:0:0:
36,192,70934,1,0,0:0:0:0:
256,192,70934,1,0,0:0:0:0:
475,192,70934,128,0,71124:0:0:0:0:
182,192,71029,1,0,0:0:0:0:
329,192,71124,1,0,0:0:0:0:
402,192,71124,1,0,0:0:0:0:
182,192,71219,1,0,0:0:0:0:
109,192,71314,1,0,0:0:0:0:
256,192,71314,1,0,0:0:0:0:
36,192,71409,1,0,0:0:0:0:
475,192,71504,1,0,0:0:0:0:
182,192,71504,128,0,71694:0:0:0:0:
329,192,71504,1,0,0:0:0:0:
402,192,71599,1,0,0:0:0:0:
256,192,71694,1,0,0:0:0:0:
36,192,71694,1,0,0:0:0:0:
109,192,71789,1,0,0:0:0:0:
182,192,71884,1,0,0:0:0:0:
475,192,71884,128,0,72074:0:0:0:0:
402,192,71979,1,0,0:0:0:0:
256,192,72074,1,0,0:0:0:0:
329,192,72074,1,0,0:0:0:0:
36,192,72074,1,0,0:0:0:0:
109,192,72169,1,0,0:0:0:0:
182,192,72264,128,0,72453:0:0:0:0:
402,192,72264,1,0,0:0:0:0:
256,192,72359,1,0,0:0:0:0:
329,192,72453,1,0,0:0:0:0:
475,192,72453,1,0,0:0:0:0:
109,192,72453,1,0,0:0:0:0:
256,192,72548,1,0,0:0:0:0:
36,192,72643,1,0,0:0:0:0:
329,192,72643,1,0,0:0:0:0:
402,192,72738,1,0,0:0:0:0:
109,192,72738,1,0,0:0:0:0:
182,192,72833,1,0,0:0:0:0:
475,192,72833,1,0,0:0:0:0:
256,192,72928,1,0,0:0:0:0:
329,192,72928,1,0,0:0:0:0:
182,192,73023,1,0,0:0:0:0:
402,192,73023,1,0,0:0:0:0:
329,192,73118,1,0,0:0:0:0:
109,192,73118,1,0,0:0:0:0:
36,192,73213,1,0,0:0:0:0:
256,192,73213,1,0,0:0:0:0:
475,192,73213,128,0,73403:0:0:0:0:
402,192,73308,1,0,0:0:0:0:
329,192,73403,1,0,0:0:0:0:
182,192,73498,1,0,0:0:0:0:
109,192,73593,1,0,0:0:0:0:
329,192,73593,1,0,0:0:0:0:
256,192,73688,1,0,0:0:0:0:
109,192,73783,128,0,73972:0:0:0:0:
36,192,73783,1,0,0:0:0:0:
402,192,73783,1,0,0:0:0:0:
475,192,73877,1,0,0:0:0:0:
402,192,73972,1,0,0:0:0:0:
182,192,73972,1,0,0:0:0:0:
256,192,74067,1,0,0:0:0:0:
36,192,74162,1,0,0:0:0:0:
329,192,74162,128,0,74352:0:0:0:0:
182,192,74257,1,0,0:0:0:0:
402,192,74352,1,0,0:0:0:0:
109,192,74352,1,0,0:0:0:0:
475,192,74352,1,0,0:0:0:0:
256,192,74447,1,0,0:0:0:0:
329,192,74542,1,0,0:0:0:0:
475,192,74542,128,0,74732:0:0:0:0:
182,192,74542,1,0,0:0:0:0:
109,192,74732,1,0,0:0:0:0:
256,192,74732,1,0,0:0:0:0:
36,192,74732,1,0,0:0:0:0:
329,192,74827,1,0,0:0:0:0:
402,192,74922,1,0,0:0:0:0:
182,192,74922,1,0,0:0:0:0:
109,192,75017,1,0,0:0:0:0:
256,192,75112,1,0,0:0:0:0:
36,192,75112,1,0,0:0:0:0:
475,192,75207,1,0,0:0:0:0:
182,192,75207,1,0,0:0:0:0:
402,192,75302,1,0,0:0:0:0:
109,192,75302,1,0,0:0:0:0:
36,192,75396,1,0,0:0:0:0:
329,192,75396,1,0,0:0:0:0:
475,192,75491,1,0,0:0:0:0:
256,192,75491,1,0,0:0:0:0:
182,192,75491,128,0,75681:0:0:0:0:
402,192,75586,1,0,0:0:0:0:
109,192,75681,1,0,0:0:0:0:
36,192,75776,1,0,0:0:0:0:
402,192,75871,128,0,76061:0:0:0:0:
475,192,75871,1,0,0:0:0:0:
109,192,75966,1,0,0:0:0:0:
36,192,76061,1,0,0:0:0:0:
182,192,76061,1,0,0:0:0:0:
256,192,76061,1,0,0:0:0:0:
329,192,76156,1,0,0:0:0:0:
475,192,76251,1,0,0:0:0:0:
36,192,76251,128,0,76441:0:0:0:0:
402,192,76346,1,0,0:0:0:0:
329,192,76441,1,0,0:0:0:0:
475,192,76441,1,0,0:0:0:0:
182,192,76536,1,0,0:0:0:0:
402,192,76631,5,0,0:0:0:0:
36,192,76631,1,0,0:0:0:0:
256,192,76631,128,0,76821:0:0:0:0:
109,192,76726,1,0,0:0:0:0:
182,192,76821,1,0,0:0:0:0:
329,192,76821,1,0,0:0:0:0:
109,192,77010,1,0,0:0:0:0:
36,192,77010,1,0,0:0:0:0:
475,192,77010,128,0,77200:0:0:0:0:
182,192,77105,1,0,0:0:0:0:
402,192,77200,1,0,0:0:0:0:
256,192,77200,1,0,0:0:0:0:
329,192,77295,1,0,0:0:0:0:
36,192,77390,1,0,0:0:0:0:
256,192,77390,1,0,0:0:0:0:
182,192,77485,1,0,0:0:0:0:
329,192,77485,1,0,0:0:0:0:
402,192,77580,1,0,0:0:0:0:
109,192,77580,1,0,0:0:0:0:
475,192,77675,1,0,0:0:0:0:
36,192,77675,1,0,0:0:0:0:
182,192,77770,1,0,0:0:0:0:
329,192,77770,1,0,0:0:0:0:
402,192,77770,1,0,0:0:0:0:
109,192,77865,1,0,0:0:0:0:
329,192,77960,5,0,0:0:0:0:
475,192,77960,1,0,0:0:0:0:
36,192,78055,1,0,0:0:0:0:
475,192,78150,1,0,0:0:0:0:
109,192,78150,128,0,78340:0:0:0:0:
402,192,78150,1,0,0:0:0:0:
182,192,78245,1,0,0:0:0:0:
475,192,78340,5,0,0:0:0:0:
402,192,78340,1,0,0:0:0:0:
256,192,78434,1,0,0:0:0:0:
329,192,78529,5,0,0:0:0:0:
475,192,78529,1,0,0:0:0:0:
182,192,78529,128,0,78719:0:0:0:0:
36,192,78624,1,0,0:0:0:0:
329,192,78719,5,0,0:0:0:0:
475,192,78719,1,0,0:0:0:0:
109,192,78814,1,0,0:0:0:0:
36,192,78909,128,0,79099:0:0:0:0:
402,192,78909,1,0,0:0:0:0:
329,192,78909,1,0,0:0:0:0:
182,192,79004,1,0,0:0:0:0:
329,192,79099,5,0,0:0:0:0:
402,192,79099,1,0,0:0:0:0:
256,192,79194,1,0,0:0:0:0:
182,192,79289,5,0,0:0:0:0:
475,192,79289,1,0,0:0:0:0:
329,192,79289,128,0,79479:0:0:0:0:
109,192,79289,1,0,0:0:0:0:
402,192,79384,1,0,0:0:0:0:
182,192,79479,5,0,0:0:0:0:
109,192,79479,1,0,0:0:0:0:
475,192,79574,1,0,0:0:0:0:
36,192,79669,1,0,0:0:0:0:
402,192,79669,128,0,79859:0:0:0:0:
182,192,79669,1,0,0:0:0:0:
329,192,79764,1,0,0:0:0:0:
36,192,79859,1,0,0:0:0:0:
182,192,79859,1,0,0:0:0:0:
256,192,79953,1,0,0:0:0:0:
109,192,80048,5,0,0:0:0:0:
36,192,80048,1,0,0:0:0:0:
329,192,80048,128,0,80238:0:0:0:0:
475,192,80143,1,0,0:0:0:0:
109,192,80238,5,0,0:0:0:0:
36,192,80238,1,0,0:0:0:0:
402,192,80333,1,0,0:0:0:0:
36,192,80428,1,0,0:0:0:0:
475,192,80428,128,0,80618:0:0:0:0:
182,192,80428,1,0,0:0:0:0:
329,192,80523,1,0,0:0:0:0:
36,192,80618,1,0,0:0:0:0:
182,192,80618,1,0,0:0:0:0:
256,192,80713,1,0,0:0:0:0:
402,192,80808,5,0,0:0:0:0:
329,192,80808,1,0,0:0:0:0:
182,192,80808,1,0,0:0:0:0:
36,192,80808,128,0,80998:0:0:0:0:
109,192,80903,1,0,0:0:0:0:
402,192,80998,5,0,0:0:0:0:
329,192,80998,1,0,0:0:0:0:
256,192,81093,1,0,0:0:0:0:
475,192,81188,1,0,0:0:0:0:
109,192,81188,128,0,81377:0:0:0:0:
329,192,81188,1,0,0:0:0:0:
182,192,81283,1,0,0:0:0:0:
475,192,81377,1,0,0:0:0:0:
329,192,81377,1,0,0:0:0:0:
182,192,81472,1,0,0:0:0:0:
475,192,81567,1,0,0:0:0:0:
36,192,81567,128,0,81757:0:0:0:0:
402,192,81567,1,0,0:0:0:0:
109,192,81662,1,0,0:0:0:0:
402,192,81757,5,0,0:0:0:0:
475,192,81757,1,0,0:0:0:0:
182,192,81852,1,0,0:0:0:0:
475,192,81947,1,0,0:0:0:0:
109,192,81947,128,0,82137:0:0:0:0:
329,192,81947,1,0,0:0:0:0:
36,192,82042,1,0,0:0:0:0:
475,192,82137,1,0,0:0:0:0:
329,192,82137,1,0,0:0:0:0:
256,192,82232,1,0,0:0:0:0:
182,192,82327,5,0,0:0:0:0:
109,192,82327,1,0,0:0:0:0:
402,192,82327,1,0,0:0:0:0:
475,192,82327,128,0,82517:0:0:0:0:
329,192,82422,1,0,0:0:0:0:
182,192,82517,5,0,0:0:0:0:
109,192,82517,1,0,0:0:0:0:
402,192,82612,1,0,0:0:0:0:
182,192,82707,5,0,0:0:0:0:
36,192,82707,1,0,0:0:0:0:
256,192,82802,1,0,0:0:0:0:
402,192,82802,128,0,82991:0:0:0:0:
182,192,82896,5,0,0:0:0:0:
36,192,82896,1,0,0:0:0:0:
329,192,82991,1,0,0:0:0:0:
36,192,83086,5,0,0:0:0:0:
109,192,83086,1,0,0:0:0:0:
256,192,83086,128,0,83276:0:0:0:0:
475,192,83181,1,0,0:0:0:0:
36,192,83276,5,0,0:0:0:0:
109,192,83276,1,0,0:0:0:0:
402,192,83371,1,0,0:0:0:0:
182,192,83466,5,0,0:0:0:0:
475,192,83466,128,0,83656:0:0:0:0:
36,192,83466,1,0,0:0:0:0:
329,192,83561,1,0,0:0:0:0:
182,192,83656,5,0,0:0:0:0:
36,192,83656,1,0,0:0:0:0:
256,192,83751,1,0,0:0:0:0:
329,192,83846,5,0,0:0:0:0:
402,192,83846,1,0,0:0:0:0:
109,192,83846,1,0,0:0:0:0:
182,192,83846,128,0,84036:0:0:0:0:
36,192,83941,1,0,0:0:0:0:
329,192,84036,1,0,0:0:0:0:
402,192,84036,1,0,0:0:0:0:
109,192,84131,1,0,0:0:0:0:
475,192,84226,1,0,0:0:0:0:
329,192,84226,1,0,0:0:0:0:
256,192,84321,1,0,0:0:0:0:
109,192,84321,128,0,84510:0:0:0:0:
475,192,84415,1,0,0:0:0:0:
329,192,84415,1,0,0:0:0:0:
182,192,84510,1,0,0:0:0:0:
402,192,84605,1,0,0:0:0:0:
475,192,84605,1,0,0:0:0:0:
36,192,84605,128,0,84795:0:0:0:0:
256,192,84700,1,0,0:0:0:0:
402,192,84795,1,0,0:0:0:0:
475,192,84795,1,0,0:0:0:0:
182,192,84890,1,0,0:0:0:0:
475,192,84985,1,0,0:0:0:0:
256,192,84985,128,0,85175:0:0:0:0:
329,192,84985,1,0,0:0:0:0:
36,192,85080,1,0,0:0:0:0:
475,192,85175,1,0,0:0:0:0:
329,192,85175,1,0,0:0:0:0:
36,192,85270,1,0,0:0:0:0:
475,192,85365,1,0,0:0:0:0:
182,192,85365,1,0,0:0:0:0:
109,192,85365,1,0,0:0:0:0:
329,192,85365,128,0,85555:0:0:0:0:
402,192,85460,1,0,0:0:0:0:
182,192,85555,1,0,0:0:0:0:
109,192,85555,1,0,0:0:0:0:
475,192,85650,1,0,0:0:0:0:
36,192,85745,1,0,0:0:0:0:
402,192,85745,128,0,85934:0:0:0:0:
182,192,85745,1,0,0:0:0:0:
256,192,85840,1,0,0:0:0:0:
36,192,85934,1,0,0:0:0:0:
182,192,85934,1,0,0:0:0:0:
329,192,86029,1,0,0:0:0:0:
36,192,86124,1,0,0:0:0:0:
109,192,86124,1,0,0:0:0:0:
256,192,86124,128,0,86314:0:0:0:0:
475,192,86219,1,0,0:0:0:0:
36,192,86314,1,0,0:0:0:0:
109,192,86314,1,0,0:0:0:0:
402,192,86409,1,0,0:0:0:0:
182,192,86504,1,0,0:0:0:0:
475,192,86504,128,0,86694:0:0:0:0:
36,192,86504,1,0,0:0:0:0:
329,192,86599,1,0,0:0:0:0:
182,192,86694,1,0,0:0:0:0:
36,192,86694,1,0,0:0:0:0:
256,192,86789,1,0,0:0:0:0:
329,192,86884,1,0,0:0:0:0:
402,192,86884,1,0,0:0:0:0:
182,192,86884,1,0,0:0:0:0:
36,192,86884,128,0,87074:0:0:0:0:
109,192,86979,1,0,0:0:0:0:
402,192,87074,1,0,0:0:0:0:
329,192,87074,1,0,0:0:0:0:
182,192,87169,1,0,0:0:0:0:
329,192,87264,1,0,0:0:0:0:
256,192,87264,128,0,87453:0:0:0:0:
475,192,87264,1,0,0:0:0:0:
36,192,87359,1,0,0:0:0:0:
329,192,87453,1,0,0:0:0:0:
475,192,87453,1,0,0:0:0:0:
109,192,87548,1,0,0:0:0:0:
402,192,87643,1,0,0:0:0:0:
475,192,87643,1,0,0:0:0:0:
36,192,87643,128,0,87833:0:0:0:0:
182,192,87738,1,0,0:0:0:0:
402,192,87833,1,0,0:0:0:0:
475,192,87833,1,0,0:0:0:0:
256,192,87928,1,0,0:0:0:0:
329,192,88023,1,0,0:0:0:0:
182,192,88023,128,0,88213:0:0:0:0:
475,192,88023,1,0,0:0:0:0:
109,192,88118,1,0,0:0:0:0:
329,192,88213,1,0,0:0:0:0:
475,192,88213,1,0,0:0:0:0:
256,192,88308,1,0,0:0:0:0:
329,192,88403,1,0,0:0:0:0:
182,192,88403,1,0,0:0:0:0:
109,192,88403,1,0,0:0:0:0:
402,192,88403,128,0,88593:0:0:0:0:
36,192,88498,1,0,0:0:0:0:
109,192,88593,1,0,0:0:0:0:
182,192,88593,1,0,0:0:0:0:
329,192,88688,1,0,0:0:0:0:
36,192,88783,1,0,0:0:0:0:
256,192,88783,128,0,88972:0:0:0:0:
182,192,88783,1,0,0:0:0:0:
475,192,88877,1,0,0:0:0:0:
36,192,88972,1,0,0:0:0:0:
182,192,88972,1,0,0:0:0:0:
402,192,89067,1,0,0:0:0:0:
109,192,89162,1,0,0:0:0:0:
36,192,89162,1,0,0:0:0:0:
329,192,89162,128,0,89352:0:0:0:0:
256,192,89257,1,0,0:0:0:0:
36,192,89352,1,0,0:0:0:0:
109,192,89352,1,0,0:0:0:0:
475,192,89447,1,0,0:0:0:0:
36,192,89542,1,0,0:0:0:0:
402,192,89542,128,0,89732:0:0:0:0:
182,192,89542,1,0,0:0:0:0:
329,192,89637,1,0,0:0:0:0:
36,192,89732,1,0,0:0:0:0:
182,192,89732,1,0,0:0:0:0:
256,192,89827,1,0,0:0:0:0:
109,192,89922,1,0,0:0:0:0:
402,192,89922,1,0,0:0:0:0:
329,192,89922,1,0,0:0:0:0:
36,192,89922,128,0,90112:0:0:0:0:
182,192,90017,1,0,0:0:0:0:
329,192,90112,1,0,0:0:0:0:
402,192,90112,1,0,0:0:0:0:
109,192,90207,1,0,0:0:0:0:
329,192,90302,1,0,0:0:0:0:
182,192,90302,128,0,90491:0:0:0:0:
475,192,90302,1,0,0:0:0:0:
256,192,90396,1,0,0:0:0:0:
329,192,90491,1,0,0:0:0:0:
475,192,90491,1,0,0:0:0:0:
109,192,90586,1,0,0:0:0:0:
402,192,90681,1,0,0:0:0:0:
475,192,90681,1,0,0:0:0:0:
256,192,90681,128,0,90871:0:0:0:0:
36,192,90776,1,0,0:0:0:0:
402,192,90871,1,0,0:0:0:0:
475,192,90871,1,0,0:0:0:0:
109,192,90966,1,0,0:0:0:0:
329,192,91061,1,0,0:0:0:0:
36,192,91061,128,0,91251:0:0:0:0:
402,192,91061,1,0,0:0:0:0:
182,192,91156,1,0,0:0:0:0:
329,192,91251,1,0,0:0:0:0:
402,192,91251,1,0,0:0:0:0:
256,192,91346,1,0,0:0:0:0:
475,192,91441,1,0,0:0:0:0:
182,192,91441,1,0,0:0:0:0:
109,192,91441,1,0,0:0:0:0:
329,192,91441,128,0,91631:0:0:0:0:
402,192,91536,1,0,0:0:0:0:
109,192,91631,1,0,0:0:0:0:
182,192,91631,1,0,0:0:0:0:
475,192,91726,1,0,0:0:0:0:
36,192,91821,1,0,0:0:0:0:
402,192,91821,128,0,92010:0:0:0:0:
182,192,91821,1,0,0:0:0:0:
256,192,91915,1,0,0:0:0:0:
36,192,92010,1,0,0:0:0:0:
182,192,92010,1,0,0:0:0:0:
329,192,92105,1,0,0:0:0:0:
109,192,92200,1,0,0:0:0:0:
36,192,92200,1,0,0:0:0:0:
256,192,92200,128,0,92390:0:0:0:0:
402,192,92295,1,0,0:0:0:0:
36,192,92390,1,0,0:0:0:0:
109,192,92390,1,0,0:0:0:0:
475,192,92485,1,0,0:0:0:0:
182,192,92580,1,0,0:0:0:0:
402,192,92580,128,0,92770:0:0:0:0:
36,192,92580,1,0,0:0:0:0:
329,192,92675,1,0,0:0:0:0:
182,192,92770,1,0,0:0:0:0:
36,192,92770,1,0,0:0:0:0:
256,192,92865,1,0,0:0:0:0:
36,192,92960,1,0,0:0:0:0:
329,192,92960,1,0,0:0:0:0:
402,192,92960,1,0,0:0:0:0:
182,192,92960,128,0,93150:0:0:0:0:
109,192,93055,1,0,0:0:0:0:
329,192,93150,1,0,0:0:0:0:
402,192,93150,1,0,0:0:0:0:
36,192,93245,1,0,0:0:0:0:
475,192,93340,1,0,0:0:0:0:
109,192,93340,128,0,93529:0:0:0:0:
329,192,93340,1,0,0:0:0:0:
256,192,93434,1,0,0:0:0:0:
475,192,93529,1,0,0:0:0:0:
329,192,93529,1,0,0:0:0:0:
182,192,93624,1,0,0:0:0:0:
475,192,93719,1,0,0:0:0:0:
402,192,93719,1,0,0:0:0:0:
256,192,93719,128,0,93909:0:0:0:0:
36,192,93814,1,0,0:0:0:0:
402,192,93909,1,0,0:0:0:0:
475,192,93909,1,0,0:0:0:0:
109,192,94004,1,0,0:0:0:0:
329,192,94099,1,0,0:0:0:0:
36,192,94099,128,0,94289:0:0:0:0:
475,192,94099,1,0,0:0:0:0:
182,192,94194,1,0,0:0:0:0:
329,192,94289,1,0,0:0:0:0:
475,192,94289,1,0,0:0:0:0:
256,192,94384,1,0,0:0:0:0:
475,192,94479,1,0,0:0:0:0:
182,192,94479,1,0,0:0:0:0:
109,192,94479,1,0,0:0:0:0:
329,192,94479,128,0,94669:0:0:0:0:
402,192,94574,1,0,0:0:0:0:
109,192,94669,1,0,0:0:0:0:
182,192,94669,1,0,0:0:0:0:
475,192,94764,1,0,0:0:0:0:
182,192,94859,1,0,0:0:0:0:
402,192,94859,128,0,95048:0:0:0:0:
36,192,94859,1,0,0:0:0:0:
256,192,94953,1,0,0:0:0:0:
182,192,95048,1,0,0:0:0:0:
36,192,95048,1,0,0:0:0:0:
329,192,95143,1,0,0:0:0:0:
36,192,95238,1,0,0:0:0:0:
109,192,95238,1,0,0:0:0:0:
256,192,95238,128,0,95428:0:0:0:0:
475,192,95333,1,0,0:0:0:0:
36,192,95428,1,0,0:0:0:0:
109,192,95428,1,0,0:0:0:0:
402,192,95523,1,0,0:0:0:0:
182,192,95618,1,0,0:0:0:0:
475,192,95618,128,0,95808:0:0:0:0:
36,192,95618,1,0,0:0:0:0:
329,192,95713,1,0,0:0:0:0:
182,192,95808,1,0,0:0:0:0:
36,192,95808,1,0,0:0:0:0:
256,192,95903,1,0,0:0:0:0:
109,192,95998,1,0,0:0:0:0:
402,192,95998,1,0,0:0:0:0:
329,192,95998,1,0,0:0:0:0:
182,192,95998,128,0,96188:0:0:0:0:
36,192,96093,1,0,0:0:0:0:
329,192,96188,1,0,0:0:0:0:
402,192,96188,1,0,0:0:0:0:
109,192,96283,1,0,0:0:0:0:
329,192,96377,1,0,0:0:0:0:
36,192,96377,128,0,96567:0:0:0:0:
475,192,96377,1,0,0:0:0:0:
256,192,96472,1,0,0:0:0:0:
329,192,96567,1,0,0:0:0:0:
475,192,96567,1,0,0:0:0:0:
182,192,96662,1,0,0:0:0:0:
475,192,96757,1,0,0:0:0:0:
402,192,96757,1,0,0:0:0:0:
256,192,96757,128,0,96947:0:0:0:0:
36,192,96852,1,0,0:0:0:0:
475,192,96947,1,0,0:0:0:0:
402,192,96947,1,0,0:0:0:0:
109,192,97042,1,0,0:0:0:0:
329,192,97137,1,0,0:0:0:0:
182,192,97137,128,0,97327:0:0:0:0:
475,192,97137,1,0,0:0:0:0:
36,192,97232,1,0,0:0:0:0:
329,192,97327,1,0,0:0:0:0:
475,192,97327,1,0,0:0:0:0:
256,192,97422,1,0,0:0:0:0:
402,192,97517,1,0,0:0:0:0:
182,192,97517,1,0,0:0:0:0:
109,192,97517,1,0,0:0:0:0:
329,192,97517,128,0,97707:0:0:0:0:
475,192,97612,1,0,0:0:0:0:
109,192,97707,1,0,0:0:0:0:
182,192,97707,1,0,0:0:0:0:
402,192,97802,1,0,0:0:0:0:
36,192,97896,1,0,0:0:0:0:
256,192,97896,128,0,98086:0:0:0:0:
182,192,97896,1,0,0:0:0:0:
475,192,97991,1,0,0:0:0:0:
36,192,98086,1,0,0:0:0:0:
182,192,98086,1,0,0:0:0:0:
329,192,98181,1,0,0:0:0:0:
109,192,98276,1,0,0:0:0:0:
36,192,98276,1,0,0:0:0:0:
402,192,98276,128,0,98466:0:0:0:0:
475,192,98371,1,0,0:0:0:0:
36,192,98466,1,0,0:0:0:0:
109,192,98466,1,0,0:0:0:0:
256,192,98561,1,0,0:0:0:0:
36,192,98656,1,0,0:0:0:0:
329,192,98656,128,0,98846:0:0:0:0:
182,192,98656,1,0,0:0:0:0:
475,192,98751,1,0,0:0:0:0:
36,192,98846,1,0,0:0:0:0:
182,192,98846,1,0,0:0:0:0:
256,192,98941,1,0,0:0:0:0:
36,192,99036,1,0,0:0:0:0:
329,192,99036,1,0,0:0:0:0:
402,192,99036,1,0,0:0:0:0:
109,192,99036,128,0,99226:0:0:0:0:
182,192,99131,1,0,0:0:0:0:
329,192,99226,1,0,0:0:0:0:
402,192,99226,1,0,0:0:0:0:
256,192,99321,1,0,0:0:0:0:
475,192,99415,1,0,0:0:0:0:
182,192,99415,128,0,99605:0:0:0:0:
329,192,99415,1,0,0:0:0:0:
36,192,99510,1,0,0:0:0:0:
475,192,99605,1,0,0:0:0:0:
329,192,99605,1,0,0:0:0:0:
109,192,99700,1,0,0:0:0:0:
475,192,99795,1,0,0:0:0:0:
402,192,99795,1,0,0:0:0:0:
36,192,99795,128,0,99985:0:0:0:0:
182,192,99890,1,0,0:0:0:0:
475,192,99985,1,0,0:0:0:0:
402,192,99985,1,0,0:0:0:0:
256,192,100080,1,0,0:0:0:0:
475,192,100175,1,0,0:0:0:0:
182,192,100175,128,0,100365:0:0:0:0:
329,192,100175,1,0,0:0:0:0:
109,192,100270,1,0,0:0:0:0:
475,192,100365,1,0,0:0:0:0:
329,192,100365,1,0,0:0:0:0:
36,192,100460,1,0,0:0:0:0:
475,192,100555,1,0,0:0:0:0:
182,192,100555,1,0,0:0:0:0:
329,192,100555,1,0,0:0:0:0:
256,192,100555,1,0,0:0:0:0:
109,192,100650,1,0,0:0:0:0:
182,192,100745,1,0,0:0:0:0:
329,192,100745,1,0,0:0:0:0:
402,192,100745,1,0,0:0:0:0:
475,192,100840,1,0,0:0:0:0:
329,192,100934,1,0,0:0:0:0:
256,192,100934,1,0,0:0:0:0:
109,192,100934,1,0,0:0:0:0:
36,192,101029,1,0,0:0:0:0:
182,192,101124,1,0,0:0:0:0:
256,192,101124,1,0,0:0:0:0:
402,192,101124,1,0,0:0:0:0:
329,192,101219,1,0,0:0:0:0:
182,192,101314,1,0,0:0:0:0:
475,192,101314,1,0,0:0:0:0:
109,192,101314,1,0,0:0:0:0:
256,192,101409,1,0,0:0:0:0:
329,192,101504,1,0,0:0:0:0:
109,192,101504,1,0,0:0:0:0:
36,192,101504,1,0,0:0:0:0:
402,192,101599,1,0,0:0:0:0:
182,192,101694,1,0,0:0:0:0:
475,192,101694,1,0,0:0:0:0:
109,192,101694,1,0,0:0:0:0:
329,192,101789,1,0,0:0:0:0:
182,192,101884,1,0,0:0:0:0:
256,192,101884,1,0,0:0:0:0:
36,192,101884,1,0,0:0:0:0:
475,192,101979,1,0,0:0:0:0:
329,192,102074,1,0,0:0:0:0:
256,192,102074,1,0,0:0:0:0:
182,192,102074,1,0,0:0:0:0:
109,192,102074,128,0,102264:0:0:0:0:
402,192,102074,128,0,102264:0:0:0:0:
36,192,102264,1,0,0:0:0:0:
475,192,102264,1,0,0:0:0:0:
329,192,102359,1,0,0:0:0:0:
182,192,102453,1,0,0:0:0:0:
402,192,102453,1,0,0:0:0:0:
256,192,102548,1,0,0:0:0:0:
329,192,102643,128,0,102833:0:0:0:0:
109,192,102643,128,0,102833:0:0:0:0:
182,192,102643,1,0,0:0:0:0:
402,192,102643,1,0,0:0:0:0:
36,192,102833,128,0,103023:0:0:0:0:
256,192,102833,128,0,103023:0:0:0:0:
109,192,103023,1,0,0:0:0:0:
329,192,103023,1,0,0:0:0:0:
182,192,103118,1,0,0:0:0:0:
36,192,103213,1,0,0:0:0:0:
256,192,103213,1,0,0:0:0:0:
329,192,103308,1,0,0:0:0:0:
402,192,103403,128,0,103593:0:0:0:0:
182,192,103403,128,0,103593:0:0:0:0:
256,192,103593,128,0,103783:0:0:0:0:
475,192,103593,128,0,103783:0:0:0:0:
109,192,103593,1,0,0:0:0:0:
329,192,103593,1,0,0:0:0:0:
182,192,103783,1,0,0:0:0:0:
402,192,103783,1,0,0:0:0:0:
109,192,103877,1,0,0:0:0:0:
329,192,103972,1,0,0:0:0:0:
475,192,103972,1,0,0:0:0:0:
182,192,104067,1,0,0:0:0:0:
256,192,104162,128,0,104352:0:0:0:0:
36,192,104162,128,0,104352:0:0:0:0:
109,192,104162,1,0,0:0:0:0:
402,192,104162,1,0,0:0:0:0:
109,192,104352,128,0,104542:0:0:0:0:
329,192,104352,128,0,104542:0:0:0:0:
256,192,104542,1,0,0:0:0:0:
475,192,104542,1,0,0:0:0:0:
182,192,104637,1,0,0:0:0:0:
329,192,104732,1,0,0:0:0:0:
109,192,104732,1,0,0:0:0:0:
36,192,104827,1,0,0:0:0:0:
475,192,104922,128,0,105112:0:0:0:0:
256,192,104922,128,0,105112:0:0:0:0:
402,192,104922,1,0,0:0:0:0:
182,192,104922,1,0,0:0:0:0:
402,192,105112,128,0,105302:0:0:0:0:
109,192,105112,1,0,0:0:0:0:
329,192,105112,1,0,0:0:0:0:
182,192,105112,1,0,0:0:0:0:
256,192,105302,1,0,0:0:0:0:
182,192,105302,1,0,0:0:0:0:
109,192,105302,1,0,0:0:0:0:
475,192,105396,1,0,0:0:0:0:
36,192,105491,1,0,0:0:0:0:
182,192,105491,1,0,0:0:0:0:
329,192,105491,128,0,105681:0:0:0:0:
256,192,105586,1,0,0:0:0:0:
182,192,105681,1,0,0:0:0:0:
36,192,105681,1,0,0:0:0:0:
475,192,105776,1,0,0:0:0:0:
109,192,105871,1,0,0:0:0:0:
36,192,105871,1,0,0:0:0:0:
402,192,105871,128,0,106061:0:0:0:0:
329,192,105966,1,0,0:0:0:0:
36,192,106061,1,0,0:0:0:0:
109,192,106061,1,0,0:0:0:0:
256,192,106156,1,0,0:0:0:0:
109,192,106251,1,0,0:0:0:0:
182,192,106251,1,0,0:0:0:0:
475,192,106251,128,0,106441:0:0:0:0:
402,192,106346,1,0,0:0:0:0:
109,192,106441,1,0,0:0:0:0:
182,192,106441,1,0,0:0:0:0:
256,192,106536,1,0,0:0:0:0:
329,192,106631,1,0,0:0:0:0:
402,192,106631,1,0,0:0:0:0:
36,192,106631,128,0,106821:0:0:0:0:
182,192,106631,1,0,0:0:0:0:
109,192,106726,1,0,0:0:0:0:
329,192,106821,1,0,0:0:0:0:
402,192,106821,1,0,0:0:0:0:
256,192,106915,1,0,0:0:0:0:
475,192,107010,1,0,0:0:0:0:
329,192,107010,1,0,0:0:0:0:
109,192,107010,128,0,107200:0:0:0:0:
36,192,107105,1,0,0:0:0:0:
329,192,107200,1,0,0:0:0:0:
475,192,107200,1,0,0:0:0:0:
256,192,107295,1,0,0:0:0:0:
402,192,107390,1,0,0:0:0:0:
475,192,107390,1,0,0:0:0:0:
182,192,107390,128,0,107580:0:0:0:0:
109,192,107485,1,0,0:0:0:0:
402,192,107580,1,0,0:0:0:0:
475,192,107580,1,0,0:0:0:0:
36,192,107675,1,0,0:0:0:0:
329,192,107770,1,0,0:0:0:0:
402,192,107770,1,0,0:0:0:0:
256,192,107770,128,0,107960:0:0:0:0:
109,192,107865,1,0,0:0:0:0:
329,192,107960,1,0,0:0:0:0:
475,192,107960,1,0,0:0:0:0:
475,192,108150,1,0,0:0:0:0:
36,192,108150,1,0,0:0:0:0:
182,192,108150,1,0,0:0:0:0:
329,192,108150,1,0,0:0:0:0:
256,192,108245,1,0,0:0:0:0:
329,192,108340,1,0,0:0:0:0:
109,192,108340,1,0,0:0:0:0:
36,192,108434,1,0,0:0:0:0:
182,192,108529,1,0,0:0:0:0:
402,192,108529,1,0,0:0:0:0:
475,192,108624,1,0,0:0:0:0:
329,192,108719,128,0,108909:0:0:0:0:
109,192,108719,128,0,108909:0:0:0:0:
36,192,108719,1,0,0:0:0:0:
256,192,108719,1,0,0:0:0:0:
182,192,108909,128,0,109099:0:0:0:0:
402,192,108909,128,0,109099:0:0:0:0:
256,192,109099,1,0,0:0:0:0:
475,192,109099,1,0,0:0:0:0:
109,192,109194,1,0,0:0:0:0:
36,192,109289,1,0,0:0:0:0:
402,192,109289,1,0,0:0:0:0:
329,192,109384,1,0,0:0:0:0:
256,192,109479,128,0,109669:0:0:0:0:
475,192,109479,128,0,109669:0:0:0:0:
402,192,109669,128,0,109859:0:0:0:0:
182,192,109669,128,0,109859:0:0:0:0:
109,192,109669,1,0,0:0:0:0:
329,192,109669,1,0,0:0:0:0:
36,192,109859,1,0,0:0:0:0:
256,192,109859,1,0,0:0:0:0:
109,192,109953,1,0,0:0:0:0:
182,192,110048,1,0,0:0:0:0:
402,192,110048,1,0,0:0:0:0:
475,192,110143,1,0,0:0:0:0:
256,192,110238,128,0,110428:0:0:0:0:
36,192,110238,128,0,110428:0:0:0:0:
109,192,110238,1,0,0:0:0:0:
329,192,110238,1,0,0:0:0:0:
109,192,110428,128,0,110618:0:0:0:0:
329,192,110428,128,0,110618:0:0:0:0:
402,192,110618,1,0,0:0:0:0:
182,192,110618,1,0,0:0:0:0:
329,192,110808,1,0,0:0:0:0:
475,192,110808,1,0,0:0:0:0:
109,192,110808,1,0,0:0:0:0:
36,192,110808,1,0,0:0:0:0:
36,192,110998,1,0,0:0:0:0:
182,192,110998,1,0,0:0:0:0:
402,192,110998,1,0,0:0:0:0:
475,192,110998,1,0,0:0:0:0:
329,192,111188,1,0,0:0:0:0:
402,192,111188,1,0,0:0:0:0:
109,192,111188,1,0,0:0:0:0:
182,192,111188,128,0,111377:0:0:0:0:
36,192,111283,1,0,0:0:0:0:
329,192,111377,1,0,0:0:0:0:
402,192,111377,1,0,0:0:0:0:
256,192,111472,1,0,0:0:0:0:
329,192,111567,1,0,0:0:0:0:
475,192,111567,1,0,0:0:0:0:
109,192,111567,128,0,111757:0:0:0:0:
182,192,111662,1,0,0:0:0:0:
329,192,111757,1,0,0:0:0:0:
475,192,111757,1,0,0:0:0:0:
256,192,111852,1,0,0:0:0:0:
402,192,111947,1,0,0:0:0:0:
475,192,111947,1,0,0:0:0:0:
36,192,111947,128,0,112137:0:0:0:0:
109,192,112042,1,0,0:0:0:0:
402,192,112137,1,0,0:0:0:0:
475,192,112137,1,0,0:0:0:0:
256,192,112232,1,0,0:0:0:0:
329,192,112327,1,0,0:0:0:0:
402,192,112327,1,0,0:0:0:0:
182,192,112327,128,0,112517:0:0:0:0:
109,192,112422,1,0,0:0:0:0:
329,192,112517,1,0,0:0:0:0:
402,192,112517,1,0,0:0:0:0:
36,192,112612,1,0,0:0:0:0:
329,192,112707,1,0,0:0:0:0:
109,192,112707,1,0,0:0:0:0:
182,192,112707,1,0,0:0:0:0:
475,192,112707,128,0,112896:0:0:0:0:
256,192,112802,1,0,0:0:0:0:
109,192,112896,1,0,0:0:0:0:
182,192,112896,1,0,0:0:0:0:
329,192,112991,1,0,0:0:0:0:
36,192,113086,1,0,0:0:0:0:
182,192,113086,1,0,0:0:0:0:
402,192,113086,128,0,113276:0:0:0:0:
475,192,113181,1,0,0:0:0:0:
36,192,113276,1,0,0:0:0:0:
182,192,113276,1,0,0:0:0:0:
256,192,113371,1,0,0:0:0:0:
36,192,113466,1,0,0:0:0:0:
109,192,113466,1,0,0:0:0:0:
329,192,113466,128,0,113656:0:0:0:0:
402,192,113561,1,0,0:0:0:0:
36,192,113656,1,0,0:0:0:0:
109,192,113656,1,0,0:0:0:0:
475,192,113751,1,0,0:0:0:0:
36,192,113846,1,0,0:0:0:0:
182,192,113846,1,0,0:0:0:0:
256,192,113846,128,0,114036:0:0:0:0:
329,192,113941,1,0,0:0:0:0:
36,192,114036,1,0,0:0:0:0:
182,192,114036,1,0,0:0:0:0:
402,192,114131,1,0,0:0:0:0:
475,192,114226,1,0,0:0:0:0:
109,192,114226,1,0,0:0:0:0:
182,192,114226,1,0,0:0:0:0:
329,192,114226,1,0,0:0:0:0:
256,192,114321,1,0,0:0:0:0:
329,192,114415,1,0,0:0:0:0:
36,192,114415,1,0,0:0:0:0:
182,192,114510,1,0,0:0:0:0:
109,192,114605,1,0,0:0:0:0:
256,192,114605,1,0,0:0:0:0:
329,192,114700,1,0,0:0:0:0:
256,192,114795,128,0,114985:0:0:0:0:
36,192,114795,128,0,114985:0:0:0:0:
182,192,114795,1,0,0:0:0:0:
402,192,114795,1,0,0:0:0:0:
109,192,114985,128,0,115175:0:0:0:0:
329,192,114985,128,0,115175:0:0:0:0:
182,192,115175,1,0,0:0:0:0:
402,192,115175,1,0,0:0:0:0:
256,192,115270,1,0,0:0:0:0:
475,192,115365,1,0,0:0:0:0:
329,192,115365,1,0,0:0:0:0:
36,192,115460,1,0,0:0:0:0:
182,192,115555,128,0,115745:0:0:0:0:
402,192,115555,128,0,115745:0:0:0:0:
256,192,115745,128,0,115934:0:0:0:0:
475,192,115745,128,0,115934:0:0:0:0:
329,192,115745,1,0,0:0:0:0:
109,192,115745,1,0,0:0:0:0:
402,192,115934,1,0,0:0:0:0:
182,192,115934,1,0,0:0:0:0:
109,192,116029,1,0,0:0:0:0:
36,192,116124,1,0,0:0:0:0:
256,192,116124,1,0,0:0:0:0:
329,192,116219,1,0,0:0:0:0:
402,192,116314,128,0,116504:0:0:0:0:
182,192,116314,128,0,116504:0:0:0:0:
475,192,116314,1,0,0:0:0:0:
109,192,116314,1,0,0:0:0:0:
109,192,116504,128,0,116694:0:0:0:0:
329,192,116504,128,0,116694:0:0:0:0:
182,192,116694,1,0,0:0:0:0:
402,192,116694,1,0,0:0:0:0:
256,192,116789,1,0,0:0:0:0:
475,192,116884,1,0,0:0:0:0:
329,192,116884,1,0,0:0:0:0:
36,192,116884,1,0,0:0:0:0:
182,192,116884,1,0,0:0:0:0:
109,192,117074,1,0,0:0:0:0:
36,192,117074,1,0,0:0:0:0:
402,192,117074,1,0,0:0:0:0:
475,192,117074,1,0,0:0:0:0:
329,192,117264,1,0,0:0:0:0:
402,192,117264,1,0,0:0:0:0:
182,192,117264,1,0,0:0:0:0:
109,192,117264,1,0,0:0:0:0:
36,192,117359,1,0,0:0:0:0:
256,192,117453,1,0,0:0:0:0:
475,192,117453,1,0,0:0:0:0:
182,192,117548,1,0,0:0:0:0:
329,192,117643,1,0,0:0:0:0:
109,192,117643,1,0,0:0:0:0:
475,192,117738,1,0,0:0:0:0:
182,192,117833,128,0,118023:0:0:0:0:
402,192,117833,128,0,118023:0:0:0:0:
256,192,117833,1,0,0:0:0:0:
36,192,117833,1,0,0:0:0:0:
329,192,118023,128,0,118213:0:0:0:0:
109,192,118023,128,0,118213:0:0:0:0:
256,192,118213,1,0,0:0:0:0:
475,192,118213,1,0,0:0:0:0:
182,192,118308,1,0,0:0:0:0:
36,192,118403,1,0,0:0:0:0:
329,192,118403,1,0,0:0:0:0:
109,192,118498,1,0,0:0:0:0:
256,192,118593,128,0,118783:0:0:0:0:
475,192,118593,128,0,118783:0:0:0:0:
402,192,118593,1,0,0:0:0:0:
182,192,118593,1,0,0:0:0:0:
182,192,118783,128,0,118972:0:0:0:0:
402,192,118783,128,0,118972:0:0:0:0:
329,192,118972,1,0,0:0:0:0:
36,192,118972,1,0,0:0:0:0:
109,192,119067,1,0,0:0:0:0:
402,192,119162,1,0,0:0:0:0:
182,192,119162,1,0,0:0:0:0:
475,192,119257,1,0,0:0:0:0:
109,192,119352,128,0,119542:0:0:0:0:
329,192,119352,128,0,119542:0:0:0:0:
36,192,119352,1,0,0:0:0:0:
256,192,119352,1,0,0:0:0:0:
402,192,119542,128,0,119732:0:0:0:0:
182,192,119542,128,0,119732:0:0:0:0:
256,192,119732,1,0,0:0:0:0:
475,192,119732,1,0,0:0:0:0:
329,192,119827,1,0,0:0:0:0:
402,192,119922,1,0,0:0:0:0:
475,192,119922,1,0,0:0:0:0:
182,192,119922,1,0,0:0:0:0:
36,192,119922,1,0,0:0:0:0:
109,192,120112,1,0,0:0:0:0:
182,192,120112,1,0,0:0:0:0:
329,192,120112,1,0,0:0:0:0:
475,192,120112,1,0,0:0:0:0:
36,192,120302,1,0,0:0:0:0:
109,192,120302,1,0,0:0:0:0:
329,192,120302,1,0,0:0:0:0:
402,192,120302,1,0,0:0:0:0:
256,192,120396,1,0,0:0:0:0:
182,192,120491,1,0,0:0:0:0:
475,192,120491,1,0,0:0:0:0:
36,192,120586,1,0,0:0:0:0:
109,192,120681,1,0,0:0:0:0:
329,192,120681,1,0,0:0:0:0:
182,192,120776,1,0,0:0:0:0:
256,192,120871,128,0,121061:0:0:0:0:
475,192,120871,128,0,121061:0:0:0:0:
402,192,120871,1,0,0:0:0:0:
36,192,120871,1,0,0:0:0:0:
402,192,121061,128,0,121251:0:0:0:0:
182,192,121061,128,0,121251:0:0:0:0:
329,192,121251,1,0,0:0:0:0:
109,192,121251,1,0,0:0:0:0:
36,192,121346,1,0,0:0:0:0:
256,192,121441,1,0,0:0:0:0:
402,192,121441,1,0,0:0:0:0:
182,192,121536,1,0,0:0:0:0:
109,192,121631,128,0,121821:0:0:0:0:
329,192,121631,128,0,121821:0:0:0:0:
36,192,121821,128,0,122010:0:0:0:0:
256,192,121821,128,0,122010:0:0:0:0:
182,192,121821,1,0,0:0:0:0:
402,192,121821,1,0,0:0:0:0:
109,192,122010,1,0,0:0:0:0:
329,192,122010,1,0,0:0:0:0:
402,192,122105,1,0,0:0:0:0:
475,192,122200,1,0,0:0:0:0:
182,192,122200,1,0,0:0:0:0:
256,192,122295,1,0,0:0:0:0:
109,192,122390,128,0,122580:0:0:0:0:
329,192,122390,128,0,122580:0:0:0:0:
36,192,122390,1,0,0:0:0:0:
402,192,122390,1,0,0:0:0:0:
402,192,122580,128,0,122770:0:0:0:0:
182,192,122580,128,0,122770:0:0:0:0:
329,192,122770,1,0,0:0:0:0:
109,192,122770,1,0,0:0:0:0:
256,192,122865,1,0,0:0:0:0:
36,192,122960,1,0,0:0:0:0:
182,192,122960,1,0,0:0:0:0:
475,192,122960,1,0,0:0:0:0:
329,192,122960,1,0,0:0:0:0:
402,192,123150,1,0,0:0:0:0:
475,192,123150,1,0,0:0:0:0:
36,192,123150,1,0,0:0:0:0:
109,192,123150,1,0,0:0:0:0:
109,192,123340,1,0,0:0:0:0:
402,192,123340,1,0,0:0:0:0:
329,192,123340,1,0,0:0:0:0:
182,192,123340,128,0,123529:0:0:0:0:
36,192,123434,1,0,0:0:0:0:
329,192,123529,1,0,0:0:0:0:
402,192,123529,1,0,0:0:0:0:
256,192,123624,1,0,0:0:0:0:
329,192,123719,1,0,0:0:0:0:
475,192,123719,1,0,0:0:0:0:
109,192,123719,128,0,123909:0:0:0:0:
36,192,123814,1,0,0:0:0:0:
329,192,123909,1,0,0:0:0:0:
475,192,123909,1,0,0:0:0:0:
182,192,124004,1,0,0:0:0:0:
402,192,124099,1,0,0:0:0:0:
475,192,124099,1,0,0:0:0:0:
36,192,124099,128,0,124289:0:0:0:0:
109,192,124194,1,0,0:0:0:0:
402,192,124289,1,0,0:0:0:0:
475,192,124289,1,0,0:0:0:0:
256,192,124384,1,0,0:0:0:0:
329,192,124479,1,0,0:0:0:0:
402,192,124479,1,0,0:0:0:0:
182,192,124479,128,0,124669:0:0:0:0:
109,192,124574,1,0,0:0:0:0:
329,192,124669,1,0,0:0:0:0:
402,192,124669,1,0,0:0:0:0:
329,192,124859,1,0,0:0:0:0:
109,192,124859,1,0,0:0:0:0:
36,192,124859,1,0,0:0:0:0:
475,192,124859,128,0,125048:0:0:0:0:
256,192,124953,1,0,0:0:0:0:
36,192,125048,1,0,0:0:0:0:
109,192,125048,1,0,0:0:0:0:
329,192,125143,1,0,0:0:0:0:
36,192,125238,1,0,0:0:0:0:
182,192,125238,1,0,0:0:0:0:
402,192,125238,128,0,125428:0:0:0:0:
475,192,125333,1,0,0:0:0:0:
36,192,125428,1,0,0:0:0:0:
182,192,125428,1,0,0:0:0:0:
256,192,125523,1,0,0:0:0:0:
109,192,125618,1,0,0:0:0:0:
182,192,125618,1,0,0:0:0:0:
329,192,125618,128,0,125808:0:0:0:0:
402,192,125713,1,0,0:0:0:0:
109,192,125808,1,0,0:0:0:0:
182,192,125808,1,0,0:0:0:0:
36,192,125998,1,0,0:0:0:0:
475,192,125998,1,0,0:0:0:0:
402,192,125998,1,0,0:0:0:0:
256,192,125998,1,0,0:0:0:0:
402,192,126188,1,0,0:0:0:0:
109,192,126188,1,0,0:0:0:0:
182,192,126188,1,0,0:0:0:0:
329,192,126188,1,0,0:0:0:0:
109,192,126377,1,0,0:0:0:0:
402,192,126377,1,0,0:0:0:0:
36,192,126377,1,0,0:0:0:0:
475,192,126377,1,0,0:0:0:0:
256,192,126472,1,0,0:0:0:0:
329,192,126567,1,0,0:0:0:0:
182,192,126567,1,0,0:0:0:0:
109,192,126662,1,0,0:0:0:0:
256,192,126757,1,0,0:0:0:0:
36,192,126757,1,0,0:0:0:0:
475,192,126852,1,0,0:0:0:0:
109,192,126947,128,0,127137:0:0:0:0:
329,192,126947,128,0,127137:0:0:0:0:
182,192,126947,1,0,0:0:0:0:
402,192,126947,1,0,0:0:0:0:
36,192,127137,128,0,127327:0:0:0:0:
256,192,127137,128,0,127327:0:0:0:0:
109,192,127327,1,0,0:0:0:0:
329,192,127327,1,0,0:0:0:0:
402,192,127422,1,0,0:0:0:0:
475,192,127517,1,0,0:0:0:0:
182,192,127517,1,0,0:0:0:0:
256,192,127612,1,0,0:0:0:0:
402,192,127707,128,0,127896:0:0:0:0:
182,192,127707,128,0,127896:0:0:0:0:
109,192,127896,128,0,128086:0:0:0:0:
329,192,127896,128,0,128086:0:0:0:0:
36,192,127896,1,0,0:0:0:0:
475,192,127896,1,0,0:0:0:0:
182,192,128086,1,0,0:0:0:0:
402,192,128086,1,0,0:0:0:0:
36,192,128181,1,0,0:0:0:0:
475,192,128276,1,0,0:0:0:0:
109,192,128276,1,0,0:0:0:0:
402,192,128371,1,0,0:0:0:0:
36,192,128466,128,0,128656:0:0:0:0:
256,192,128466,128,0,128656:0:0:0:0:
182,192,128466,1,0,0:0:0:0:
329,192,128466,1,0,0:0:0:0:
109,192,128656,128,0,128846:0:0:0:0:
329,192,128656,128,0,128846:0:0:0:0:
182,192,128846,1,0,0:0:0:0:
402,192,128846,1,0,0:0:0:0:
256,192,128941,1,0,0:0:0:0:
475,192,129036,1,0,0:0:0:0:
36,192,129036,1,0,0:0:0:0:
109,192,129131,1,0,0:0:0:0:
182,192,129226,128,0,129415:0:0:0:0:
402,192,129226,128,0,129415:0:0:0:0:
329,192,129226,1,0,0:0:0:0:
36,192,129226,1,0,0:0:0:0:
256,192,129415,128,0,129605:0:0:0:0:
475,192,129415,128,0,129605:0:0:0:0:
329,192,129605,1,0,0:0:0:0:
36,192,129605,1,0,0:0:0:0:
182,192,129700,1,0,0:0:0:0:
402,192,129795,1,0,0:0:0:0:
109,192,129795,1,0,0:0:0:0:
36,192,129890,1,0,0:0:0:0:
256,192,129985,128,0,130175:0:0:0:0:
475,192,129985,128,0,130175:0:0:0:0:
182,192,129985,1,0,0:0:0:0:
329,192,129985,1,0,0:0:0:0:
402,192,130175,128,0,130365:0:0:0:0:
182,192,130175,128,0,130365:0:0:0:0:
36,192,130365,1,0,0:0:0:0:
329,192,130365,1,0,0:0:0:0:
256,192,130460,1,0,0:0:0:0:
109,192,130555,1,0,0:0:0:0:
402,192,130555,1,0,0:0:0:0:
475,192,130650,1,0,0:0:0:0:
329,192,130745,128,0,130934:0:0:0:0:
109,192,130745,128,0,130934:0:0:0:0:
36,192,130934,128,0,131124:0:0:0:0:
256,192,130934,128,0,131124:0:0:0:0:
182,192,130934,1,0,0:0:0:0:
402,192,130934,1,0,0:0:0:0:
402,192,131124,1,0,0:0:0:0:
182,192,131124,1,0,0:0:0:0:
109,192,131219,1,0,0:0:0:0:
475,192,131219,1,0,0:0:0:0:
329,192,131314,1,0,0:0:0:0:
402,192,131314,1,0,0:0:0:0:
182,192,131314,1,0,0:0:0:0:
475,192,131409,1,0,0:0:0:0:
329,192,131504,1,0,0:0:0:0:
109,192,131504,1,0,0:0:0:0:
256,192,131504,1,0,0:0:0:0:
36,192,131599,1,0,0:0:0:0:
402,192,131694,1,0,0:0:0:0:
182,192,131694,1,0,0:0:0:0:
256,192,131694,1,0,0:0:0:0:
329,192,131789,1,0,0:0:0:0:
475,192,131884,1,0,0:0:0:0:
182,192,131884,1,0,0:0:0:0:
109,192,131884,1,0,0:0:0:0:
256,192,131979,1,0,0:0:0:0:
329,192,132074,1,0,0:0:0:0:
109,192,132074,1,0,0:0:0:0:
36,192,132074,1,0,0:0:0:0:
402,192,132169,1,0,0:0:0:0:
182,192,132264,1,0,0:0:0:0:
109,192,132264,1,0,0:0:0:0:
475,192,132264,1,0,0:0:0:0:
329,192,132359,1,0,0:0:0:0:
182,192,132453,1,0,0:0:0:0:
36,192,132453,1,0,0:0:0:0:
402,192,132453,1,0,0:0:0:0:
256,192,132453,1,0,0:0:0:0:
475,192,132548,1,0,0:0:0:0:
109,192,132643,1,0,0:0:0:0:
329,192,132643,128,0,132833:0:0:0:0:
36,192,132738,1,0,0:0:0:0:
402,192,132833,1,0,0:0:0:0:
182,192,132833,128,0,133023:0:0:0:0:
475,192,132928,1,0,0:0:0:0:
329,192,133023,1,0,0:0:0:0:
109,192,133023,1,0,0:0:0:0:
256,192,133023,1,0,0:0:0:0:
36,192,133023,128,0,133213:0:0:0:0:
402,192,133118,1,0,0:0:0:0:
182,192,133213,1,0,0:0:0:0:
475,192,133213,128,0,133403:0:0:0:0:
109,192,133308,1,0,0:0:0:0:
36,192,133403,1,0,0:0:0:0:
329,192,133403,128,0,133593:0:0:0:0:
256,192,133498,1,0,0:0:0:0:
109,192,133593,1,0,0:0:0:0:
182,192,133593,128,0,133783:0:0:0:0:
36,192,133593,1,0,0:0:0:0:
402,192,133688,1,0,0:0:0:0:
475,192,133783,1,0,0:0:0:0:
256,192,133783,128,0,133972:0:0:0:0:
109,192,133877,1,0,0:0:0:0:
329,192,133972,1,0,0:0:0:0:
36,192,133972,128,0,134162:0:0:0:0:
182,192,133972,1,0,0:0:0:0:
402,192,134067,1,0,0:0:0:0:
475,192,134162,128,0,134352:0:0:0:0:
182,192,134162,1,0,0:0:0:0:
329,192,134257,1,0,0:0:0:0:
109,192,134352,128,0,134542:0:0:0:0:
256,192,134352,1,0,0:0:0:0:
36,192,134352,1,0,0:0:0:0:
402,192,134352,1,0,0:0:0:0:
182,192,134447,1,0,0:0:0:0:
475,192,134542,1,0,0:0:0:0:
402,192,134542,128,0,134732:0:0:0:0:
36,192,134637,1,0,0:0:0:0:
182,192,134732,128,0,134922:0:0:0:0:
256,192,134732,1,0,0:0:0:0:
109,192,134732,1,0,0:0:0:0:
475,192,134732,1,0,0:0:0:0:
329,192,134827,1,0,0:0:0:0:
36,192,134922,128,0,135112:0:0:0:0:
402,192,134922,1,0,0:0:0:0:
475,192,135017,1,0,0:0:0:0:
109,192,135112,1,0,0:0:0:0:
329,192,135112,128,0,135302:0:0:0:0:
182,192,135207,1,0,0:0:0:0:
256,192,135302,1,0,0:0:0:0:
36,192,135302,1,0,0:0:0:0:
475,192,135302,128,0,135491:0:0:0:0:
109,192,135396,1,0,0:0:0:0:
182,192,135491,128,0,135681:0:0:0:0:
402,192,135491,1,0,0:0:0:0:
329,192,135586,1,0,0:0:0:0:
109,192,135681,1,0,0:0:0:0:
256,192,135681,128,0,135871:0:0:0:0:
36,192,135776,1,0,0:0:0:0:
182,192,135871,1,0,0:0:0:0:
475,192,135871,1,0,0:0:0:0:
329,192,135871,128,0,136061:0:0:0:0:
36,192,135966,1,0,0:0:0:0:
402,192,136061,1,0,0:0:0:0:
109,192,136061,128,0,136251:0:0:0:0:
475,192,136156,1,0,0:0:0:0:
36,192,136251,1,0,0:0:0:0:
182,192,136251,1,0,0:0:0:0:
256,192,136251,128,0,136441:0:0:0:0:
402,192,136346,1,0,0:0:0:0:
109,192,136441,1,0,0:0:0:0:
475,192,136441,128,0,136631:0:0:0:0:
36,192,136536,1,0,0:0:0:0:
182,192,136631,1,0,0:0:0:0:
329,192,136631,1,0,0:0:0:0:
402,192,136631,128,0,136821:0:0:0:0:
256,192,136726,1,0,0:0:0:0:
475,192,136821,1,0,0:0:0:0:
109,192,136821,128,0,137010:0:0:0:0:
36,192,136915,1,0,0:0:0:0:
329,192,137010,1,0,0:0:0:0:
182,192,137010,128,0,137200:0:0:0:0:
256,192,137010,1,0,0:0:0:0:
402,192,137010,1,0,0:0:0:0:
36,192,137105,1,0,0:0:0:0:
109,192,137200,1,0,0:0:0:0:
475,192,137200,128,0,137390:0:0:0:0:
402,192,137295,1,0,0:0:0:0:
329,192,137390,128,0,137580:0:0:0:0:
182,192,137390,1,0,0:0:0:0:
256,192,137485,1,0,0:0:0:0:
475,192,137580,1,0,0:0:0:0:
109,192,137580,1,0,0:0:0:0:
36,192,137580,128,0,137770:0:0:0:0:
402,192,137675,1,0,0:0:0:0:
329,192,137770,1,0,0:0:0:0:
182,192,137770,128,0,137960:0:0:0:0:
256,192,137865,1,0,0:0:0:0:
109,192,137960,1,0,0:0:0:0:
402,192,137960,128,0,138150:0:0:0:0:
329,192,138055,1,0,0:0:0:0:
475,192,138150,1,0,0:0:0:0:
36,192,138150,1,0,0:0:0:0:
256,192,138150,128,0,138340:0:0:0:0:
182,192,138245,1,0,0:0:0:0:
402,192,138340,1,0,0:0:0:0:
109,192,138340,128,0,138529:0:0:0:0:
329,192,138434,1,0,0:0:0:0:
36,192,138529,1,0,0:0:0:0:
475,192,138529,128,0,138719:0:0:0:0:
182,192,138529,1,0,0:0:0:0:
256,192,138624,1,0,0:0:0:0:
402,192,138719,1,0,0:0:0:0:
182,192,138719,128,0,138909:0:0:0:0:
329,192,138814,1,0,0:0:0:0:
109,192,138909,1,0,0:0:0:0:
36,192,138909,128,0,139099:0:0:0:0:
256,192,138909,1,0,0:0:0:0:
329,192,139004,1,0,0:0:0:0:
475,192,139099,128,0,139289:0:0:0:0:
402,192,139099,1,0,0:0:0:0:
182,192,139194,1,0,0:0:0:0:
109,192,139289,1,0,0:0:0:0:
329,192,139289,1,0,0:0:0:0:
36,192,139289,1,0,0:0:0:0:
256,192,139289,128,0,139479:0:0:0:0:
402,192,139384,1,0,0:0:0:0:
475,192,139479,1,0,0:0:0:0:
182,192,139479,128,0,139669:0:0:0:0:
109,192,139574,1,0,0:0:0:0:
329,192,139669,1,0,0:0:0:0:
36,192,139669,128,0,139859:0:0:0:0:
256,192,139764,1,0,0:0:0:0:
182,192,139859,1,0,0:0:0:0:
109,192,139859,1,0,0:0:0:0:
475,192,139859,128,0,140048:0:0:0:0:
329,192,139953,1,0,0:0:0:0:
36,192,140048,1,0,0:0:0:0:
402,192,140048,128,0,140238:0:0:0:0:
109,192,140143,1,0,0:0:0:0:
256,192,140238,128,0,140428:0:0:0:0:
182,192,140238,1,0,0:0:0:0:
475,192,140428,1,0,0:0:0:0:
329,192,140428,1,0,0:0:0:0:
109,192,140428,128,0,140618:0:0:0:0:
182,192,140523,1,0,0:0:0:0:
36,192,140618,1,0,0:0:0:0:
402,192,140618,1,0,0:0:0:0:
256,192,140713,1,0,0:0:0:0:
182,192,140808,1,0,0:0:0:0:
329,192,140808,128,0,140998:0:0:0:0:
475,192,140808,1,0,0:0:0:0:
109,192,140903,1,0,0:0:0:0:
402,192,140998,1,0,0:0:0:0:
36,192,140998,128,0,141188:0:0:0:0:
182,192,141093,1,0,0:0:0:0:
256,192,141188,1,0,0:0:0:0:
475,192,141188,128,0,141377:0:0:0:0:
109,192,141188,1,0,0:0:0:0:
402,192,141283,1,0,0:0:0:0:
182,192,141377,1,0,0:0:0:0:
329,192,141377,128,0,141567:0:0:0:0:
109,192,141472,1,0,0:0:0:0:
36,192,141567,1,0,0:0:0:0:
402,192,141567,1,0,0:0:0:0:
475,192,141567,1,0,0:0:0:0:
256,192,141567,128,0,141757:0:0:0:0:
182,192,141662,1,0,0:0:0:0:
329,192,141757,1,0,0:0:0:0:
109,192,141757,128,0,141947:0:0:0:0:
402,192,141852,1,0,0:0:0:0:
182,192,141947,1,0,0:0:0:0:
475,192,141947,128,0,142137:0:0:0:0:
36,192,142042,1,0,0:0:0:0:
402,192,142137,1,0,0:0:0:0:
329,192,142137,128,0,142327:0:0:0:0:
109,192,142137,1,0,0:0:0:0:
256,192,142232,1,0,0:0:0:0:
182,192,142327,1,0,0:0:0:0:
36,192,142327,1,0,0:0:0:0:
402,192,142422,1,0,0:0:0:0:
256,192,142517,128,0,142707:0:0:0:0:
475,192,142517,1,0,0:0:0:0:
109,192,142612,1,0,0:0:0:0:
329,192,142707,1,0,0:0:0:0:
402,192,142707,1,0,0:0:0:0:
36,192,142707,128,0,142896:0:0:0:0:
182,192,142802,1,0,0:0:0:0:
109,192,142896,1,0,0:0:0:0:
475,192,142896,128,0,143086:0:0:0:0:
402,192,142991,1,0,0:0:0:0:
36,192,143086,1,0,0:0:0:0:
182,192,143086,128,0,143276:0:0:0:0:
329,192,143086,1,0,0:0:0:0:
109,192,143181,1,0,0:0:0:0:
256,192,143276,1,0,0:0:0:0:
402,192,143276,1,0,0:0:0:0:
475,192,143371,1,0,0:0:0:0:
329,192,143466,1,0,0:0:0:0:
36,192,143466,1,0,0:0:0:0:
109,192,143466,128,0,143656:0:0:0:0:
256,192,143561,1,0,0:0:0:0:
182,192,143656,1,0,0:0:0:0:
475,192,143656,1,0,0:0:0:0:
329,192,143751,1,0,0:0:0:0:
36,192,143846,1,0,0:0:0:0:
109,192,143846,1,0,0:0:0:0:
402,192,143846,1,0,0:0:0:0:
256,192,143846,128,0,144036:0:0:0:0:
475,192,143941,1,0,0:0:0:0:
329,192,144036,1,0,0:0:0:0:
182,192,144036,128,0,144226:0:0:0:0:
36,192,144131,1,0,0:0:0:0:
109,192,144226,1,0,0:0:0:0:
402,192,144226,128,0,144415:0:0:0:0:
475,192,144321,1,0,0:0:0:0:
182,192,144415,1,0,0:0:0:0:
329,192,144415,1,0,0:0:0:0:
36,192,144415,128,0,144605:0:0:0:0:
256,192,144510,1,0,0:0:0:0:
109,192,144605,1,0,0:0:0:0:
475,192,144605,128,0,144795:0:0:0:0:
329,192,144700,1,0,0:0:0:0:
182,192,144795,1,0,0:0:0:0:
402,192,144795,128,0,144985:0:0:0:0:
109,192,144890,1,0,0:0:0:0:
36,192,144985,1,0,0:0:0:0:
329,192,144985,1,0,0:0:0:0:
256,192,144985,128,0,145175:0:0:0:0:
182,192,145080,1,0,0:0:0:0:
402,192,145175,1,0,0:0:0:0:
475,192,145175,1,0,0:0:0:0:
109,192,145270,1,0,0:0:0:0:
182,192,145365,1,0,0:0:0:0:
329,192,145365,1,0,0:0:0:0:
36,192,145365,128,0,145555:0:0:0:0:
402,192,145460,1,0,0:0:0:0:
256,192,145555,1,0,0:0:0:0:
475,192,145555,1,0,0:0:0:0:
182,192,145650,1,0,0:0:0:0:
109,192,145745,1,0,0:0:0:0:
402,192,145745,1,0,0:0:0:0:
329,192,145745,128,0,145934:0:0:0:0:
256,192,145840,1,0,0:0:0:0:
475,192,145934,1,0,0:0:0:0:
36,192,145934,128,0,146124:0:0:0:0:
182,192,146029,1,0,0:0:0:0:
109,192,146124,1,0,0:0:0:0:
402,192,146124,1,0,0:0:0:0:
475,192,146124,1,0,0:0:0:0:
256,192,146124,128,0,146314:0:0:0:0:
329,192,146219,1,0,0:0:0:0:
36,192,146314,1,0,0:0:0:0:
182,192,146314,128,0,146504:0:0:0:0:
402,192,146409,1,0,0:0:0:0:
109,192,146504,1,0,0:0:0:0:
475,192,146504,128,0,146694:0:0:0:0:
329,192,146599,1,0,0:0:0:0:
402,192,146694,1,0,0:0:0:0:
256,192,146694,1,0,0:0:0:0:
36,192,146694,128,0,146884:0:0:0:0:
109,192,146789,1,0,0:0:0:0:
182,192,146884,1,0,0:0:0:0:
329,192,146884,128,0,147074:0:0:0:0:
402,192,146979,1,0,0:0:0:0:
475,192,147074,1,0,0:0:0:0:
256,192,147074,128,0,147264:0:0:0:0:
109,192,147169,1,0,0:0:0:0:
182,192,147264,1,0,0:0:0:0:
402,192,147264,1,0,0:0:0:0:
36,192,147264,128,0,147453:0:0:0:0:
329,192,147359,1,0,0:0:0:0:
109,192,147453,1,0,0:0:0:0:
475,192,147453,128,0,147643:0:0:0:0:
182,192,147548,1,0,0:0:0:0:
36,192,147643,1,0,0:0:0:0:
402,192,147643,1,0,0:0:0:0:
256,192,147643,128,0,147833:0:0:0:0:
109,192,147738,1,0,0:0:0:0:
475,192,147833,1,0,0:0:0:0:
329,192,147833,128,0,148023:0:0:0:0:
182,192,147928,1,0,0:0:0:0:
402,192,148023,1,0,0:0:0:0:
109,192,148023,1,0,0:0:0:0:
36,192,148023,128,0,148213:0:0:0:0:
475,192,148118,1,0,0:0:0:0:
329,192,148213,1,0,0:0:0:0:
182,192,148213,128,0,148403:0:0:0:0:
256,192,148308,1,0,0:0:0:0:
109,192,148403,1,0,0:0:0:0:
475,192,148403,1,0,0:0:0:0:
36,192,148403,1,0,0:0:0:0:
402,192,148403,128,0,148593:0:0:0:0:
329,192,148498,1,0,0:0:0:0:
182,192,148593,1,0,0:0:0:0:
256,192,148593,128,0,148783:0:0:0:0:
36,192,148688,1,0,0:0:0:0:
475,192,148783,1,0,0:0:0:0:
109,192,148783,128,0,148972:0:0:0:0:
402,192,148877,1,0,0:0:0:0:
182,192,148972,1,0,0:0:0:0:
36,192,148972,1,0,0:0:0:0:
329,192,148972,128,0,149162:0:0:0:0:
256,192,149067,1,0,0:0:0:0:
402,192,149162,1,0,0:0:0:0:
475,192,149162,128,0,149352:0:0:0:0:
109,192,149257,1,0,0:0:0:0:
182,192,149352,1,0,0:0:0:0:
36,192,149352,128,0,149542:0:0:0:0:
256,192,149447,1,0,0:0:0:0:
475,192,149542,1,0,0:0:0:0:
109,192,149542,1,0,0:0:0:0:
329,192,149542,128,0,149732:0:0:0:0:
402,192,149637,1,0,0:0:0:0:
36,192,149732,1,0,0:0:0:0:
256,192,149732,128,0,149922:0:0:0:0:
182,192,149827,1,0,0:0:0:0:
329,192,149922,1,0,0:0:0:0:
109,192,149922,128,0,150112:0:0:0:0:
475,192,149922,1,0,0:0:0:0:
36,192,150017,1,0,0:0:0:0:
182,192,150112,1,0,0:0:0:0:
402,192,150112,128,0,150302:0:0:0:0:
329,192,150207,1,0,0:0:0:0:
475,192,150302,1,0,0:0:0:0:
256,192,150302,1,0,0:0:0:0:
36,192,150302,128,0,150491:0:0:0:0:
109,192,150396,1,0,0:0:0:0:
182,192,150491,1,0,0:0:0:0:
329,192,150491,1,0,0:0:0:0:
402,192,150586,1,0,0:0:0:0:
256,192,150681,1,0,0:0:0:0:
109,192,150681,1,0,0:0:0:0:
36,192,150681,1,0,0:0:0:0:
475,192,150681,1,0,0:0:0:0:
182,192,150776,1,0,0:0:0:0:
329,192,150776,1,0,0:0:0:0:
475,192,150871,1,0,0:0:0:0:
402,192,150871,1,0,0:0:0:0:
256,192,150966,1,0,0:0:0:0:
109,192,151061,1,0,0:0:0:0:
36,192,151061,1,0,0:0:0:0:
329,192,151156,1,0,0:0:0:0:
475,192,151251,1,0,0:0:0:0:
402,192,151251,1,0,0:0:0:0:
36,192,151251,1,0,0:0:0:0:
182,192,151251,1,0,0:0:0:0:
256,192,151251,1,0,0:0:0:0:
109,192,151346,1,0,0:0:0:0:
329,192,151346,1,0,0:0:0:0:
182,192,151441,1,0,0:0:0:0:
402,192,151441,1,0,0:0:0:0:
36,192,151536,1,0,0:0:0:0:
402,192,151631,1,0,0:0:0:0:
256,192,151631,1,0,0:0:0:0:
182,192,151726,1,0,0:0:0:0:
109,192,151821,1,0,0:0:0:0:
36,192,151821,1,0,0:0:0:0:
329,192,151821,1,0,0:0:0:0:
475,192,151821,1,0,0:0:0:0:
402,192,151821,1,0,0:0:0:0:
182,192,151915,1,0,0:0:0:0:
256,192,151915,1,0,0:0:0:0:
329,192,152010,1,0,0:0:0:0:
109,192,152010,1,0,0:0:0:0:
256,192,152105,1,0,0:0:0:0:
182,192,152200,1,0,0:0:0:0:
109,192,152200,1,0,0:0:0:0:
36,192,152200,1,0,0:0:0:0:
402,192,152200,1,0,0:0:0:0:
475,192,152200,1,0,0:0:0:0:
329,192,152295,1,0,0:0:0:0:
256,192,152390,1,0,0:0:0:0:
36,192,152390,1,0,0:0:0:0:
182,192,152485,1,0,0:0:0:0:
109,192,152580,1,0,0:0:0:0:
36,192,152580,1,0,0:0:0:0:
475,192,152580,1,0,0:0:0:0:
402,192,152580,1,0,0:0:0:0:
256,192,152580,1,0,0:0:0:0:
329,192,152675,1,0,0:0:0:0:
182,192,152675,1,0,0:0:0:0:
475,192,152770,1,0,0:0:0:0:
402,192,152770,1,0,0:0:0:0:
329,192,152865,1,0,0:0:0:0:
256,192,152865,1,0,0:0:0:0:
182,192,152960,1,0,0:0:0:0:
109,192,152960,1,0,0:0:0:0:
36,192,152960,1,0,0:0:0:0:
402,192,152960,1,0,0:0:0:0:
475,192,152960,1,0,0:0:0:0:
329,192,153055,1,0,0:0:0:0:
256,192,153055,1,0,0:0:0:0:
109,192,153150,1,0,0:0:0:0:
182,192,153150,1,0,0:0:0:0:
36,192,153245,1,0,0:0:0:0:
256,192,153340,1,0,0:0:0:0:
329,192,153340,1,0,0:0:0:0:
475,192,153434,1,0,0:0:0:0:
329,192,153529,1,0,0:0:0:0:
109,192,153529,1,0,0:0:0:0:
36,192,153529,1,0,0:0:0:0:
182,192,153529,1,0,0:0:0:0:
402,192,153529,1,0,0:0:0:0:
256,192,153624,1,0,0:0:0:0:
475,192,153624,1,0,0:0:0:0:
182,192,153719,1,0,0:0:0:0:
329,192,153719,1,0,0:0:0:0:
109,192,153814,1,0,0:0:0:0:
36,192,153909,1,0,0:0:0:0:
256,192,153909,1,0,0:0:0:0:
329,192,154004,1,0,0:0:0:0:
182,192,154099,1,0,0:0:0:0:
109,192,154099,1,0,0:0:0:0:
475,192,154099,1,0,0:0:0:0:
36,192,154099,1,0,0:0:0:0:
402,192,154099,1,0,0:0:0:0:
256,192,154194,1,0,0:0:0:0:
329,192,154194,1,0,0:0:0:0:
182,192,154289,1,0,0:0:0:0:
36,192,154289,1,0,0:0:0:0:
475,192,154384,1,0,0:0:0:0:
109,192,154479,1,0,0:0:0:0:
256,192,154479,1,0,0:0:0:0:
402,192,154479,1,0,0:0:0:0:
329,192,154479,1,0,0:0:0:0:
36,192,154479,1,0,0:0:0:0:
475,192,154574,1,0,0:0:0:0:
182,192,154574,1,0,0:0:0:0:
402,192,154669,1,0,0:0:0:0:
329,192,154669,1,0,0:0:0:0:
256,192,154764,1,0,0:0:0:0:
182,192,154859,1,0,0:0:0:0:
109,192,154859,1,0,0:0:0:0:
36,192,154859,1,0,0:0:0:0:
475,192,154859,1,0,0:0:0:0:
402,192,154859,1,0,0:0:0:0:
329,192,154953,1,0,0:0:0:0:
256,192,154953,1,0,0:0:0:0:
182,192,155048,1,0,0:0:0:0:
475,192,155048,1,0,0:0:0:0:
109,192,155143,1,0,0:0:0:0:
36,192,155238,1,0,0:0:0:0:
256,192,155238,1,0,0:0:0:0:
329,192,155238,1,0,0:0:0:0:
402,192,155238,1,0,0:0:0:0:
475,192,155238,1,0,0:0:0:0:
182,192,155333,1,0,0:0:0:0:
109,192,155333,1,0,0:0:0:0:
256,192,155428,1,0,0:0:0:0:
402,192,155428,1,0,0:0:0:0:
329,192,155523,1,0,0:0:0:0:
402,192,155618,1,0,0:0:0:0:
182,192,155618,1,0,0:0:0:0:
109,192,155713,1,0,0:0:0:0:
36,192,155808,1,0,0:0:0:0:
182,192,155808,1,0,0:0:0:0:
256,192,155808,1,0,0:0:0:0:
329,192,155808,1,0,0:0:0:0:
475,192,155808,1,0,0:0:0:0:
402,192,155903,1,0,0:0:0:0:
109,192,155903,1,0,0:0:0:0:
182,192,155998,1,0,0:0:0:0:
329,192,155998,1,0,0:0:0:0:
402,192,156093,1,0,0:0:0:0:
475,192,156188,1,0,0:0:0:0:
256,192,156188,1,0,0:0:0:0:
182,192,156283,1,0,0:0:0:0:
109,192,156377,1,0,0:0:0:0:
36,192,156377,1,0,0:0:0:0:
329,192,156377,1,0,0:0:0:0:
256,192,156377,1,0,0:0:0:0:
402,192,156377,1,0,0:0:0:0:
475,192,156472,1,0,0:0:0:0:
182,192,156472,1,0,0:0:0:0:
402,192,156567,1,0,0:0:0:0:
329,192,156567,1,0,0:0:0:0:
256,192,156662,1,0,0:0:0:0:
182,192,156757,1,0,0:0:0:0:
109,192,156757,1,0,0:0:0:0:
36,192,156757,1,0,0:0:0:0:
475,192,156757,1,0,0:0:0:0:
402,192,156757,1,0,0:0:0:0:
329,192,156852,1,0,0:0:0:0:
256,192,156852,1,0,0:0:0:0:
182,192,156947,1,0,0:0:0:0:
36,192,156947,1,0,0:0:0:0:
109,192,157042,1,0,0:0:0:0:
475,192,157137,1,0,0:0:0:0:
329,192,157137,1,0,0:0:0:0:
256,192,157137,1,0,0:0:0:0:
182,192,157137,1,0,0:0:0:0:
36,192,157137,1,0,0:0:0:0:
402,192,157232,1,0,0:0:0:0:
109,192,157232,1,0,0:0:0:0:
329,192,157327,1,0,0:0:0:0:
182,192,157327,1,0,0:0:0:0:
402,192,157422,1,0,0:0:0:0:
475,192,157517,1,0,0:0:0:0:
329,192,157517,1,0,0:0:0:0:
36,192,157517,1,0,0:0:0:0:
109,192,157517,1,0,0:0:0:0:
256,192,157517,1,0,0:0:0:0:
182,192,157612,1,0,0:0:0:0:
402,192,157612,1,0,0:0:0:0:
256,192,157707,1,0,0:0:0:0:
475,192,157707,1,0,0:0:0:0:
109,192,157802,1,0,0:0:0:0:
36,192,157896,1,0,0:0:0:0:
329,192,157896,1,0,0:0:0:0:
256,192,157991,1,0,0:0:0:0:
182,192,158086,1,0,0:0:0:0:
109,192,158086,1,0,0:0:0:0:
402,192,158086,1,0,0:0:0:0:
475,192,158086,1,0,0:0:0:0:
36,192,158086,1,0,0:0:0:0:
329,192,158181,1,0,0:0:0:0:
256,192,158181,1,0,0:0:0:0:
182,192,158276,1,0,0:0:0:0:
36,192,158276,1,0,0:0:0:0:
109,192,158371,1,0,0:0:0:0:
256,192,158466,1,0,0:0:0:0:
402,192,158466,1,0,0:0:0:0:
475,192,158561,1,0,0:0:0:0:
329,192,158656,1,0,0:0:0:0:
402,192,158656,1,0,0:0:0:0:
182,192,158656,1,0,0:0:0:0:
36,192,158656,1,0,0:0:0:0:
109,192,158656,1,0,0:0:0:0:
256,192,158751,1,0,0:0:0:0:
475,192,158751,1,0,0:0:0:0:
402,192,158846,1,0,0:0:0:0:
182,192,158846,1,0,0:0:0:0:
36,192,158941,1,0,0:0:0:0:
109,192,159036,1,0,0:0:0:0:
182,192,159036,1,0,0:0:0:0:
329,192,159036,1,0,0:0:0:0:
475,192,159036,1,0,0:0:0:0:
256,192,159036,1,0,0:0:0:0:
402,192,159131,1,0,0:0:0:0:
36,192,159131,1,0,0:0:0:0:
109,192,159226,1,0,0:0:0:0:
329,192,159226,1,0,0:0:0:0:
475,192,159321,1,0,0:0:0:0:
402,192,159415,1,0,0:0:0:0:
182,192,159415,1,0,0:0:0:0:
36,192,159415,1,0,0:0:0:0:
109,192,159415,1,0,0:0:0:0:
329,192,159415,1,0,0:0:0:0:
256,192,159510,1,0,0:0:0:0:
475,192,159510,1,0,0:0:0:0:
329,192,159605,1,0,0:0:0:0:
36,192,159605,1,0,0:0:0:0:
109,192,159700,1,0,0:0:0:0:
182,192,159795,1,0,0:0:0:0:
36,192,159795,1,0,0:0:0:0:
256,192,159795,1,0,0:0:0:0:
475,192,159795,1,0,0:0:0:0:
402,192,159795,1,0,0:0:0:0:
329,192,159890,1,0,0:0:0:0:
109,192,159890,1,0,0:0:0:0:
475,192,159985,1,0,0:0:0:0:
256,192,159985,1,0,0:0:0:0:
402,192,160080,1,0,0:0:0:0:
329,192,160175,1,0,0:0:0:0:
182,192,160175,1,0,0:0:0:0:
36,192,160270,1,0,0:0:0:0:
109,192,160365,1,0,0:0:0:0:
256,192,160365,1,0,0:0:0:0:
475,192,160365,1,0,0:0:0:0:
402,192,160365,1,0,0:0:0:0:
182,192,160365,1,0,0:0:0:0:
329,192,160460,1,0,0:0:0:0:
36,192,160460,1,0,0:0:0:0:
109,192,160555,1,0,0:0:0:0:
402,192,160555,1,0,0:0:0:0:
256,192,160650,1,0,0:0:0:0:
182,192,160745,1,0,0:0:0:0:
36,192,160745,1,0,0:0:0:0:
329,192,160840,1,0,0:0:0:0:
402,192,160934,1,0,0:0:0:0:
475,192,160934,1,0,0:0:0:0:
256,192,160934,1,0,0:0:0:0:
109,192,160934,1,0,0:0:0:0:
182,192,160934,1,0,0:0:0:0:
36,192,161029,1,0,0:0:0:0:
329,192,161029,1,0,0:0:0:0:
109,192,161124,1,0,0:0:0:0:
256,192,161124,1,0,0:0:0:0:
182,192,161219,1,0,0:0:0:0:
329,192,161314,1,0,0:0:0:0:
256,192,161314,1,0,0:0:0:0:
36,192,161314,1,0,0:0:0:0:
109,192,161314,1,0,0:0:0:0:
475,192,161314,1,0,0:0:0:0:
402,192,161409,1,0,0:0:0:0:
182,192,161409,1,0,0:0:0:0:
256,192,161504,1,0,0:0:0:0:
475,192,161504,1,0,0:0:0:0:
109,192,161599,1,0,0:0:0:0:
36,192,161694,1,0,0:0:0:0:
182,192,161694,1,0,0:0:0:0:
329,192,161694,1,0,0:0:0:0:
475,192,161694,1,0,0:0:0:0:
256,192,161694,1,0,0:0:0:0:
109,192,161789,1,0,0:0:0:0:
402,192,161789,1,0,0:0:0:0:
329,192,161884,1,0,0:0:0:0:
182,192,161884,1,0,0:0:0:0:
36,192,161979,1,0,0:0:0:0:
109,192,162074,1,0,0:0:0:0:
256,192,162074,1,0,0:0:0:0:
182,192,162074,1,0,0:0:0:0:
475,192,162074,1,0,0:0:0:0:
329,192,162074,1,0,0:0:0:0:
402,192,162169,1,0,0:0:0:0:
36,192,162169,1,0,0:0:0:0:
109,192,162264,1,0,0:0:0:0:
329,192,162264,1,0,0:0:0:0:
256,192,162359,1,0,0:0:0:0:
475,192,162453,1,0,0:0:0:0:
402,192,162453,1,0,0:0:0:0:
182,192,162548,1,0,0:0:0:0:
36,192,162643,1,0,0:0:0:0:
109,192,162643,1,0,0:0:0:0:
329,192,162643,1,0,0:0:0:0:
475,192,162643,1,0,0:0:0:0:
256,192,162643,1,0,0:0:0:0:
182,192,162738,1,0,0:0:0:0:
402,192,162738,1,0,0:0:0:0:
329,192,162833,1,0,0:0:0:0:
36,192,162833,1,0,0:0:0:0:
109,192,162928,1,0,0:0:0:0:
182,192,163023,1,0,0:0:0:0:
256,192,163023,1,0,0:0:0:0:
402,192,163118,1,0,0:0:0:0:
182,192,163213,1,0,0:0:0:0:
329,192,163213,1,0,0:0:0:0:
475,192,163213,1,0,0:0:0:0:
36,192,163213,1,0,0:0:0:0:
109,192,163213,1,0,0:0:0:0:
256,192,163308,1,0,0:0:0:0:
402,192,163308,1,0,0:0:0:0:
182,192,163403,1,0,0:0:0:0:
475,192,163403,1,0,0:0:0:0:
36,192,163498,1,0,0:0:0:0:
109,192,163593,1,0,0:0:0:0:
256,192,163593,1,0,0:0:0:0:
329,192,163593,1,0,0:0:0:0:
475,192,163593,1,0,0:0:0:0:
182,192,163593,1,0,0:0:0:0:
402,192,163688,1,0,0:0:0:0:
36,192,163688,1,0,0:0:0:0:
109,192,163783,1,0,0:0:0:0:
329,192,163783,1,0,0:0:0:0:
475,192,163877,1,0,0:0:0:0:
402,192,163972,1,0,0:0:0:0:
256,192,163972,1,0,0:0:0:0:
182,192,163972,1,0,0:0:0:0:
36,192,163972,1,0,0:0:0:0:
109,192,163972,1,0,0:0:0:0:
329,192,164067,1,0,0:0:0:0:
475,192,164067,1,0,0:0:0:0:
36,192,164162,1,0,0:0:0:0:
256,192,164162,1,0,0:0:0:0:
109,192,164257,1,0,0:0:0:0:
182,192,164352,1,0,0:0:0:0:
329,192,164352,1,0,0:0:0:0:
402,192,164352,1,0,0:0:0:0:
475,192,164352,1,0,0:0:0:0:
36,192,164352,1,0,0:0:0:0:
256,192,164447,1,0,0:0:0:0:
109,192,164447,1,0,0:0:0:0:
329,192,164542,1,0,0:0:0:0:
475,192,164542,1,0,0:0:0:0:
182,192,164637,1,0,0:0:0:0:
256,192,164732,1,0,0:0:0:0:
109,192,164732,1,0,0:0:0:0:
402,192,164827,1,0,0:0:0:0:
475,192,164922,1,0,0:0:0:0:
36,192,164922,1,0,0:0:0:0:
109,192,164922,1,0,0:0:0:0:
256,192,164922,1,0,0:0:0:0:
329,192,164922,1,0,0:0:0:0:
182,192,165017,1,0,0:0:0:0:
402,192,165017,1,0,0:0:0:0:
36,192,165112,1,0,0:0:0:0:
329,192,165112,1,0,0:0:0:0:
256,192,165207,1,0,0:0:0:0:
329,192,165302,1,0,0:0:0:0:
182,192,165302,1,0,0:0:0:0:
109,192,165396,1,0,0:0:0:0:
329,192,165491,1,0,0:0:0:0:
475,192,165491,1,0,0:0:0:0:
36,192,165491,1,0,0:0:0:0:
256,192,165491,1,0,0:0:0:0:
182,192,165491,1,0,0:0:0:0:
402,192,165586,1,0,0:0:0:0:
109,192,165586,1,0,0:0:0:0:
182,192,165681,1,0,0:0:0:0:
36,192,165681,1,0,0:0:0:0:
329,192,165776,1,0,0:0:0:0:
256,192,165871,1,0,0:0:0:0:
475,192,165871,1,0,0:0:0:0:
402,192,165871,1,0,0:0:0:0:
109,192,165871,1,0,0:0:0:0:
36,192,165871,1,0,0:0:0:0:
182,192,165966,1,0,0:0:0:0:
329,192,165966,1,0,0:0:0:0:
475,192,166061,1,0,0:0:0:0:
109,192,166061,1,0,0:0:0:0:
402,192,166156,1,0,0:0:0:0:
329,192,166251,1,0,0:0:0:0:
256,192,166251,1,0,0:0:0:0:
475,192,166251,1,0,0:0:0:0:
36,192,166251,1,0,0:0:0:0:
182,192,166251,1,0,0:0:0:0:
109,192,166346,1,0,0:0:0:0:
402,192,166346,1,0,0:0:0:0:
329,192,166441,1,0,0:0:0:0:
36,192,166441,1,0,0:0:0:0:
182,192,166536,1,0,0:0:0:0:
109,192,166631,1,0,0:0:0:0:
36,192,166631,1,0,0:0:0:0:
256,192,166631,1,0,0:0:0:0:
402,192,166631,1,0,0:0:0:0:
475,192,166631,1,0,0:0:0:0:
182,192,166726,1,0,0:0:0:0:
329,192,166726,1,0,0:0:0:0:
402,192,166821,1,0,0:0:0:0:
109,192,166821,1,0,0:0:0:0:
256,192,166915,1,0,0:0:0:0:
329,192,167010,1,0,0:0:0:0:
475,192,167010,1,0,0:0:0:0:
182,192,167105,1,0,0:0:0:0:
109,192,167200,1,0,0:0:0:0:
36,192,167200,1,0,0:0:0:0:
256,192,167200,1,0,0:0:0:0:
402,192,167200,1,0,0:0:0:0:
475,192,167200,1,0,0:0:0:0:
329,192,167295,1,0,0:0:0:0:
182,192,167295,1,0,0:0:0:0:
109,192,167390,1,0,0:0:0:0:
36,192,167390,1,0,0:0:0:0:
256,192,167485,1,0,0:0:0:0:
475,192,167580,1,0,0:0:0:0:
182,192,167580,1,0,0:0:0:0:
402,192,167675,1,0,0:0:0:0:
329,192,167770,1,0,0:0:0:0:
256,192,167770,1,0,0:0:0:0:
36,192,167770,1,0,0:0:0:0:
182,192,167770,1,0,0:0:0:0:
475,192,167770,1,0,0:0:0:0:
109,192,167865,1,0,0:0:0:0:
402,192,167865,1,0,0:0:0:0:
36,192,167960,1,0,0:0:0:0:
256,192,167960,1,0,0:0:0:0:
182,192,168055,1,0,0:0:0:0:
109,192,168150,1,0,0:0:0:0:
36,192,168150,1,0,0:0:0:0:
329,192,168150,1,0,0:0:0:0:
475,192,168150,1,0,0:0:0:0:
402,192,168150,1,0,0:0:0:0:
256,192,168245,1,0,0:0:0:0:
182,192,168245,1,0,0:0:0:0:
329,192,168340,1,0,0:0:0:0:
475,192,168340,1,0,0:0:0:0:
109,192,168434,1,0,0:0:0:0:
36,192,168529,1,0,0:0:0:0:
182,192,168529,1,0,0:0:0:0:
256,192,168529,1,0,0:0:0:0:
402,192,168529,1,0,0:0:0:0:
475,192,168529,1,0,0:0:0:0:
109,192,168624,1,0,0:0:0:0:
329,192,168624,1,0,0:0:0:0:
256,192,168719,1,0,0:0:0:0:
36,192,168719,1,0,0:0:0:0:
402,192,168814,1,0,0:0:0:0:
182,192,168814,1,0,0:0:0:0:
36,192,168909,1,0,0:0:0:0:
329,192,168909,1,0,0:0:0:0:
475,192,168909,1,0,0:0:0:0:
109,192,168909,1,0,0:0:0:0:
182,192,169004,1,0,0:0:0:0:
36,192,169099,1,0,0:0:0:0:
256,192,169099,128,0,169289:0:0:0:0:
329,192,169194,1,0,0:0:0:0:
109,192,169289,1,0,0:0:0:0:
182,192,169289,1,0,0:0:0:0:
402,192,169384,1,0,0:0:0:0:
475,192,169479,1,0,0:0:0:0:
36,192,169479,128,0,169669:0:0:0:0:
182,192,169479,1,0,0:0:0:0:
329,192,169479,1,0,0:0:0:0:
109,192,169574,1,0,0:0:0:0:
329,192,169669,1,0,0:0:0:0:
182,192,169669,1,0,0:0:0:0:
475,192,169764,1,0,0:0:0:0:
402,192,169859,1,0,0:0:0:0:
256,192,169859,128,0,170048:0:0:0:0:
109,192,169953,1,0,0:0:0:0:
36,192,170048,1,0,0:0:0:0:
182,192,170048,1,0,0:0:0:0:
329,192,170048,1,0,0:0:0:0:
475,192,170048,1,0,0:0:0:0:
402,192,170143,1,0,0:0:0:0:
256,192,170238,1,0,0:0:0:0:
475,192,170238,128,0,170428:0:0:0:0:
109,192,170333,1,0,0:0:0:0:
182,192,170428,1,0,0:0:0:0:
402,192,170428,1,0,0:0:0:0:
329,192,170428,1,0,0:0:0:0:
36,192,170428,1,0,0:0:0:0:
256,192,170523,1,0,0:0:0:0:
109,192,170618,1,0,0:0:0:0:
182,192,170618,128,0,170808:0:0:0:0:
402,192,170713,1,0,0:0:0:0:
256,192,170808,1,0,0:0:0:0:
329,192,170808,1,0,0:0:0:0:
475,192,170808,1,0,0:0:0:0:
36,192,170808,1,0,0:0:0:0:
109,192,170903,1,0,0:0:0:0:
402,192,170903,1,0,0:0:0:0:
182,192,170998,1,0,0:0:0:0:
329,192,170998,1,0,0:0:0:0:
256,192,171093,1,0,0:0:0:0:
475,192,171093,1,0,0:0:0:0:
182,192,171188,1,0,0:0:0:0:
402,192,171188,1,0,0:0:0:0:
36,192,171188,1,0,0:0:0:0:
329,192,171188,128,0,171377:0:0:0:0:
109,192,171283,1,0,0:0:0:0:
402,192,171377,1,0,0:0:0:0:
475,192,171377,1,0,0:0:0:0:
256,192,171472,1,0,0:0:0:0:
36,192,171567,1,0,0:0:0:0:
182,192,171567,128,0,171757:0:0:0:0:
329,192,171662,1,0,0:0:0:0:
402,192,171757,1,0,0:0:0:0:
109,192,171757,1,0,0:0:0:0:
256,192,171757,1,0,0:0:0:0:
36,192,171757,1,0,0:0:0:0:
475,192,171852,1,0,0:0:0:0:
329,192,171947,128,0,172137:0:0:0:0:
182,192,171947,1,0,0:0:0:0:
109,192,172042,1,0,0:0:0:0:
256,192,172137,1,0,0:0:0:0:
36,192,172137,1,0,0:0:0:0:
402,192,172232,1,0,0:0:0:0:
329,192,172327,1,0,0:0:0:0:
36,192,172327,1,0,0:0:0:0:
475,192,172327,128,0,172517:0:0:0:0:
182,192,172327,1,0,0:0:0:0:
109,192,172422,1,0,0:0:0:0:
256,192,172517,1,0,0:0:0:0:
182,192,172517,1,0,0:0:0:0:
402,192,172612,1,0,0:0:0:0:
109,192,172707,1,0,0:0:0:0:
475,192,172707,1,0,0:0:0:0:
36,192,172707,128,0,172896:0:0:0:0:
256,192,172707,1,0,0:0:0:0:
329,192,172802,1,0,0:0:0:0:
182,192,172896,1,0,0:0:0:0:
402,192,172896,1,0,0:0:0:0:
109,192,172991,1,0,0:0:0:0:
36,192,173086,1,0,0:0:0:0:
256,192,173086,1,0,0:0:0:0:
475,192,173086,128,0,173276:0:0:0:0:
109,192,173181,1,0,0:0:0:0:
329,192,173181,1,0,0:0:0:0:
182,192,173276,1,0,0:0:0:0:
402,192,173276,1,0,0:0:0:0:
256,192,173371,1,0,0:0:0:0:
475,192,173371,1,0,0:0:0:0:
182,192,173466,1,0,0:0:0:0:
36,192,173466,1,0,0:0:0:0:
402,192,173466,1,0,0:0:0:0:
329,192,173466,128,0,173656:0:0:0:0:
109,192,173561,1,0,0:0:0:0:
475,192,173656,1,0,0:0:0:0:
36,192,173656,1,0,0:0:0:0:
256,192,173751,1,0,0:0:0:0:
182,192,173846,1,0,0:0:0:0:
402,192,173846,1,0,0:0:0:0:
109,192,173846,128,0,174036:0:0:0:0:
475,192,174036,1,0,0:0:0:0:
329,192,174036,1,0,0:0:0:0:
36,192,174036,1,0,0:0:0:0:
256,192,174131,1,0,0:0:0:0:
182,192,174226,1,0,0:0:0:0:
402,192,174226,128,0,174415:0:0:0:0:
36,192,174321,1,0,0:0:0:0:
329,192,174415,1,0,0:0:0:0:
109,192,174415,1,0,0:0:0:0:
475,192,174510,1,0,0:0:0:0:
402,192,174605,1,0,0:0:0:0:
36,192,174605,1,0,0:0:0:0:
182,192,174605,128,0,174795:0:0:0:0:
256,192,174700,1,0,0:0:0:0:
109,192,174795,1,0,0:0:0:0:
402,192,174795,1,0,0:0:0:0:
329,192,174890,1,0,0:0:0:0:
182,192,174985,1,0,0:0:0:0:
36,192,174985,1,0,0:0:0:0:
475,192,174985,1,0,0:0:0:0:
256,192,174985,128,0,175175:0:0:0:0:
402,192,175080,1,0,0:0:0:0:
109,192,175175,1,0,0:0:0:0:
36,192,175175,1,0,0:0:0:0:
329,192,175270,1,0,0:0:0:0:
475,192,175365,1,0,0:0:0:0:
256,192,175365,1,0,0:0:0:0:
36,192,175365,128,0,175555:0:0:0:0:
182,192,175460,1,0,0:0:0:0:
402,192,175460,1,0,0:0:0:0:
109,192,175555,1,0,0:0:0:0:
329,192,175555,1,0,0:0:0:0:
182,192,175650,1,0,0:0:0:0:
402,192,175650,1,0,0:0:0:0:
475,192,175745,1,0,0:0:0:0:
36,192,175745,1,0,0:0:0:0:
256,192,175745,128,0,175934:0:0:0:0:
329,192,175745,1,0,0:0:0:0:
109,192,175840,1,0,0:0:0:0:
182,192,175934,1,0,0:0:0:0:
402,192,175934,1,0,0:0:0:0:
36,192,176029,1,0,0:0:0:0:
109,192,176124,1,0,0:0:0:0:
329,192,176124,1,0,0:0:0:0:
475,192,176219,1,0,0:0:0:0:
402,192,176314,1,0,0:0:0:0:
36,192,176314,1,0,0:0:0:0:
182,192,176314,128,0,176504:0:0:0:0:
256,192,176409,1,0,0:0:0:0:
109,192,176504,1,0,0:0:0:0:
329,192,176504,1,0,0:0:0:0:
475,192,176599,1,0,0:0:0:0:
402,192,176694,128,0,176884:0:0:0:0:
256,192,176694,1,0,0:0:0:0:
109,192,176789,1,0,0:0:0:0:
36,192,176884,1,0,0:0:0:0:
329,192,176884,1,0,0:0:0:0:
182,192,176884,1,0,0:0:0:0:
475,192,176979,1,0,0:0:0:0:
256,192,177074,1,0,0:0:0:0:
109,192,177074,128,0,177264:0:0:0:0:
182,192,177169,1,0,0:0:0:0:
329,192,177264,1,0,0:0:0:0:
402,192,177264,1,0,0:0:0:0:
36,192,177264,1,0,0:0:0:0:
182,192,177359,1,0,0:0:0:0:
475,192,177453,1,0,0:0:0:0:
256,192,177453,128,0,177643:0:0:0:0:
402,192,177548,1,0,0:0:0:0:
109,192,177643,1,0,0:0:0:0:
475,192,177643,1,0,0:0:0:0:
329,192,177643,1,0,0:0:0:0:
36,192,177738,1,0,0:0:0:0:
182,192,177738,1,0,0:0:0:0:
329,192,177833,1,0,0:0:0:0:
109,192,177833,1,0,0:0:0:0:
182,192,177928,1,0,0:0:0:0:
402,192,177928,1,0,0:0:0:0:
256,192,178023,1,0,0:0:0:0:
475,192,178023,1,0,0:0:0:0:
36,192,178023,1,0,0:0:0:0:
329,192,178023,1,0,0:0:0:0:
402,192,178118,1,0,0:0:0:0:
109,192,178118,1,0,0:0:0:0:
475,192,178213,1,0,0:0:0:0:
256,192,178213,128,0,178403:0:0:0:0:
182,192,178308,1,0,0:0:0:0:
402,192,178403,1,0,0:0:0:0:
329,192,178403,1,0,0:0:0:0:
109,192,178498,1,0,0:0:0:0:
36,192,178593,1,0,0:0:0:0:
475,192,178593,128,0,178783:0:0:0:0:
329,192,178593,1,0,0:0:0:0:
182,192,178593,1,0,0:0:0:0:
402,192,178688,1,0,0:0:0:0:
182,192,178783,1,0,0:0:0:0:
329,192,178783,1,0,0:0:0:0:
36,192,178877,1,0,0:0:0:0:
109,192,178972,1,0,0:0:0:0:
256,192,178972,128,0,179162:0:0:0:0:
402,192,179067,1,0,0:0:0:0:
475,192,179162,1,0,0:0:0:0:
329,192,179162,1,0,0:0:0:0:
182,192,179162,1,0,0:0:0:0:
36,192,179162,1,0,0:0:0:0:
109,192,179257,1,0,0:0:0:0:
256,192,179352,1,0,0:0:0:0:
36,192,179352,128,0,179542:0:0:0:0:
402,192,179447,1,0,0:0:0:0:
329,192,179542,1,0,0:0:0:0:
109,192,179542,1,0,0:0:0:0:
182,192,179542,1,0,0:0:0:0:
475,192,179542,1,0,0:0:0:0:
256,192,179637,1,0,0:0:0:0:
402,192,179732,1,0,0:0:0:0:
329,192,179732,128,0,179922:0:0:0:0:
109,192,179827,1,0,0:0:0:0:
256,192,179922,1,0,0:0:0:0:
182,192,179922,1,0,0:0:0:0:
36,192,179922,1,0,0:0:0:0:
475,192,179922,1,0,0:0:0:0:
402,192,180017,1,0,0:0:0:0:
109,192,180017,1,0,0:0:0:0:
329,192,180112,1,0,0:0:0:0:
182,192,180112,1,0,0:0:0:0:
256,192,180207,1,0,0:0:0:0:
36,192,180207,1,0,0:0:0:0:
329,192,180302,1,0,0:0:0:0:
109,192,180302,1,0,0:0:0:0:
475,192,180302,1,0,0:0:0:0:
182,192,180302,128,0,180491:0:0:0:0:
402,192,180396,1,0,0:0:0:0:
109,192,180491,1,0,0:0:0:0:
36,192,180491,1,0,0:0:0:0:
256,192,180586,1,0,0:0:0:0:
475,192,180681,1,0,0:0:0:0:
329,192,180681,128,0,180871:0:0:0:0:
182,192,180776,1,0,0:0:0:0:
109,192,180871,1,0,0:0:0:0:
402,192,180871,1,0,0:0:0:0:
256,192,180871,1,0,0:0:0:0:
475,192,180871,1,0,0:0:0:0:
36,192,180966,1,0,0:0:0:0:
182,192,181061,128,0,181251:0:0:0:0:
329,192,181061,1,0,0:0:0:0:
402,192,181156,1,0,0:0:0:0:
256,192,181251,1,0,0:0:0:0:
475,192,181251,1,0,0:0:0:0:
109,192,181346,1,0,0:0:0:0:
182,192,181441,1,0,0:0:0:0:
475,192,181441,1,0,0:0:0:0:
36,192,181441,128,0,181631:0:0:0:0:
329,192,181441,1,0,0:0:0:0:
402,192,181536,1,0,0:0:0:0:
256,192,181631,1,0,0:0:0:0:
329,192,181631,1,0,0:0:0:0:
109,192,181726,1,0,0:0:0:0:
402,192,181821,1,0,0:0:0:0:
36,192,181821,1,0,0:0:0:0:
475,192,181821,128,0,182010:0:0:0:0:
256,192,181821,1,0,0:0:0:0:
182,192,181915,1,0,0:0:0:0:
329,192,182010,1,0,0:0:0:0:
109,192,182010,1,0,0:0:0:0:
402,192,182105,1,0,0:0:0:0:
475,192,182200,1,0,0:0:0:0:
256,192,182200,1,0,0:0:0:0:
36,192,182200,128,0,182390:0:0:0:0:
402,192,182295,1,0,0:0:0:0:
182,192,182295,1,0,0:0:0:0:
329,192,182390,1,0,0:0:0:0:
109,192,182390,1,0,0:0:0:0:
256,192,182485,1,0,0:0:0:0:
475,192,182485,1,0,0:0:0:0:
329,192,182580,1,0,0:0:0:0:
36,192,182580,1,0,0:0:0:0:
109,192,182580,1,0,0:0:0:0:
182,192,182580,128,0,182770:0:0:0:0:
402,192,182675,1,0,0:0:0:0:
36,192,182770,1,0,0:0:0:0:
475,192,182770,1,0,0:0:0:0:
256,192,182865,1,0,0:0:0:0:
329,192,182960,1,0,0:0:0:0:
109,192,182960,1,0,0:0:0:0:
402,192,182960,128,0,183150:0:0:0:0:
36,192,183150,1,0,0:0:0:0:
182,192,183150,1,0,0:0:0:0:
475,192,183150,1,0,0:0:0:0:
256,192,183245,1,0,0:0:0:0:
329,192,183340,1,0,0:0:0:0:
109,192,183340,128,0,183529:0:0:0:0:
475,192,183434,1,0,0:0:0:0:
182,192,183529,1,0,0:0:0:0:
402,192,183529,1,0,0:0:0:0:
36,192,183624,1,0,0:0:0:0:
109,192,183719,1,0,0:0:0:0:
475,192,183719,1,0,0:0:0:0:
329,192,183719,128,0,183909:0:0:0:0:
256,192,183814,1,0,0:0:0:0:
402,192,183909,1,0,0:0:0:0:
109,192,183909,1,0,0:0:0:0:
182,192,184004,1,0,0:0:0:0:
329,192,184099,1,0,0:0:0:0:
475,192,184099,1,0,0:0:0:0:
36,192,184099,1,0,0:0:0:0:
256,192,184099,128,0,184289:0:0:0:0:
109,192,184194,1,0,0:0:0:0:
402,192,184289,1,0,0:0:0:0:
475,192,184289,1,0,0:0:0:0:
182,192,184384,1,0,0:0:0:0:
36,192,184479,1,0,0:0:0:0:
256,192,184479,1,0,0:0:0:0:
475,192,184479,128,0,184669:0:0:0:0:
329,192,184574,1,0,0:0:0:0:
109,192,184574,1,0,0:0:0:0:
402,192,184669,1,0,0:0:0:0:
182,192,184669,1,0,0:0:0:0:
329,192,184764,1,0,0:0:0:0:
109,192,184764,1,0,0:0:0:0:
36,192,184859,1,0,0:0:0:0:
475,192,184859,1,0,0:0:0:0:
256,192,184859,128,0,185048:0:0:0:0:
182,192,184859,1,0,0:0:0:0:
402,192,184953,1,0,0:0:0:0:
329,192,185048,1,0,0:0:0:0:
109,192,185048,1,0,0:0:0:0:
475,192,185143,1,0,0:0:0:0:
402,192,185238,1,0,0:0:0:0:
182,192,185238,1,0,0:0:0:0:
36,192,185333,1,0,0:0:0:0:
109,192,185428,1,0,0:0:0:0:
475,192,185428,1,0,0:0:0:0:
329,192,185428,128,0,185618:0:0:0:0:
256,192,185523,1,0,0:0:0:0:
402,192,185618,1,0,0:0:0:0:
182,192,185618,1,0,0:0:0:0:
36,192,185713,1,0,0:0:0:0:
109,192,185808,128,0,185998:0:0:0:0:
256,192,185808,1,0,0:0:0:0:
402,192,185903,1,0,0:0:0:0:
475,192,185998,1,0,0:0:0:0:
182,192,185998,1,0,0:0:0:0:
329,192,185998,1,0,0:0:0:0:
36,192,186093,1,0,0:0:0:0:
256,192,186188,1,0,0:0:0:0:
402,192,186188,128,0,186377:0:0:0:0:
329,192,186283,1,0,0:0:0:0:
182,192,186377,1,0,0:0:0:0:
109,192,186377,1,0,0:0:0:0:
475,192,186377,1,0,0:0:0:0:
329,192,186472,1,0,0:0:0:0:
36,192,186567,1,0,0:0:0:0:
256,192,186567,128,0,186757:0:0:0:0:
109,192,186662,1,0,0:0:0:0:
402,192,186757,1,0,0:0:0:0:
36,192,186757,1,0,0:0:0:0:
182,192,186757,1,0,0:0:0:0:
475,192,186852,1,0,0:0:0:0:
329,192,186852,1,0,0:0:0:0:
182,192,186947,1,0,0:0:0:0:
402,192,186947,1,0,0:0:0:0:
329,192,187042,1,0,0:0:0:0:
109,192,187042,1,0,0:0:0:0:
256,192,187137,1,0,0:0:0:0:
36,192,187137,1,0,0:0:0:0:
475,192,187137,1,0,0:0:0:0:
182,192,187137,1,0,0:0:0:0:
402,192,187232,1,0,0:0:0:0:
256,192,187327,128,0,187517:0:0:0:0:
36,192,187327,1,0,0:0:0:0:
329,192,187422,1,0,0:0:0:0:
182,192,187517,1,0,0:0:0:0:
109,192,187517,1,0,0:0:0:0:
402,192,187612,1,0,0:0:0:0:
182,192,187707,1,0,0:0:0:0:
329,192,187707,1,0,0:0:0:0:
475,192,187707,1,0,0:0:0:0:
36,192,187707,128,0,187896:0:0:0:0:
109,192,187802,1,0,0:0:0:0:
182,192,187896,1,0,0:0:0:0:
329,192,187896,1,0,0:0:0:0:
475,192,187991,1,0,0:0:0:0:
256,192,188086,128,0,188276:0:0:0:0:
402,192,188086,1,0,0:0:0:0:
109,192,188181,1,0,0:0:0:0:
329,192,188276,1,0,0:0:0:0:
475,192,188276,1,0,0:0:0:0:
36,192,188276,1,0,0:0:0:0:
182,192,188276,1,0,0:0:0:0:
402,192,188371,1,0,0:0:0:0:
475,192,188466,128,0,188656:0:0:0:0:
256,192,188466,1,0,0:0:0:0:
109,192,188561,1,0,0:0:0:0:
329,192,188656,1,0,0:0:0:0:
36,192,188656,1,0,0:0:0:0:
182,192,188656,1,0,0:0:0:0:
402,192,188656,1,0,0:0:0:0:
256,192,188751,1,0,0:0:0:0:
182,192,188846,128,0,189036:0:0:0:0:
109,192,188846,1,0,0:0:0:0:
402,192,188941,1,0,0:0:0:0:
475,192,189036,1,0,0:0:0:0:
36,192,189036,1,0,0:0:0:0:
256,192,189036,1,0,0:0:0:0:
329,192,189036,1,0,0:0:0:0:
402,192,189131,1,0,0:0:0:0:
109,192,189131,1,0,0:0:0:0:
329,192,189226,1,0,0:0:0:0:
182,192,189226,1,0,0:0:0:0:
475,192,189321,1,0,0:0:0:0:
256,192,189321,1,0,0:0:0:0:
36,192,189415,1,0,0:0:0:0:
329,192,189415,128,0,189605:0:0:0:0:
182,192,189415,1,0,0:0:0:0:
402,192,189415,1,0,0:0:0:0:
109,192,189510,1,0,0:0:0:0:
475,192,189605,1,0,0:0:0:0:
402,192,189605,1,0,0:0:0:0:
256,192,189700,1,0,0:0:0:0:
182,192,189795,128,0,189985:0:0:0:0:
36,192,189795,1,0,0:0:0:0:
329,192,189890,1,0,0:0:0:0:
256,192,189985,1,0,0:0:0:0:
36,192,189985,1,0,0:0:0:0:
402,192,189985,1,0,0:0:0:0:
109,192,189985,1,0,0:0:0:0:
475,192,190080,1,0,0:0:0:0:
182,192,190175,1,0,0:0:0:0:
329,192,190175,128,0,190365:0:0:0:0:
109,192,190270,1,0,0:0:0:0:
36,192,190365,1,0,0:0:0:0:
256,192,190365,1,0,0:0:0:0:
402,192,190460,1,0,0:0:0:0:
475,192,190555,128,0,190745:0:0:0:0:
182,192,190555,1,0,0:0:0:0:
329,192,190555,1,0,0:0:0:0:
36,192,190555,1,0,0:0:0:0:
109,192,190650,1,0,0:0:0:0:
182,192,190745,1,0,0:0:0:0:
256,192,190745,1,0,0:0:0:0:
402,192,190840,1,0,0:0:0:0:
36,192,190934,128,0,191124:0:0:0:0:
256,192,190934,1,0,0:0:0:0:
109,192,190934,1,0,0:0:0:0:
475,192,190934,1,0,0:0:0:0:
329,192,191029,1,0,0:0:0:0:
402,192,191124,1,0,0:0:0:0:
182,192,191124,1,0,0:0:0:0:
109,192,191219,1,0,0:0:0:0:
475,192,191314,128,0,191504:0:0:0:0:
256,192,191314,1,0,0:0:0:0:
36,192,191314,1,0,0:0:0:0:
329,192,191409,1,0,0:0:0:0:
109,192,191409,1,0,0:0:0:0:
402,192,191504,1,0,0:0:0:0:
182,192,191504,1,0,0:0:0:0:
475,192,191599,1,0,0:0:0:0:
256,192,191599,1,0,0:0:0:0:
402,192,191694,1,0,0:0:0:0:
329,192,191694,128,0,191884:0:0:0:0:
182,192,191694,1,0,0:0:0:0:
36,192,191694,1,0,0:0:0:0:
109,192,191789,1,0,0:0:0:0:
36,192,191884,1,0,0:0:0:0:
475,192,191884,1,0,0:0:0:0:
256,192,191979,1,0,0:0:0:0:
109,192,192074,128,0,192264:0:0:0:0:
402,192,192074,1,0,0:0:0:0:
182,192,192074,1,0,0:0:0:0:
36,192,192264,1,0,0:0:0:0:
329,192,192264,1,0,0:0:0:0:
475,192,192264,1,0,0:0:0:0:
256,192,192359,1,0,0:0:0:0:
402,192,192453,128,0,192643:0:0:0:0:
182,192,192453,1,0,0:0:0:0:
36,192,192548,1,0,0:0:0:0:
109,192,192643,1,0,0:0:0:0:
329,192,192643,1,0,0:0:0:0:
475,192,192738,1,0,0:0:0:0:
182,192,192833,128,0,193023:0:0:0:0:
36,192,192833,1,0,0:0:0:0:
402,192,192833,1,0,0:0:0:0:
256,192,192928,1,0,0:0:0:0:
402,192,193023,1,0,0:0:0:0:
109,192,193023,1,0,0:0:0:0:
329,192,193118,1,0,0:0:0:0:
475,192,193213,1,0,0:0:0:0:
256,192,193213,128,0,193403:0:0:0:0:
182,192,193213,1,0,0:0:0:0:
36,192,193213,1,0,0:0:0:0:
402,192,193308,1,0,0:0:0:0:
36,192,193403,1,0,0:0:0:0:
109,192,193403,1,0,0:0:0:0:
329,192,193498,1,0,0:0:0:0:
36,192,193593,128,0,193783:0:0:0:0:
256,192,193593,1,0,0:0:0:0:
475,192,193593,1,0,0:0:0:0:
402,192,193688,1,0,0:0:0:0:
182,192,193688,1,0,0:0:0:0:
329,192,193783,1,0,0:0:0:0:
109,192,193783,1,0,0:0:0:0:
402,192,193877,1,0,0:0:0:0:
182,192,193877,1,0,0:0:0:0:
256,192,193972,128,0,194162:0:0:0:0:
329,192,193972,1,0,0:0:0:0:
475,192,193972,1,0,0:0:0:0:
36,192,193972,1,0,0:0:0:0:
109,192,194067,1,0,0:0:0:0:
402,192,194162,1,0,0:0:0:0:
182,192,194162,1,0,0:0:0:0:
36,192,194257,1,0,0:0:0:0:
329,192,194352,1,0,0:0:0:0:
109,192,194352,1,0,0:0:0:0:
475,192,194447,1,0,0:0:0:0:
182,192,194542,128,0,194732:0:0:0:0:
36,192,194542,1,0,0:0:0:0:
402,192,194542,1,0,0:0:0:0:
256,192,194637,1,0,0:0:0:0:
329,192,194732,1,0,0:0:0:0:
109,192,194732,1,0,0:0:0:0:
475,192,194827,1,0,0:0:0:0:
256,192,194922,1,0,0:0:0:0:
402,192,194922,128,0,195112:0:0:0:0:
109,192,195017,1,0,0:0:0:0:
182,192,195112,1,0,0:0:0:0:
329,192,195112,1,0,0:0:0:0:
36,192,195112,1,0,0:0:0:0:
475,192,195207,1,0,0:0:0:0:
109,192,195302,128,0,195491:0:0:0:0:
256,192,195302,1,0,0:0:0:0:
182,192,195396,1,0,0:0:0:0:
36,192,195491,1,0,0:0:0:0:
402,192,195491,1,0,0:0:0:0:
329,192,195491,1,0,0:0:0:0:
182,192,195586,1,0,0:0:0:0:
256,192,195681,128,0,195871:0:0:0:0:
475,192,195681,1,0,0:0:0:0:
402,192,195776,1,0,0:0:0:0:
329,192,195871,1,0,0:0:0:0:
475,192,195871,1,0,0:0:0:0:
109,192,195871,1,0,0:0:0:0:
182,192,195966,1,0,0:0:0:0:
36,192,195966,1,0,0:0:0:0:
109,192,196061,1,0,0:0:0:0:
329,192,196061,1,0,0:0:0:0:
402,192,196156,1,0,0:0:0:0:
182,192,196156,1,0,0:0:0:0:
36,192,196251,1,0,0:0:0:0:
329,192,196251,1,0,0:0:0:0:
256,192,196251,1,0,0:0:0:0:
475,192,196251,1,0,0:0:0:0:
402,192,196346,1,0,0:0:0:0:
109,192,196346,1,0,0:0:0:0:
475,192,196441,1,0,0:0:0:0:
256,192,196441,128,0,196631:0:0:0:0:
182,192,196536,1,0,0:0:0:0:
402,192,196631,1,0,0:0:0:0:
329,192,196631,1,0,0:0:0:0:
109,192,196726,1,0,0:0:0:0:
36,192,196821,1,0,0:0:0:0:
475,192,196821,128,0,197010:0:0:0:0:
329,192,196821,1,0,0:0:0:0:
182,192,196821,1,0,0:0:0:0:
402,192,196915,1,0,0:0:0:0:
182,192,197010,1,0,0:0:0:0:
329,192,197010,1,0,0:0:0:0:
36,192,197105,1,0,0:0:0:0:
109,192,197200,1,0,0:0:0:0:
256,192,197200,128,0,197390:0:0:0:0:
402,192,197295,1,0,0:0:0:0:
475,192,197390,1,0,0:0:0:0:
329,192,197390,1,0,0:0:0:0:
182,192,197390,1,0,0:0:0:0:
36,192,197390,1,0,0:0:0:0:
109,192,197485,1,0,0:0:0:0:
256,192,197580,1,0,0:0:0:0:
36,192,197580,128,0,197770:0:0:0:0:
402,192,197675,1,0,0:0:0:0:
329,192,197770,1,0,0:0:0:0:
109,192,197770,1,0,0:0:0:0:
182,192,197770,1,0,0:0:0:0:
475,192,197770,1,0,0:0:0:0:
256,192,197865,1,0,0:0:0:0:
402,192,197960,1,0,0:0:0:0:
329,192,197960,128,0,198150:0:0:0:0:
109,192,198055,1,0,0:0:0:0:
256,192,198150,1,0,0:0:0:0:
182,192,198150,1,0,0:0:0:0:
36,192,198150,1,0,0:0:0:0:
475,192,198150,1,0,0:0:0:0:
402,192,198245,1,0,0:0:0:0:
109,192,198245,1,0,0:0:0:0:
329,192,198340,1,0,0:0:0:0:
182,192,198340,1,0,0:0:0:0:
256,192,198434,1,0,0:0:0:0:
36,192,198434,1,0,0:0:0:0:
329,192,198529,1,0,0:0:0:0:
109,192,198529,1,0,0:0:0:0:
475,192,198529,1,0,0:0:0:0:
182,192,198529,128,0,198719:0:0:0:0:
402,192,198624,1,0,0:0:0:0:
109,192,198719,1,0,0:0:0:0:
36,192,198719,1,0,0:0:0:0:
256,192,198814,1,0,0:0:0:0:
475,192,198909,1,0,0:0:0:0:
329,192,198909,128,0,199099:0:0:0:0:
182,192,199004,1,0,0:0:0:0:
109,192,199099,1,0,0:0:0:0:
402,192,199099,1,0,0:0:0:0:
256,192,199099,1,0,0:0:0:0:
475,192,199099,1,0,0:0:0:0:
36,192,199194,1,0,0:0:0:0:
182,192,199289,128,0,199479:0:0:0:0:
329,192,199289,1,0,0:0:0:0:
402,192,199384,1,0,0:0:0:0:
256,192,199479,1,0,0:0:0:0:
475,192,199479,1,0,0:0:0:0:
109,192,199574,1,0,0:0:0:0:
182,192,199669,1,0,0:0:0:0:
475,192,199669,1,0,0:0:0:0:
36,192,199669,128,0,199859:0:0:0:0:
329,192,199669,1,0,0:0:0:0:
402,192,199764,1,0,0:0:0:0:
256,192,199859,1,0,0:0:0:0:
329,192,199859,1,0,0:0:0:0:
109,192,199953,1,0,0:0:0:0:
402,192,200048,1,0,0:0:0:0:
36,192,200048,1,0,0:0:0:0:
475,192,200048,128,0,200238:0:0:0:0:
256,192,200048,1,0,0:0:0:0:
182,192,200143,1,0,0:0:0:0:
329,192,200238,1,0,0:0:0:0:
109,192,200238,1,0,0:0:0:0:
402,192,200333,1,0,0:0:0:0:
475,192,200428,1,0,0:0:0:0:
256,192,200428,1,0,0:0:0:0:
36,192,200428,128,0,200618:0:0:0:0:
402,192,200523,1,0,0:0:0:0:
182,192,200523,1,0,0:0:0:0:
329,192,200618,1,0,0:0:0:0:
109,192,200618,1,0,0:0:0:0:
256,192,200713,1,0,0:0:0:0:
36,192,200713,1,0,0:0:0:0:
329,192,200808,1,0,0:0:0:0:
475,192,200808,1,0,0:0:0:0:
109,192,200808,1,0,0:0:0:0:
182,192,200808,128,0,200998:0:0:0:0:
402,192,200903,1,0,0:0:0:0:
36,192,200998,1,0,0:0:0:0:
475,192,200998,1,0,0:0:0:0:
256,192,201093,1,0,0:0:0:0:
329,192,201188,1,0,0:0:0:0:
109,192,201188,1,0,0:0:0:0:
402,192,201188,128,0,201377:0:0:0:0:
36,192,201377,1,0,0:0:0:0:
182,192,201377,1,0,0:0:0:0:
475,192,201377,1,0,0:0:0:0:
256,192,201472,1,0,0:0:0:0:
329,192,201567,1,0,0:0:0:0:
109,192,201567,128,0,201757:0:0:0:0:
475,192,201662,1,0,0:0:0:0:
182,192,201757,1,0,0:0:0:0:
402,192,201757,1,0,0:0:0:0:
36,192,201852,1,0,0:0:0:0:
109,192,201947,1,0,0:0:0:0:
475,192,201947,1,0,0:0:0:0:
329,192,201947,128,0,202137:0:0:0:0:
256,192,202042,1,0,0:0:0:0:
402,192,202137,1,0,0:0:0:0:
109,192,202137,1,0,0:0:0:0:
182,192,202232,1,0,0:0:0:0:
329,192,202327,1,0,0:0:0:0:
475,192,202327,1,0,0:0:0:0:
36,192,202327,1,0,0:0:0:0:
256,192,202327,128,0,202517:0:0:0:0:
109,192,202422,1,0,0:0:0:0:
402,192,202517,1,0,0:0:0:0:
475,192,202517,1,0,0:0:0:0:
182,192,202612,1,0,0:0:0:0:
36,192,202707,1,0,0:0:0:0:
256,192,202707,1,0,0:0:0:0:
475,192,202707,128,0,202896:0:0:0:0:
329,192,202802,1,0,0:0:0:0:
109,192,202802,1,0,0:0:0:0:
402,192,202896,1,0,0:0:0:0:
182,192,202896,1,0,0:0:0:0:
329,192,202991,1,0,0:0:0:0:
109,192,202991,1,0,0:0:0:0:
36,192,203086,1,0,0:0:0:0:
475,192,203086,1,0,0:0:0:0:
256,192,203086,128,0,203276:0:0:0:0:
182,192,203086,1,0,0:0:0:0:
402,192,203181,1,0,0:0:0:0:
329,192,203276,1,0,0:0:0:0:
109,192,203276,1,0,0:0:0:0:
475,192,203371,1,0,0:0:0:0:
402,192,203466,1,0,0:0:0:0:
182,192,203466,1,0,0:0:0:0:
36,192,203561,1,0,0:0:0:0:
109,192,203656,1,0,0:0:0:0:
475,192,203656,1,0,0:0:0:0:
329,192,203656,128,0,203846:0:0:0:0:
256,192,203751,1,0,0:0:0:0:
402,192,203846,1,0,0:0:0:0:
182,192,203846,1,0,0:0:0:0:
36,192,203941,1,0,0:0:0:0:
109,192,204036,128,0,204226:0:0:0:0:
256,192,204036,1,0,0:0:0:0:
402,192,204131,1,0,0:0:0:0:
475,192,204226,5,0,0:0:0:0:
182,192,204226,1,0,0:0:0:0:
329,192,204226,1,0,0:0:0:0:
36,192,204321,1,0,0:0:0:0:
256,192,204415,1,0,0:0:0:0:
402,192,204415,128,0,204605:0:0:0:0:
329,192,204510,1,0,0:0:0:0:
182,192,204605,1,0,0:0:0:0:
109,192,204605,1,0,0:0:0:0:
475,192,204605,1,0,0:0:0:0:
329,192,204700,1,0,0:0:0:0:
36,192,204795,1,0,0:0:0:0:
256,192,204795,128,0,204985:0:0:0:0:
109,192,204890,1,0,0:0:0:0:
329,192,204985,1,0,0:0:0:0:
36,192,204985,1,0,0:0:0:0:
182,192,204985,1,0,0:0:0:0:
475,192,205080,1,0,0:0:0:0:
402,192,205080,1,0,0:0:0:0:
182,192,205175,1,0,0:0:0:0:
256,192,205175,1,0,0:0:0:0:
329,192,205270,1,0,0:0:0:0:
109,192,205270,1,0,0:0:0:0:
256,192,205365,1,0,0:0:0:0:
36,192,205365,1,0,0:0:0:0:
475,192,205365,1,0,0:0:0:0:
182,192,205460,1,0,0:0:0:0:
329,192,205460,1,0,0:0:0:0:
475,192,205555,1,0,0:0:0:0:
402,192,205555,1,0,0:0:0:0:
256,192,205650,1,0,0:0:0:0:
109,192,205745,1,0,0:0:0:0:
36,192,205745,1,0,0:0:0:0:
329,192,205840,1,0,0:0:0:0:
475,192,205934,1,0,0:0:0:0:
402,192,205934,1,0,0:0:0:0:
36,192,205934,1,0,0:0:0:0:
182,192,205934,1,0,0:0:0:0:
256,192,205934,1,0,0:0:0:0:
109,192,206029,1,0,0:0:0:0:
329,192,206029,1,0,0:0:0:0:
182,192,206124,1,0,0:0:0:0:
402,192,206124,1,0,0:0:0:0:
36,192,206219,1,0,0:0:0:0:
402,192,206314,1,0,0:0:0:0:
256,192,206314,1,0,0:0:0:0:
182,192,206409,1,0,0:0:0:0:
109,192,206504,1,0,0:0:0:0:
36,192,206504,1,0,0:0:0:0:
329,192,206504,1,0,0:0:0:0:
475,192,206504,1,0,0:0:0:0:
402,192,206504,1,0,0:0:0:0:
182,192,206599,1,0,0:0:0:0:
256,192,206599,1,0,0:0:0:0:
329,192,206694,1,0,0:0:0:0:
109,192,206694,1,0,0:0:0:0:
256,192,206789,1,0,0:0:0:0:
182,192,206884,1,0,0:0:0:0:
109,192,206884,1,0,0:0:0:0:
36,192,206884,1,0,0:0:0:0:
402,192,206884,1,0,0:0:0:0:
475,192,206884,1,0,0:0:0:0:
329,192,206979,1,0,0:0:0:0:
256,192,207074,1,0,0:0:0:0:
36,192,207074,1,0,0:0:0:0:
182,192,207169,1,0,0:0:0:0:
109,192,207264,1,0,0:0:0:0:
36,192,207264,1,0,0:0:0:0:
475,192,207264,1,0,0:0:0:0:
402,192,207264,1,0,0:0:0:0:
256,192,207264,1,0,0:0:0:0:
329,192,207359,1,0,0:0:0:0:
182,192,207359,1,0,0:0:0:0:
475,192,207453,1,0,0:0:0:0:
402,192,207453,1,0,0:0:0:0:
329,192,207548,1,0,0:0:0:0:
256,192,207548,1,0,0:0:0:0:
182,192,207643,1,0,0:0:0:0:
109,192,207643,1,0,0:0:0:0:
36,192,207643,1,0,0:0:0:0:
402,192,207643,1,0,0:0:0:0:
475,192,207643,1,0,0:0:0:0:
329,192,207738,1,0,0:0:0:0:
256,192,207738,1,0,0:0:0:0:
109,192,207833,1,0,0:0:0:0:
182,192,207833,1,0,0:0:0:0:
36,192,207928,1,0,0:0:0:0:
256,192,208023,1,0,0:0:0:0:
329,192,208023,1,0,0:0:0:0:
475,192,208118,1,0,0:0:0:0:
329,192,208213,1,0,0:0:0:0:
109,192,208213,1,0,0:0:0:0:
36,192,208213,1,0,0:0:0:0:
182,192,208213,1,0,0:0:0:0:
402,192,208213,1,0,0:0:0:0:
256,192,208308,1,0,0:0:0:0:
475,192,208308,1,0,0:0:0:0:
182,192,208403,1,0,0:0:0:0:
329,192,208403,1,0,0:0:0:0:
109,192,208498,1,0,0:0:0:0:
36,192,208593,1,0,0:0:0:0:
256,192,208593,1,0,0:0:0:0:
329,192,208688,1,0,0:0:0:0:
182,192,208783,1,0,0:0:0:0:
109,192,208783,1,0,0:0:0:0:
475,192,208783,1,0,0:0:0:0:
36,192,208783,1,0,0:0:0:0:
402,192,208783,1,0,0:0:0:0:
256,192,208877,1,0,0:0:0:0:
329,192,208877,1,0,0:0:0:0:
182,192,208972,1,0,0:0:0:0:
36,192,208972,1,0,0:0:0:0:
475,192,209067,1,0,0:0:0:0:
109,192,209162,1,0,0:0:0:0:
256,192,209162,1,0,0:0:0:0:
402,192,209162,1,0,0:0:0:0:
329,192,209162,1,0,0:0:0:0:
36,192,209162,1,0,0:0:0:0:
475,192,209257,1,0,0:0:0:0:
182,192,209257,1,0,0:0:0:0:
402,192,209352,1,0,0:0:0:0:
329,192,209352,1,0,0:0:0:0:
256,192,209447,1,0,0:0:0:0:
182,192,209542,1,0,0:0:0:0:
109,192,209542,1,0,0:0:0:0:
36,192,209542,1,0,0:0:0:0:
475,192,209542,1,0,0:0:0:0:
402,192,209542,1,0,0:0:0:0:
329,192,209637,1,0,0:0:0:0:
256,192,209637,1,0,0:0:0:0:
182,192,209732,1,0,0:0:0:0:
475,192,209732,1,0,0:0:0:0:
109,192,209827,1,0,0:0:0:0:
36,192,209922,1,0,0:0:0:0:
256,192,209922,1,0,0:0:0:0:
329,192,209922,1,0,0:0:0:0:
402,192,209922,1,0,0:0:0:0:
475,192,209922,1,0,0:0:0:0:
182,192,210017,1,0,0:0:0:0:
109,192,210017,1,0,0:0:0:0:
256,192,210112,1,0,0:0:0:0:
402,192,210112,1,0,0:0:0:0:
329,192,210207,1,0,0:0:0:0:
402,192,210302,1,0,0:0:0:0:
182,192,210302,1,0,0:0:0:0:
109,192,210396,1,0,0:0:0:0:
36,192,210491,1,0,0:0:0:0:
182,192,210491,1,0,0:0:0:0:
256,192,210491,1,0,0:0:0:0:
329,192,210491,1,0,0:0:0:0:
475,192,210491,1,0,0:0:0:0:
402,192,210586,1,0,0:0:0:0:
109,192,210586,1,0,0:0:0:0:
182,192,210681,1,0,0:0:0:0:
329,192,210681,1,0,0:0:0:0:
402,192,210776,1,0,0:0:0:0:
475,192,210871,1,0,0:0:0:0:
256,192,210871,1,0,0:0:0:0:
182,192,210966,1,0,0:0:0:0:
109,192,211061,1,0,0:0:0:0:
36,192,211061,1,0,0:0:0:0:
329,192,211061,1,0,0:0:0:0:
256,192,211061,1,0,0:0:0:0:
402,192,211061,1,0,0:0:0:0:
475,192,211156,1,0,0:0:0:0:
182,192,211156,1,0,0:0:0:0:
402,192,211251,1,0,0:0:0:0:
329,192,211251,1,0,0:0:0:0:
256,192,211346,1,0,0:0:0:0:
182,192,211441,1,0,0:0:0:0:
109,192,211441,1,0,0:0:0:0:
36,192,211441,1,0,0:0:0:0:
475,192,211441,1,0,0:0:0:0:
402,192,211441,1,0,0:0:0:0:
329,192,211536,1,0,0:0:0:0:
256,192,211536,1,0,0:0:0:0:
182,192,211631,1,0,0:0:0:0:
36,192,211631,1,0,0:0:0:0:
109,192,211726,1,0,0:0:0:0:
475,192,211821,1,0,0:0:0:0:
329,192,211821,1,0,0:0:0:0:
256,192,211821,1,0,0:0:0:0:
182,192,211821,1,0,0:0:0:0:
36,192,211821,1,0,0:0:0:0:
402,192,211915,1,0,0:0:0:0:
109,192,211915,1,0,0:0:0:0:
329,192,212010,1,0,0:0:0:0:
182,192,212010,1,0,0:0:0:0:
402,192,212105,1,0,0:0:0:0:
475,192,212200,1,0,0:0:0:0:
329,192,212200,1,0,0:0:0:0:
36,192,212200,1,0,0:0:0:0:
109,192,212200,1,0,0:0:0:0:
256,192,212200,1,0,0:0:0:0:
182,192,212295,1,0,0:0:0:0:
402,192,212295,1,0,0:0:0:0:
256,192,212390,1,0,0:0:0:0:
475,192,212390,1,0,0:0:0:0:
109,192,212485,1,0,0:0:0:0:
36,192,212580,1,0,0:0:0:0:
329,192,212580,1,0,0:0:0:0:
256,192,212675,1,0,0:0:0:0:
182,192,212770,1,0,0:0:0:0:
109,192,212770,1,0,0:0:0:0:
402,192,212770,1,0,0:0:0:0:
475,192,212770,1,0,0:0:0:0:
36,192,212770,1,0,0:0:0:0:
329,192,212865,1,0,0:0:0:0:
256,192,212865,1,0,0:0:0:0:
182,192,212960,1,0,0:0:0:0:
36,192,212960,1,0,0:0:0:0:
109,192,213055,1,0,0:0:0:0:
256,192,213150,1,0,0:0:0:0:
402,192,213150,1,0,0:0:0:0:
475,192,213245,1,0,0:0:0:0:
329,192,213340,1,0,0:0:0:0:
402,192,213340,1,0,0:0:0:0:
182,192,213340,1,0,0:0:0:0:
36,192,213340,1,0,0:0:0:0:
109,192,213340,1,0,0:0:0:0:
256,192,213434,1,0,0:0:0:0:
475,192,213434,1,0,0:0:0:0:
402,192,213529,1,0,0:0:0:0:
182,192,213529,1,0,0:0:0:0:
36,192,213624,1,0,0:0:0:0:
109,192,213719,1,0,0:0:0:0:
182,192,213719,1,0,0:0:0:0:
329,192,213719,1,0,0:0:0:0:
475,192,213719,1,0,0:0:0:0:
256,192,213719,1,0,0:0:0:0:
402,192,213814,1,0,0:0:0:0:
36,192,213814,1,0,0:0:0:0:
109,192,213909,1,0,0:0:0:0:
329,192,213909,1,0,0:0:0:0:
475,192,214004,1,0,0:0:0:0:
402,192,214099,1,0,0:0:0:0:
182,192,214099,1,0,0:0:0:0:
36,192,214099,1,0,0:0:0:0:
109,192,214099,1,0,0:0:0:0:
329,192,214099,1,0,0:0:0:0:
256,192,214194,1,0,0:0:0:0:
475,192,214194,1,0,0:0:0:0:
329,192,214289,1,0,0:0:0:0:
36,192,214289,1,0,0:0:0:0:
109,192,214384,1,0,0:0:0:0:
182,192,214479,1,0,0:0:0:0:
36,192,214479,1,0,0:0:0:0:
256,192,214479,1,0,0:0:0:0:
475,192,214479,1,0,0:0:0:0:
402,192,214479,1,0,0:0:0:0:
329,192,214574,1,0,0:0:0:0:
109,192,214574,1,0,0:0:0:0:
475,192,214669,1,0,0:0:0:0:
256,192,214669,1,0,0:0:0:0:
402,192,214764,1,0,0:0:0:0:
329,192,214859,1,0,0:0:0:0:
182,192,214859,1,0,0:0:0:0:
36,192,214953,1,0,0:0:0:0:
109,192,215048,1,0,0:0:0:0:
256,192,215048,1,0,0:0:0:0:
475,192,215048,1,0,0:0:0:0:
402,192,215048,1,0,0:0:0:0:
182,192,215048,1,0,0:0:0:0:
329,192,215143,1,0,0:0:0:0:
36,192,215143,1,0,0:0:0:0:
109,192,215238,1,0,0:0:0:0:
402,192,215238,1,0,0:0:0:0:
256,192,215333,1,0,0:0:0:0:
182,192,215428,1,0,0:0:0:0:
36,192,215428,1,0,0:0:0:0:
329,192,215523,1,0,0:0:0:0:
402,192,215618,1,0,0:0:0:0:
475,192,215618,1,0,0:0:0:0:
256,192,215618,1,0,0:0:0:0:
109,192,215618,1,0,0:0:0:0:
182,192,215618,1,0,0:0:0:0:
36,192,215713,1,0,0:0:0:0:
329,192,215713,1,0,0:0:0:0:
109,192,215808,1,0,0:0:0:0:
256,192,215808,1,0,0:0:0:0:
182,192,215903,1,0,0:0:0:0:
329,192,215998,1,0,0:0:0:0:
256,192,215998,1,0,0:0:0:0:
36,192,215998,1,0,0:0:0:0:
109,192,215998,1,0,0:0:0:0:
475,192,215998,1,0,0:0:0:0:
402,192,216093,1,0,0:0:0:0:
182,192,216093,1,0,0:0:0:0:
256,192,216188,1,0,0:0:0:0:
475,192,216188,1,0,0:0:0:0:
109,192,216283,1,0,0:0:0:0:
36,192,216377,1,0,0:0:0:0:
182,192,216377,1,0,0:0:0:0:
329,192,216377,1,0,0:0:0:0:
475,192,216377,1,0,0:0:0:0:
256,192,216377,1,0,0:0:0:0:
109,192,216472,1,0,0:0:0:0:
402,192,216472,1,0,0:0:0:0:
329,192,216567,1,0,0:0:0:0:
182,192,216567,1,0,0:0:0:0:
36,192,216662,1,0,0:0:0:0:
109,192,216757,1,0,0:0:0:0:
256,192,216757,1,0,0:0:0:0:
182,192,216757,1,0,0:0:0:0:
475,192,216757,1,0,0:0:0:0:
329,192,216757,1,0,0:0:0:0:
402,192,216852,1,0,0:0:0:0:
36,192,216852,1,0,0:0:0:0:
109,192,216947,1,0,0:0:0:0:
329,192,216947,1,0,0:0:0:0:
256,192,217042,1,0,0:0:0:0:
475,192,217137,1,0,0:0:0:0:
402,192,217137,1,0,0:0:0:0:
182,192,217232,1,0,0:0:0:0:
36,192,217327,1,0,0:0:0:0:
109,192,217327,1,0,0:0:0:0:
329,192,217327,1,0,0:0:0:0:
475,192,217327,1,0,0:0:0:0:
256,192,217327,1,0,0:0:0:0:
182,192,217422,1,0,0:0:0:0:
402,192,217422,1,0,0:0:0:0:
329,192,217517,1,0,0:0:0:0:
36,192,217517,1,0,0:0:0:0:
109,192,217612,1,0,0:0:0:0:
182,192,217707,1,0,0:0:0:0:
256,192,217707,1,0,0:0:0:0:
402,192,217802,1,0,0:0:0:0:
182,192,217896,1,0,0:0:0:0:
329,192,217896,1,0,0:0:0:0:
475,192,217896,1,0,0:0:0:0:
36,192,217896,1,0,0:0:0:0:
109,192,217896,1,0,0:0:0:0:
256,192,217991,1,0,0:0:0:0:
402,192,217991,1,0,0:0:0:0:
182,192,218086,1,0,0:0:0:0:
475,192,218086,1,0,0:0:0:0:
109,192,218181,1,0,0:0:0:0:
182,192,218276,1,0,0:0:0:0:
36,192,218276,1,0,0:0:0:0:
402,192,218276,1,0,0:0:0:0:
256,192,218276,1,0,0:0:0:0:
329,192,218276,1,0,0:0:0:0:
475,192,218371,1,0,0:0:0:0:
109,192,218371,1,0,0:0:0:0:
182,192,218466,1,0,0:0:0:0:
402,192,218466,1,0,0:0:0:0:
329,192,218561,1,0,0:0:0:0:
109,192,218656,1,0,0:0:0:0:
256,192,218656,1,0,0:0:0:0:
402,192,218656,1,0,0:0:0:0:
36,192,218656,1,0,0:0:0:0:
475,192,218656,1,0,0:0:0:0:
182,192,218751,1,0,0:0:0:0:
329,192,218846,1,0,0:0:0:0:
475,192,218846,1,0,0:0:0:0:
256,192,218941,1,0,0:0:0:0:
182,192,219036,1,0,0:0:0:0:
109,192,219036,1,0,0:0:0:0:
36,192,219036,1,0,0:0:0:0:
402,192,219036,1,0,0:0:0:0:
329,192,219036,1,0,0:0:0:0:
256,192,219131,1,0,0:0:0:0:
475,192,219131,1,0,0:0:0:0:
182,192,219226,1,0,0:0:0:0:
329,192,219226,1,0,0:0:0:0:
109,192,219321,1,0,0:0:0:0:
402,192,219321,1,0,0:0:0:0:
36,192,219415,1,0,0:0:0:0:
475,192,219415,1,0,0:0:0:0:
182,192,219510,1,0,0:0:0:0:
402,192,219605,1,0,0:0:0:0:
109,192,219605,1,0,0:0:0:0:
36,192,219605,1,0,0:0:0:0:
475,192,219605,1,0,0:0:0:0:
329,192,219605,1,0,0:0:0:0:
182,192,219700,1,0,0:0:0:0:
256,192,219700,1,0,0:0:0:0:
109,192,219795,1,0,0:0:0:0:
329,192,219795,1,0,0:0:0:0:
402,192,219890,1,0,0:0:0:0:
36,192,219890,1,0,0:0:0:0:
182,192,219985,1,0,0:0:0:0:
475,192,219985,1,0,0:0:0:0:
256,192,220080,1,0,0:0:0:0:
109,192,220175,1,0,0:0:0:0:
182,192,220175,1,0,0:0:0:0:
329,192,220175,1,0,0:0:0:0:
36,192,220175,1,0,0:0:0:0:
402,192,220175,1,0,0:0:0:0:
256,192,220270,1,0,0:0:0:0:
475,192,220270,1,0,0:0:0:0:
36,192,220365,1,0,0:0:0:0:
402,192,220365,1,0,0:0:0:0:
109,192,220460,1,0,0:0:0:0:
182,192,220555,1,0,0:0:0:0:
256,192,220555,1,0,0:0:0:0:
475,192,220555,1,0,0:0:0:0:
329,192,220555,1,0,0:0:0:0:
36,192,220555,1,0,0:0:0:0:
402,192,220650,1,0,0:0:0:0:
109,192,220650,1,0,0:0:0:0:
329,192,220745,1,0,0:0:0:0:
182,192,220745,1,0,0:0:0:0:
36,192,220840,1,0,0:0:0:0:
109,192,220934,1,0,0:0:0:0:
182,192,220934,1,0,0:0:0:0:
256,192,220934,1,0,0:0:0:0:
475,192,220934,1,0,0:0:0:0:
402,192,220934,1,0,0:0:0:0:
329,192,221029,1,0,0:0:0:0:
36,192,221029,1,0,0:0:0:0:
182,192,221124,1,0,0:0:0:0:
475,192,221124,1,0,0:0:0:0:
256,192,221219,1,0,0:0:0:0:
329,192,221314,1,0,0:0:0:0:
402,192,221314,1,0,0:0:0:0:
109,192,221314,1,0,0:0:0:0:
36,192,221314,1,0,0:0:0:0:
475,192,221314,1,0,0:0:0:0:
182,192,221409,1,0,0:0:0:0:
256,192,221409,1,0,0:0:0:0:
36,192,221504,1,0,0:0:0:0:
402,192,221504,1,0,0:0:0:0:
109,192,221599,1,0,0:0:0:0:
475,192,221599,1,0,0:0:0:0:
256,192,221694,1,0,0:0:0:0:
182,192,221694,1,0,0:0:0:0:
329,192,221789,1,0,0:0:0:0:
109,192,221884,1,0,0:0:0:0:
256,192,221884,1,0,0:0:0:0:
36,192,221884,1,0,0:0:0:0:
402,192,221884,1,0,0:0:0:0:
475,192,221884,1,0,0:0:0:0:
182,192,221979,1,0,0:0:0:0:
329,192,221979,1,0,0:0:0:0:
402,192,222074,1,0,0:0:0:0:
109,192,222074,1,0,0:0:0:0:
36,192,222169,1,0,0:0:0:0:
475,192,222169,1,0,0:0:0:0:
329,192,222264,1,0,0:0:0:0:
182,192,222264,1,0,0:0:0:0:
256,192,222359,1,0,0:0:0:0:
109,192,222453,5,0,0:0:0:0:
36,192,222453,1,0,0:0:0:0:
402,192,222453,1,0,0:0:0:0:
475,192,222453,1,0,0:0:0:0:
329,192,222548,1,0,0:0:0:0:
182,192,222548,1,0,0:0:0:0:
109,192,222643,1,0,0:0:0:0:
256,192,222643,1,0,0:0:0:0:
402,192,222738,1,0,0:0:0:0:
329,192,222833,1,0,0:0:0:0:
182,192,222833,1,0,0:0:0:0:
36,192,222833,1,0,0:0:0:0:
475,192,222833,1,0,0:0:0:0:
109,192,222833,1,0,0:0:0:0:
256,192,222928,1,0,0:0:0:0:
402,192,222928,1,0,0:0:0:0:
182,192,223023,1,0,0:0:0:0:
475,192,223023,1,0,0:0:0:0:
109,192,223118,1,0,0:0:0:0:
36,192,223213,1,0,0:0:0:0:
256,192,223213,1,0,0:0:0:0:
329,192,223213,1,0,0:0:0:0:
402,192,223213,1,0,0:0:0:0:
475,192,223213,1,0,0:0:0:0:
182,192,223308,1,0,0:0:0:0:
109,192,223308,1,0,0:0:0:0:
36,192,223403,1,0,0:0:0:0:
256,192,223403,1,0,0:0:0:0:
329,192,223498,1,0,0:0:0:0:
182,192,223593,128,0,224352:0:0:0:0:
402,192,223593,1,0,0:0:0:0:
475,192,223593,1,0,0:0:0:0:
109,192,223593,1,0,0:0:0:0:
36,192,223593,128,0,225112:0:0:0:0:
256,192,223783,1,0,0:0:0:0:
402,192,223783,128,0,223972:0:0:0:0:
475,192,223972,128,0,224732:0:0:0:0:
109,192,223972,128,0,224352:0:0:0:0:
256,192,223972,1,0,0:0:0:0:
402,192,224162,1,0,0:0:0:0:
329,192,224162,128,0,224352:0:0:0:0:
402,192,224352,128,0,225112:0:0:0:0:
256,192,224352,128,0,224732:0:0:0:0:
182,192,224542,1,0,0:0:0:0:
109,192,224542,128,0,224732:0:0:0:0:
182,192,224732,128,0,225491:0:0:0:0:
329,192,224732,128,0,225112:0:0:0:0:
475,192,224922,1,0,0:0:0:0:
256,192,224922,1,0,0:0:0:0:
475,192,225112,128,0,226631:0:0:0:0:
109,192,225112,128,0,225871:0:0:0:0:
256,192,225112,128,0,225491:0:0:0:0:
36,192,225302,1,0,0:0:0:0:
329,192,225302,128,0,225491:0:0:0:0:
36,192,225491,128,0,226251:0:0:0:0:
402,192,225491,128,0,225871:0:0:0:0:
182,192,225681,1,0,0:0:0:0:
256,192,225681,128,0,225871:0:0:0:0:
329,192,225871,128,0,226631:0:0:0:0:
182,192,225871,128,0,226251:0:0:0:0:
109,192,226061,1,0,0:0:0:0:
256,192,226061,128,0,226251:0:0:0:0:
402,192,226251,128,0,227010:0:0:0:0:
109,192,226251,128,0,226631:0:0:0:0:
36,192,226441,1,0,0:0:0:0:
182,192,226441,1,0,0:0:0:0:
256,192,226631,128,0,228150:0:0:0:0:
182,192,226631,128,0,227390:0:0:0:0:
36,192,226631,128,0,227010:0:0:0:0:
475,192,226821,1,0,0:0:0:0:
329,192,226821,128,0,227010:0:0:0:0:
475,192,227010,128,0,227390:0:0:0:0:
109,192,227010,128,0,227770:0:0:0:0:
36,192,227200,1,0,0:0:0:0:
402,192,227200,128,0,227390:0:0:0:0:
329,192,227390,128,0,227770:0:0:0:0:
36,192,227390,128,0,228150:0:0:0:0:
475,192,227580,1,0,0:0:0:0:
182,192,227580,128,0,227770:0:0:0:0:
475,192,227770,128,0,228529:0:0:0:0:
402,192,227770,128,0,228150:0:0:0:0:
329,192,227960,1,0,0:0:0:0:
109,192,227960,1,0,0:0:0:0:
182,192,228150,128,0,229669:0:0:0:0:
329,192,228150,128,0,228909:0:0:0:0:
109,192,228150,128,0,228529:0:0:0:0:
36,192,228340,1,0,0:0:0:0:
256,192,228340,128,0,228529:0:0:0:0:
36,192,228529,128,0,228909:0:0:0:0:
402,192,228529,1,0,0:0:0:0:
109,192,228719,1,0,0:0:0:0:
475,192,228719,128,0,228909:0:0:0:0:
256,192,228909,128,0,229289:0:0:0:0:
109,192,228909,1,0,0:0:0:0:
402,192,228909,1,0,0:0:0:0:
36,192,229099,1,0,0:0:0:0:
329,192,229099,1,0,0:0:0:0:
109,192,229289,1,0,0:0:0:0:
402,192,229289,1,0,0:0:0:0:
475,192,229289,1,0,0:0:0:0:
329,192,229479,1,0,0:0:0:0:
36,192,229479,1,0,0:0:0:0:
109,192,229479,1,0,0:0:0:0:
475,192,229479,1,0,0:0:0:0:
402,192,229669,128,0,231188:0:0:0:0:
36,192,229669,128,0,230428:0:0:0:0:
256,192,229669,1,0,0:0:0:0:
475,192,229669,128,0,230048:0:0:0:0:
182,192,229859,1,0,0:0:0:0:
329,192,229859,128,0,230048:0:0:0:0:
256,192,230048,128,0,230808:0:0:0:0:
109,192,230048,128,0,230428:0:0:0:0:
182,192,230048,1,0,0:0:0:0:
329,192,230238,1,0,0:0:0:0:
475,192,230238,128,0,230428:0:0:0:0:
182,192,230428,128,0,231188:0:0:0:0:
329,192,230428,128,0,230808:0:0:0:0:
109,192,230618,1,0,0:0:0:0:
36,192,230618,128,0,230808:0:0:0:0:
475,192,230808,128,0,231188:0:0:0:0:
109,192,230808,1,0,0:0:0:0:
329,192,230998,1,0,0:0:0:0:
36,192,230998,1,0,0:0:0:0:
256,192,230998,128,0,231188:0:0:0:0:
109,192,231188,128,0,232707:0:0:0:0:
329,192,231188,128,0,231947:0:0:0:0:
36,192,231188,128,0,231567:0:0:0:0:
475,192,231377,1,0,0:0:0:0:
402,192,231377,128,0,231567:0:0:0:0:
475,192,231567,128,0,232327:0:0:0:0:
182,192,231567,128,0,231947:0:0:0:0:
256,192,231567,1,0,0:0:0:0:
256,192,231757,1,0,0:0:0:0:
36,192,231757,128,0,231947:0:0:0:0:
402,192,231947,128,0,232707:0:0:0:0:
256,192,231947,128,0,232327:0:0:0:0:
182,192,232137,1,0,0:0:0:0:
36,192,232137,128,0,232327:0:0:0:0:
182,192,232327,128,0,233086:0:0:0:0:
329,192,232327,128,0,232707:0:0:0:0:
256,192,232517,1,0,0:0:0:0:
475,192,232517,1,0,0:0:0:0:
256,192,232707,128,0,234226:0:0:0:0:
36,192,232707,128,0,233466:0:0:0:0:
475,192,232707,128,0,233086:0:0:0:0:
109,192,232896,1,0,0:0:0:0:
329,192,232896,128,0,233086:0:0:0:0:
402,192,233086,128,0,233846:0:0:0:0:
109,192,233086,128,0,233466:0:0:0:0:
182,192,233276,1,0,0:0:0:0:
475,192,233276,128,0,233466:0:0:0:0:
329,192,233466,128,0,234226:0:0:0:0:
182,192,233466,128,0,233846:0:0:0:0:
36,192,233656,1,0,0:0:0:0:
475,192,233656,128,0,233846:0:0:0:0:
36,192,233846,128,0,234605:0:0:0:0:
109,192,233846,128,0,234226:0:0:0:0:
182,192,234036,1,0,0:0:0:0:
402,192,234036,1,0,0:0:0:0:
182,192,234226,128,0,234985:0:0:0:0:
402,192,234226,128,0,234605:0:0:0:0:
475,192,234226,128,0,235745:0:0:0:0:
329,192,234415,1,0,0:0:0:0:
256,192,234415,128,0,234605:0:0:0:0:
329,192,234605,128,0,234985:0:0:0:0:
109,192,234605,1,0,0:0:0:0:
402,192,234795,1,0,0:0:0:0:
36,192,234795,1,0,0:0:0:0:
36,192,234985,128,0,235365:0:0:0:0:
256,192,234985,1,0,0:0:0:0:
402,192,234985,1,0,0:0:0:0:
109,192,234985,1,0,0:0:0:0:
182,192,235175,1,0,0:0:0:0:
329,192,235175,1,0,0:0:0:0:
256,192,235365,1,0,0:0:0:0:
109,192,235365,1,0,0:0:0:0:
402,192,235365,1,0,0:0:0:0:
329,192,235555,1,0,0:0:0:0:
182,192,235555,1,0,0:0:0:0:
36,192,235555,1,0,0:0:0:0:
402,192,235555,1,0,0:0:0:0:
36,192,235745,128,0,237264:0:0:0:0:
256,192,235745,1,0,0:0:0:0:
182,192,235745,128,0,236504:0:0:0:0:
329,192,235745,128,0,236124:0:0:0:0:
109,192,235745,1,0,0:0:0:0:
402,192,235934,128,0,236124:0:0:0:0:
256,192,235934,1,0,0:0:0:0:
256,192,236124,1,0,0:0:0:0:
109,192,236124,128,0,236504:0:0:0:0:
475,192,236124,128,0,236884:0:0:0:0:
402,192,236314,1,0,0:0:0:0:
329,192,236314,128,0,236504:0:0:0:0:
256,192,236504,128,0,236884:0:0:0:0:
402,192,236504,128,0,237264:0:0:0:0:
182,192,236694,1,0,0:0:0:0:
109,192,236694,128,0,236884:0:0:0:0:
182,192,236884,128,0,237643:0:0:0:0:
329,192,236884,128,0,237264:0:0:0:0:
256,192,237074,1,0,0:0:0:0:
475,192,237074,1,0,0:0:0:0:
256,192,237264,128,0,237643:0:0:0:0:
109,192,237264,128,0,238023:0:0:0:0:
475,192,237264,128,0,238783:0:0:0:0:
36,192,237453,1,0,0:0:0:0:
329,192,237453,128,0,237643:0:0:0:0:
402,192,237643,128,0,238023:0:0:0:0:
36,192,237643,128,0,238403:0:0:0:0:
182,192,237833,1,0,0:0:0:0:
256,192,237833,128,0,238023:0:0:0:0:
182,192,238023,128,0,238403:0:0:0:0:
329,192,238023,128,0,238783:0:0:0:0:
109,192,238213,1,0,0:0:0:0:
256,192,238213,128,0,238403:0:0:0:0:
402,192,238403,128,0,239162:0:0:0:0:
109,192,238403,128,0,238783:0:0:0:0:
182,192,238593,1,0,0:0:0:0:
36,192,238593,1,0,0:0:0:0:
36,192,238783,128,0,239162:0:0:0:0:
182,192,238783,128,0,239542:0:0:0:0:
256,192,238783,128,0,240302:0:0:0:0:
475,192,238972,1,0,0:0:0:0:
329,192,238972,128,0,239162:0:0:0:0:
109,192,239162,128,0,239922:0:0:0:0:
475,192,239162,128,0,239542:0:0:0:0:
36,192,239352,1,0,0:0:0:0:
402,192,239352,128,0,239542:0:0:0:0:
36,192,239542,128,0,240302:0:0:0:0:
329,192,239542,128,0,239922:0:0:0:0:
402,192,239732,1,0,0:0:0:0:
182,192,239732,128,0,239922:0:0:0:0:
475,192,239922,128,0,240681:0:0:0:0:
402,192,239922,128,0,240302:0:0:0:0:
109,192,240112,1,0,0:0:0:0:
329,192,240112,1,0,0:0:0:0:
109,192,240302,128,0,240681:0:0:0:0:
329,192,240302,128,0,241061:0:0:0:0:
182,192,240302,128,0,241821:0:0:0:0:
402,192,240491,1,0,0:0:0:0:
256,192,240491,128,0,240681:0:0:0:0:
36,192,240681,128,0,241061:0:0:0:0:
109,192,240871,1,0,0:0:0:0:
475,192,240871,128,0,241061:0:0:0:0:
402,192,241061,1,0,0:0:0:0:
109,192,241061,1,0,0:0:0:0:
256,192,241061,128,0,241441:0:0:0:0:
329,192,241251,1,0,0:0:0:0:
36,192,241251,1,0,0:0:0:0:
475,192,241441,1,0,0:0:0:0:
402,192,241441,1,0,0:0:0:0:
109,192,241441,1,0,0:0:0:0:
109,192,241631,1,0,0:0:0:0:
475,192,241631,1,0,0:0:0:0:
329,192,241631,1,0,0:0:0:0:
36,192,241631,1,0,0:0:0:0:
402,192,241821,128,0,243340:0:0:0:0:
36,192,241821,128,0,242580:0:0:0:0:
475,192,241821,128,0,242200:0:0:0:0:
256,192,241821,1,0,0:0:0:0:
182,192,242010,1,0,0:0:0:0:
329,192,242010,128,0,242200:0:0:0:0:
256,192,242200,128,0,242960:0:0:0:0:
109,192,242200,128,0,242580:0:0:0:0:
182,192,242200,1,0,0:0:0:0:
329,192,242390,1,0,0:0:0:0:
475,192,242390,128,0,242580:0:0:0:0:
182,192,242580,128,0,243340:0:0:0:0:
329,192,242580,128,0,242960:0:0:0:0:
109,192,242770,1,0,0:0:0:0:
36,192,242770,128,0,242960:0:0:0:0:
475,192,242960,128,0,243340:0:0:0:0:
109,192,242960,1,0,0:0:0:0:
329,192,243150,1,0,0:0:0:0:
36,192,243150,1,0,0:0:0:0:
256,192,243150,128,0,243340:0:0:0:0:
109,192,243340,128,0,244859:0:0:0:0:
329,192,243340,128,0,244099:0:0:0:0:
36,192,243340,128,0,243719:0:0:0:0:
475,192,243529,1,0,0:0:0:0:
402,192,243529,128,0,243719:0:0:0:0:
475,192,243719,128,0,244479:0:0:0:0:
256,192,243719,1,0,0:0:0:0:
182,192,243719,128,0,244099:0:0:0:0:
256,192,243909,1,0,0:0:0:0:
36,192,243909,128,0,244099:0:0:0:0:
402,192,244099,128,0,244859:0:0:0:0:
256,192,244099,128,0,244479:0:0:0:0:
182,192,244289,1,0,0:0:0:0:
36,192,244289,128,0,244479:0:0:0:0:
182,192,244479,128,0,245238:0:0:0:0:
329,192,244479,128,0,244859:0:0:0:0:
256,192,244669,1,0,0:0:0:0:
475,192,244669,1,0,0:0:0:0:
256,192,244859,128,0,246377:0:0:0:0:
36,192,244859,128,0,245618:0:0:0:0:
475,192,244859,128,0,245238:0:0:0:0:
109,192,245048,1,0,0:0:0:0:
329,192,245048,128,0,245238:0:0:0:0:
402,192,245238,128,0,245998:0:0:0:0:
109,192,245238,128,0,245618:0:0:0:0:
182,192,245428,1,0,0:0:0:0:
475,192,245428,128,0,245618:0:0:0:0:
329,192,245618,128,0,246377:0:0:0:0:
182,192,245618,128,0,245998:0:0:0:0:
36,192,245808,1,0,0:0:0:0:
475,192,245808,128,0,245998:0:0:0:0:
36,192,245998,128,0,246757:0:0:0:0:
109,192,245998,128,0,246377:0:0:0:0:
182,192,246188,1,0,0:0:0:0:
402,192,246188,1,0,0:0:0:0:
182,192,246377,128,0,247137:0:0:0:0:
402,192,246377,128,0,246757:0:0:0:0:
475,192,246377,128,0,247896:0:0:0:0:
256,192,246567,128,0,246757:0:0:0:0:
329,192,246567,1,0,0:0:0:0:
329,192,246757,128,0,247137:0:0:0:0:
109,192,246757,1,0,0:0:0:0:
402,192,246947,1,0,0:0:0:0:
36,192,246947,1,0,0:0:0:0:
36,192,247137,128,0,247517:0:0:0:0:
256,192,247137,1,0,0:0:0:0:
402,192,247137,1,0,0:0:0:0:
109,192,247137,1,0,0:0:0:0:
182,192,247327,1,0,0:0:0:0:
329,192,247327,1,0,0:0:0:0:
256,192,247517,1,0,0:0:0:0:
109,192,247517,1,0,0:0:0:0:
402,192,247517,1,0,0:0:0:0:
329,192,247707,1,0,0:0:0:0:
182,192,247707,1,0,0:0:0:0:
36,192,247707,1,0,0:0:0:0:
402,192,247707,1,0,0:0:0:0:
182,192,247896,128,0,248086:0:0:0:0:
36,192,247896,128,0,249415:0:0:0:0:
402,192,247896,128,0,248656:0:0:0:0:
329,192,247896,1,0,0:0:0:0:
109,192,248086,128,0,248276:0:0:0:0:
256,192,248086,1,0,0:0:0:0:
256,192,248276,128,0,248466:0:0:0:0:
182,192,248276,1,0,0:0:0:0:
329,192,248276,1,0,0:0:0:0:
182,192,248466,128,0,248656:0:0:0:0:
109,192,248466,1,0,0:0:0:0:
329,192,248656,128,0,248846:0:0:0:0:
475,192,248656,128,0,249321:0:0:0:0:
256,192,248656,1,0,0:0:0:0:
109,192,248656,1,0,0:0:0:0:
256,192,248846,128,0,249036:0:0:0:0:
182,192,248846,1,0,0:0:0:0:
402,192,249036,128,0,249226:0:0:0:0:
109,192,249036,1,0,0:0:0:0:
329,192,249036,1,0,0:0:0:0:
256,192,249226,1,0,0:0:0:0:
329,192,249226,128,0,249321:0:0:0:0:
475,192,249415,128,0,250934:0:0:0:0:
109,192,249415,128,0,250175:0:0:0:0:
182,192,249415,1,0,0:0:0:0:
402,192,249415,1,0,0:0:0:0:
329,192,249415,128,0,249605:0:0:0:0:
402,192,249605,128,0,249795:0:0:0:0:
256,192,249605,1,0,0:0:0:0:
256,192,249795,128,0,249985:0:0:0:0:
182,192,249795,1,0,0:0:0:0:
329,192,249795,1,0,0:0:0:0:
329,192,249985,128,0,250175:0:0:0:0:
402,192,249985,1,0,0:0:0:0:
36,192,250175,128,0,250840:0:0:0:0:
182,192,250175,128,0,250365:0:0:0:0:
256,192,250175,1,0,0:0:0:0:
402,192,250175,1,0,0:0:0:0:
256,192,250365,128,0,250555:0:0:0:0:
329,192,250365,1,0,0:0:0:0:
109,192,250555,128,0,250745:0:0:0:0:
182,192,250555,1,0,0:0:0:0:
402,192,250555,1,0,0:0:0:0:
182,192,250745,128,0,250840:0:0:0:0:
256,192,250745,1,0,0:0:0:0:
329,192,250934,1,0,0:0:0:0:
256,192,250934,128,0,252453:0:0:0:0:
402,192,250934,128,0,251124:0:0:0:0:
109,192,250934,128,0,251124:0:0:0:0:
475,192,251124,128,0,251314:0:0:0:0:
182,192,251124,128,0,251314:0:0:0:0:
36,192,251124,1,0,0:0:0:0:
329,192,251124,1,0,0:0:0:0:
329,192,251314,128,0,251504:0:0:0:0:
36,192,251314,128,0,251504:0:0:0:0:
109,192,251314,1,0,0:0:0:0:
402,192,251314,1,0,0:0:0:0:
402,192,251504,128,0,251599:0:0:0:0:
109,192,251504,128,0,251599:0:0:0:0:
182,192,251504,1,0,0:0:0:0:
475,192,251504,1,0,0:0:0:0:
109,192,251694,128,0,251884:0:0:0:0:
402,192,251694,128,0,251884:0:0:0:0:
329,192,251694,1,0,0:0:0:0:
36,192,251694,1,0,0:0:0:0:
182,192,251884,128,0,252074:0:0:0:0:
475,192,251884,128,0,252074:0:0:0:0:
329,192,251884,1,0,0:0:0:0:
36,192,251884,1,0,0:0:0:0:
329,192,252074,128,0,252264:0:0:0:0:
36,192,252074,128,0,252264:0:0:0:0:
109,192,252074,1,0,0:0:0:0:
402,192,252074,1,0,0:0:0:0:
109,192,252264,128,0,252359:0:0:0:0:
402,192,252264,128,0,252359:0:0:0:0:
182,192,252264,1,0,0:0:0:0:
475,192,252264,1,0,0:0:0:0:
109,192,252453,128,0,252548:0:0:0:0:
329,192,252453,128,0,252548:0:0:0:0:
475,192,252453,1,0,0:0:0:0:
36,192,252453,1,0,0:0:0:0:
36,192,252643,128,0,252738:0:0:0:0:
256,192,252643,128,0,252738:0:0:0:0:
182,192,252643,1,0,0:0:0:0:
402,192,252643,1,0,0:0:0:0:
402,192,252833,128,0,252928:0:0:0:0:
182,192,252833,128,0,252928:0:0:0:0:
109,192,252833,1,0,0:0:0:0:
329,192,252833,1,0,0:0:0:0:
109,192,253023,128,0,253118:0:0:0:0:
329,192,253023,128,0,253118:0:0:0:0:
256,192,253023,1,0,0:0:0:0:
475,192,253023,1,0,0:0:0:0:
256,192,253213,128,0,253308:0:0:0:0:
475,192,253213,128,0,253308:0:0:0:0:
402,192,253213,1,0,0:0:0:0:
182,192,253213,1,0,0:0:0:0:
182,192,253403,128,0,253498:0:0:0:0:
402,192,253403,128,0,253498:0:0:0:0:
329,192,253403,1,0,0:0:0:0:
475,192,253403,1,0,0:0:0:0:
256,192,253593,1,0,0:0:0:0:
475,192,253593,1,0,0:0:0:0:
36,192,253593,1,0,0:0:0:0:
182,192,253783,1,0,0:0:0:0:
402,192,253783,1,0,0:0:0:0:
36,192,253783,1,0,0:0:0:0:
329,192,253783,1,0,0:0:0:0:
182,192,253972,128,0,254732:0:0:0:0:
329,192,253972,128,0,254352:0:0:0:0:
109,192,253972,1,0,0:0:0:0:
36,192,253972,128,0,255491:0:0:0:0:
475,192,253972,1,0,0:0:0:0:
256,192,253972,1,0,0:0:0:0:
402,192,254162,128,0,254352:0:0:0:0:
256,192,254162,1,0,0:0:0:0:
475,192,254352,128,0,255112:0:0:0:0:
109,192,254352,128,0,254732:0:0:0:0:
256,192,254352,1,0,0:0:0:0:
402,192,254542,1,0,0:0:0:0:
329,192,254542,128,0,254732:0:0:0:0:
402,192,254732,128,0,255491:0:0:0:0:
256,192,254732,128,0,255112:0:0:0:0:
182,192,254922,1,0,0:0:0:0:
109,192,254922,128,0,255112:0:0:0:0:
182,192,255112,128,0,255871:0:0:0:0:
329,192,255112,128,0,255491:0:0:0:0:
475,192,255302,1,0,0:0:0:0:
256,192,255302,1,0,0:0:0:0:
475,192,255491,128,0,257010:0:0:0:0:
109,192,255491,128,0,256251:0:0:0:0:
256,192,255491,128,0,255871:0:0:0:0:
36,192,255681,1,0,0:0:0:0:
329,192,255681,128,0,255871:0:0:0:0:
36,192,255871,128,0,256631:0:0:0:0:
402,192,255871,128,0,256251:0:0:0:0:
182,192,256061,1,0,0:0:0:0:
256,192,256061,128,0,256251:0:0:0:0:
329,192,256251,128,0,257010:0:0:0:0:
182,192,256251,128,0,256631:0:0:0:0:
109,192,256441,1,0,0:0:0:0:
256,192,256441,128,0,256631:0:0:0:0:
109,192,256631,128,0,257010:0:0:0:0:
402,192,256631,128,0,257390:0:0:0:0:
36,192,256821,1,0,0:0:0:0:
182,192,256821,1,0,0:0:0:0:
256,192,257010,128,0,258529:0:0:0:0:
182,192,257010,128,0,257770:0:0:0:0:
36,192,257010,128,0,257390:0:0:0:0:
475,192,257200,1,0,0:0:0:0:
329,192,257200,128,0,257390:0:0:0:0:
475,192,257390,128,0,257770:0:0:0:0:
109,192,257390,128,0,258150:0:0:0:0:
36,192,257580,1,0,0:0:0:0:
402,192,257580,128,0,257770:0:0:0:0:
329,192,257770,128,0,258150:0:0:0:0:
36,192,257770,128,0,258529:0:0:0:0:
182,192,257960,128,0,258150:0:0:0:0:
402,192,257960,1,0,0:0:0:0:
402,192,258150,128,0,258529:0:0:0:0:
475,192,258150,128,0,258909:0:0:0:0:
329,192,258340,1,0,0:0:0:0:
109,192,258340,1,0,0:0:0:0:
182,192,258529,128,0,260048:0:0:0:0:
329,192,258529,128,0,259289:0:0:0:0:
109,192,258529,128,0,258909:0:0:0:0:
256,192,258719,1,0,0:0:0:0:
402,192,258719,128,0,258909:0:0:0:0:
36,192,258909,128,0,259289:0:0:0:0:
256,192,258909,1,0,0:0:0:0:
109,192,259099,1,0,0:0:0:0:
475,192,259099,128,0,259289:0:0:0:0:
256,192,259289,128,0,259669:0:0:0:0:
109,192,259289,1,0,0:0:0:0:
402,192,259289,1,0,0:0:0:0:
36,192,259479,1,0,0:0:0:0:
329,192,259479,1,0,0:0:0:0:
109,192,259669,1,0,0:0:0:0:
402,192,259669,1,0,0:0:0:0:
475,192,259669,1,0,0:0:0:0:
329,192,259859,1,0,0:0:0:0:
36,192,259859,1,0,0:0:0:0:
109,192,259859,1,0,0:0:0:0:
475,192,259859,1,0,0:0:0:0:
402,192,260048,128,0,261567:0:0:0:0:
36,192,260048,128,0,260808:0:0:0:0:
475,192,260048,128,0,260428:0:0:0:0:
256,192,260048,1,0,0:0:0:0:
182,192,260238,1,0,0:0:0:0:
329,192,260238,128,0,260428:0:0:0:0:
256,192,260428,128,0,261188:0:0:0:0:
109,192,260428,128,0,260808:0:0:0:0:
182,192,260428,1,0,0:0:0:0:
329,192,260618,1,0,0:0:0:0:
475,192,260618,128,0,260808:0:0:0:0:
182,192,260808,128,0,261567:0:0:0:0:
329,192,260808,128,0,261188:0:0:0:0:
109,192,260998,1,0,0:0:0:0:
36,192,260998,128,0,261188:0:0:0:0:
475,192,261188,128,0,261567:0:0:0:0:
109,192,261188,1,0,0:0:0:0:
329,192,261377,1,0,0:0:0:0:
256,192,261377,128,0,261567:0:0:0:0:
36,192,261377,1,0,0:0:0:0:
109,192,261567,128,0,263086:0:0:0:0:
329,192,261567,128,0,262327:0:0:0:0:
36,192,261567,128,0,261947:0:0:0:0:
402,192,261757,128,0,261947:0:0:0:0:
256,192,261757,1,0,0:0:0:0:
475,192,261947,128,0,262707:0:0:0:0:
182,192,261947,128,0,262327:0:0:0:0:
256,192,261947,1,0,0:0:0:0:
402,192,262137,1,0,0:0:0:0:
36,192,262137,128,0,262327:0:0:0:0:
402,192,262327,128,0,263086:0:0:0:0:
256,192,262327,128,0,262707:0:0:0:0:
182,192,262517,1,0,0:0:0:0:
36,192,262517,128,0,262707:0:0:0:0:
182,192,262707,128,0,263466:0:0:0:0:
329,192,262707,128,0,263086:0:0:0:0:
256,192,262896,1,0,0:0:0:0:
475,192,262896,1,0,0:0:0:0:
256,192,263086,128,0,264605:0:0:0:0:
36,192,263086,128,0,263846:0:0:0:0:
475,192,263086,128,0,263466:0:0:0:0:
109,192,263276,1,0,0:0:0:0:
329,192,263276,128,0,263466:0:0:0:0:
402,192,263466,128,0,264226:0:0:0:0:
109,192,263466,128,0,263846:0:0:0:0:
182,192,263656,1,0,0:0:0:0:
475,192,263656,128,0,263846:0:0:0:0:
329,192,263846,128,0,264605:0:0:0:0:
182,192,263846,128,0,264226:0:0:0:0:
475,192,264036,128,0,264226:0:0:0:0:
36,192,264036,1,0,0:0:0:0:
36,192,264226,128,0,264985:0:0:0:0:
109,192,264226,128,0,264605:0:0:0:0:
182,192,264415,1,0,0:0:0:0:
402,192,264415,1,0,0:0:0:0:
182,192,264605,128,0,265365:0:0:0:0:
402,192,264605,128,0,264985:0:0:0:0:
475,192,264605,128,0,266124:0:0:0:0:
256,192,264795,128,0,264985:0:0:0:0:
329,192,264795,1,0,0:0:0:0:
329,192,264985,128,0,265365:0:0:0:0:
109,192,264985,1,0,0:0:0:0:
402,192,265175,1,0,0:0:0:0:
36,192,265175,1,0,0:0:0:0:
36,192,265365,128,0,265745:0:0:0:0:
256,192,265365,1,0,0:0:0:0:
402,192,265365,1,0,0:0:0:0:
109,192,265365,1,0,0:0:0:0:
182,192,265555,1,0,0:0:0:0:
329,192,265555,1,0,0:0:0:0:
256,192,265745,1,0,0:0:0:0:
109,192,265745,1,0,0:0:0:0:
402,192,265745,1,0,0:0:0:0:
329,192,265934,1,0,0:0:0:0:
182,192,265934,1,0,0:0:0:0:
36,192,265934,1,0,0:0:0:0:
402,192,265934,1,0,0:0:0:0:
36,192,266124,128,0,267643:0:0:0:0:
256,192,266124,1,0,0:0:0:0:
182,192,266124,128,0,266884:0:0:0:0:
329,192,266124,128,0,266504:0:0:0:0:
109,192,266124,1,0,0:0:0:0:
256,192,266314,1,0,0:0:0:0:
402,192,266314,128,0,266504:0:0:0:0:
256,192,266504,1,0,0:0:0:0:
109,192,266504,128,0,266884:0:0:0:0:
475,192,266504,128,0,267264:0:0:0:0:
329,192,266694,128,0,266884:0:0:0:0:
402,192,266694,1,0,0:0:0:0:
256,192,266884,128,0,267264:0:0:0:0:
402,192,266884,128,0,267643:0:0:0:0:
109,192,267074,128,0,267264:0:0:0:0:
182,192,267074,1,0,0:0:0:0:
329,192,267264,128,0,267643:0:0:0:0:
182,192,267264,128,0,268023:0:0:0:0:
256,192,267453,1,0,0:0:0:0:
475,192,267453,1,0,0:0:0:0:
256,192,267643,128,0,268023:0:0:0:0:
109,192,267643,128,0,268403:0:0:0:0:
475,192,267643,128,0,269162:0:0:0:0:
329,192,267833,128,0,268023:0:0:0:0:
36,192,267833,1,0,0:0:0:0:
402,192,268023,128,0,268403:0:0:0:0:
36,192,268023,128,0,268783:0:0:0:0:
256,192,268213,128,0,268403:0:0:0:0:
182,192,268213,1,0,0:0:0:0:
182,192,268403,128,0,268783:0:0:0:0:
329,192,268403,128,0,269162:0:0:0:0:
256,192,268593,128,0,268783:0:0:0:0:
109,192,268593,1,0,0:0:0:0:
402,192,268783,128,0,269542:0:0:0:0:
109,192,268783,128,0,269162:0:0:0:0:
182,192,268972,1,0,0:0:0:0:
36,192,268972,1,0,0:0:0:0:
36,192,269162,128,0,269542:0:0:0:0:
182,192,269162,128,0,269922:0:0:0:0:
256,192,269162,128,0,270681:0:0:0:0:
329,192,269352,128,0,269542:0:0:0:0:
475,192,269352,1,0,0:0:0:0:
109,192,269542,128,0,270302:0:0:0:0:
475,192,269542,128,0,269922:0:0:0:0:
402,192,269732,128,0,269922:0:0:0:0:
36,192,269732,1,0,0:0:0:0:
36,192,269922,128,0,270681:0:0:0:0:
329,192,269922,128,0,270302:0:0:0:0:
402,192,270112,1,0,0:0:0:0:
182,192,270112,128,0,270302:0:0:0:0:
475,192,270302,128,0,271061:0:0:0:0:
402,192,270302,128,0,270681:0:0:0:0:
109,192,270491,1,0,0:0:0:0:
329,192,270491,1,0,0:0:0:0:
109,192,270681,128,0,271061:0:0:0:0:
329,192,270681,128,0,271441:0:0:0:0:
182,192,270681,128,0,272200:0:0:0:0:
402,192,270871,128,0,271061:0:0:0:0:
256,192,270871,1,0,0:0:0:0:
256,192,271061,1,0,0:0:0:0:
36,192,271061,128,0,271441:0:0:0:0:
475,192,271251,128,0,271441:0:0:0:0:
109,192,271251,1,0,0:0:0:0:
402,192,271441,1,0,0:0:0:0:
109,192,271441,1,0,0:0:0:0:
256,192,271441,128,0,271821:0:0:0:0:
329,192,271631,1,0,0:0:0:0:
36,192,271631,1,0,0:0:0:0:
475,192,271821,1,0,0:0:0:0:
402,192,271821,1,0,0:0:0:0:
109,192,271821,1,0,0:0:0:0:
109,192,272010,1,0,0:0:0:0:
475,192,272010,1,0,0:0:0:0:
329,192,272010,1,0,0:0:0:0:
36,192,272010,1,0,0:0:0:0:
109,192,272200,128,0,272960:0:0:0:0:
475,192,272200,128,0,273719:0:0:0:0:
329,192,272200,128,0,272390:0:0:0:0:
36,192,272200,1,0,0:0:0:0:
256,192,272390,1,0,0:0:0:0:
402,192,272390,128,0,272580:0:0:0:0:
182,192,272580,1,0,0:0:0:0:
329,192,272580,1,0,0:0:0:0:
256,192,272580,128,0,272770:0:0:0:0:
402,192,272770,1,0,0:0:0:0:
329,192,272770,128,0,272960:0:0:0:0:
256,192,272960,1,0,0:0:0:0:
402,192,272960,1,0,0:0:0:0:
182,192,272960,128,0,273150:0:0:0:0:
36,192,272960,128,0,273624:0:0:0:0:
329,192,273150,1,0,0:0:0:0:
256,192,273150,128,0,273340:0:0:0:0:
182,192,273340,1,0,0:0:0:0:
402,192,273340,1,0,0:0:0:0:
109,192,273340,128,0,273529:0:0:0:0:
182,192,273529,128,0,273624:0:0:0:0:
256,192,273529,1,0,0:0:0:0:
109,192,273719,1,0,0:0:0:0:
182,192,273719,128,0,273909:0:0:0:0:
329,192,273719,1,0,0:0:0:0:
36,192,273719,128,0,275238:0:0:0:0:
402,192,273719,128,0,274479:0:0:0:0:
256,192,273909,1,0,0:0:0:0:
109,192,273909,128,0,274099:0:0:0:0:
182,192,274099,1,0,0:0:0:0:
329,192,274099,1,0,0:0:0:0:
256,192,274099,128,0,274289:0:0:0:0:
109,192,274289,1,0,0:0:0:0:
182,192,274289,128,0,274479:0:0:0:0:
256,192,274479,1,0,0:0:0:0:
109,192,274479,1,0,0:0:0:0:
475,192,274479,128,0,275143:0:0:0:0:
329,192,274479,128,0,274669:0:0:0:0:
182,192,274669,1,0,0:0:0:0:
256,192,274669,128,0,274859:0:0:0:0:
109,192,274859,1,0,0:0:0:0:
329,192,274859,1,0,0:0:0:0:
402,192,274859,128,0,275048:0:0:0:0:
256,192,275048,1,0,0:0:0:0:
329,192,275048,128,0,275143:0:0:0:0:
109,192,275238,128,0,275428:0:0:0:0:
402,192,275238,128,0,275428:0:0:0:0:
182,192,275238,1,0,0:0:0:0:
256,192,275238,128,0,276757:0:0:0:0:
475,192,275428,1,0,0:0:0:0:
182,192,275428,1,0,0:0:0:0:
36,192,275428,128,0,275618:0:0:0:0:
329,192,275428,128,0,275618:0:0:0:0:
402,192,275618,1,0,0:0:0:0:
109,192,275618,1,0,0:0:0:0:
182,192,275618,128,0,275808:0:0:0:0:
475,192,275618,128,0,275808:0:0:0:0:
329,192,275808,1,0,0:0:0:0:
36,192,275808,1,0,0:0:0:0:
109,192,275808,128,0,275903:0:0:0:0:
402,192,275808,128,0,275903:0:0:0:0:
182,192,275998,1,0,0:0:0:0:
475,192,275998,1,0,0:0:0:0:
402,192,275998,128,0,276188:0:0:0:0:
109,192,275998,128,0,276188:0:0:0:0:
182,192,276188,1,0,0:0:0:0:
475,192,276188,1,0,0:0:0:0:
329,192,276188,128,0,276377:0:0:0:0:
36,192,276188,128,0,276377:0:0:0:0:
402,192,276377,1,0,0:0:0:0:
109,192,276377,1,0,0:0:0:0:
182,192,276377,128,0,276567:0:0:0:0:
475,192,276377,128,0,276567:0:0:0:0:
329,192,276567,1,0,0:0:0:0:
36,192,276567,1,0,0:0:0:0:
402,192,276567,128,0,276662:0:0:0:0:
109,192,276567,128,0,276662:0:0:0:0:
36,192,276757,1,0,0:0:0:0:
475,192,276757,1,0,0:0:0:0:
402,192,276757,128,0,276852:0:0:0:0:
182,192,276757,128,0,276852:0:0:0:0:
329,192,276947,1,0,0:0:0:0:
109,192,276947,1,0,0:0:0:0:
475,192,276947,128,0,277042:0:0:0:0:
256,192,276947,128,0,277042:0:0:0:0:
402,192,277137,1,0,0:0:0:0:
182,192,277137,1,0,0:0:0:0:
109,192,277137,128,0,277232:0:0:0:0:
329,192,277137,128,0,277232:0:0:0:0:
256,192,277327,1,0,0:0:0:0:
36,192,277327,1,0,0:0:0:0:
402,192,277327,128,0,277422:0:0:0:0:
182,192,277327,128,0,277422:0:0:0:0:
109,192,277517,1,0,0:0:0:0:
329,192,277517,1,0,0:0:0:0:
256,192,277517,128,0,277612:0:0:0:0:
36,192,277517,128,0,277612:0:0:0:0:
182,192,277707,1,0,0:0:0:0:
36,192,277707,1,0,0:0:0:0:
329,192,277707,128,0,277802:0:0:0:0:
109,192,277707,128,0,277802:0:0:0:0:
475,192,277896,1,0,0:0:0:0:
36,192,277896,1,0,0:0:0:0:
256,192,277896,1,0,0:0:0:0:
109,192,278086,1,0,0:0:0:0:
182,192,278086,1,0,0:0:0:0:
402,192,278086,1,0,0:0:0:0:
329,192,278276,1,0,0:0:0:0:
475,192,278276,1,0,0:0:0:0:
109,192,278276,1,0,0:0:0:0:
256,192,278276,1,0,0:0:0:0:
36,192,278371,1,0,0:0:0:0:
402,192,278466,1,0,0:0:0:0:
182,192,278466,128,0,278656:0:0:0:0:
475,192,278561,1,0,0:0:0:0:
109,192,278656,1,0,0:0:0:0:
329,192,278656,128,0,278846:0:0:0:0:
36,192,278751,1,0,0:0:0:0:
182,192,278846,1,0,0:0:0:0:
402,192,278846,1,0,0:0:0:0:
256,192,278846,1,0,0:0:0:0:
475,192,278846,128,0,279036:0:0:0:0:
109,192,278941,1,0,0:0:0:0:
329,192,279036,1,0,0:0:0:0:
36,192,279036,128,0,279226:0:0:0:0:
402,192,279131,1,0,0:0:0:0:
475,192,279226,1,0,0:0:0:0:
182,192,279226,128,0,279415:0:0:0:0:
256,192,279321,1,0,0:0:0:0:
402,192,279415,1,0,0:0:0:0:
329,192,279415,128,0,279605:0:0:0:0:
475,192,279415,1,0,0:0:0:0:
109,192,279510,1,0,0:0:0:0:
36,192,279605,1,0,0:0:0:0:
256,192,279605,128,0,279795:0:0:0:0:
402,192,279700,1,0,0:0:0:0:
182,192,279795,1,0,0:0:0:0:
475,192,279795,128,0,279985:0:0:0:0:
329,192,279795,1,0,0:0:0:0:
109,192,279890,1,0,0:0:0:0:
36,192,279985,128,0,280175:0:0:0:0:
329,192,279985,1,0,0:0:0:0:
182,192,280080,1,0,0:0:0:0:
402,192,280175,128,0,280365:0:0:0:0:
256,192,280175,1,0,0:0:0:0:
475,192,280175,1,0,0:0:0:0:
109,192,280175,1,0,0:0:0:0:
329,192,280270,1,0,0:0:0:0:
36,192,280365,1,0,0:0:0:0:
109,192,280365,128,0,280555:0:0:0:0:
475,192,280460,1,0,0:0:0:0:
329,192,280555,128,0,280745:0:0:0:0:
256,192,280555,1,0,0:0:0:0:
402,192,280555,1,0,0:0:0:0:
36,192,280555,1,0,0:0:0:0:
182,192,280650,1,0,0:0:0:0:
475,192,280745,128,0,280934:0:0:0:0:
109,192,280745,1,0,0:0:0:0:
36,192,280840,1,0,0:0:0:0:
402,192,280934,1,0,0:0:0:0:
182,192,280934,128,0,281124:0:0:0:0:
329,192,281029,1,0,0:0:0:0:
256,192,281124,1,0,0:0:0:0:
475,192,281124,1,0,0:0:0:0:
36,192,281124,128,0,281314:0:0:0:0:
402,192,281219,1,0,0:0:0:0:
329,192,281314,128,0,281504:0:0:0:0:
109,192,281314,1,0,0:0:0:0:
182,192,281409,1,0,0:0:0:0:
402,192,281504,1,0,0:0:0:0:
256,192,281504,128,0,281694:0:0:0:0:
475,192,281599,1,0,0:0:0:0:
329,192,281694,1,0,0:0:0:0:
36,192,281694,1,0,0:0:0:0:
182,192,281694,128,0,281884:0:0:0:0:
475,192,281789,1,0,0:0:0:0:
109,192,281884,1,0,0:0:0:0:
402,192,281884,128,0,282074:0:0:0:0:
36,192,281979,1,0,0:0:0:0:
475,192,282074,1,0,0:0:0:0:
329,192,282074,1,0,0:0:0:0:
256,192,282074,128,0,282264:0:0:0:0:
109,192,282169,1,0,0:0:0:0:
402,192,282264,1,0,0:0:0:0:
36,192,282264,128,0,282453:0:0:0:0:
475,192,282359,1,0,0:0:0:0:
329,192,282453,1,0,0:0:0:0:
182,192,282453,1,0,0:0:0:0:
109,192,282453,128,0,282643:0:0:0:0:
256,192,282548,1,0,0:0:0:0:
36,192,282643,1,0,0:0:0:0:
402,192,282643,128,0,282833:0:0:0:0:
475,192,282738,1,0,0:0:0:0:
182,192,282833,1,0,0:0:0:0:
329,192,282833,1,0,0:0:0:0:
109,192,282833,1,0,0:0:0:0:
