osu file format v14

[General]
AudioFilename: audio.mp3
AudioLeadIn: 0
PreviewTime: -1
Countdown: 1
SampleSet: None
StackLeniency: 0.7
Mode: 3
LetterboxInBreaks: 0
SpecialStyle: 0
WidescreenStoryboard: 0

[Editor]
DistanceSpacing: 0.9
BeatDivisor: 8
GridSize: 32
TimelineZoom: 1

[Metadata]
Title:Naruto(Remix_puyaso)
TitleUnicode:Naruto(Remix_puyaso)
Artist:KeidoXD
ArtistUnicode:KeidoXD
Creator:keidoXD
Version:Hard - 4 Keys
Source:Naruto
Tags:Remix
BeatmapID:1282435
BeatmapSetID:607120

[Difficulty]
HPDrainRate:6
CircleSize:4
OverallDifficulty:5
ApproachRate:5
SliderMultiplier:1.29999990463257
SliderTickRate:1

[Events]
//Background and Video events
0,0,"descarga.png",0,0
//Break Periods
//Storyboard Layer 0 (Background)
//Storyboard Layer 1 (Fail)
//Storyboard Layer 2 (Pass)
//Storyboard Layer 3 (Foreground)
//Storyboard Sound Samples

[TimingPoints]
0,496.277915632754,4,2,0,100,1,0

[HitObjects]
320,192,744,5,0,0:0:0:0:
64,192,930,5,0,0:0:0:0:
448,192,992,1,0,0:0:0:0:
192,192,1302,1,0,0:0:0:0:
320,192,1302,1,0,0:0:0:0:
448,192,1550,1,0,0:0:0:0:
192,192,1612,1,0,0:0:0:0:
64,192,1799,1,0,0:0:0:0:
320,192,1799,1,0,0:0:0:0:
64,192,2047,1,0,0:0:0:0:
320,192,2109,1,0,0:0:0:0:
448,192,2295,1,0,0:0:0:0:
64,192,2419,1,0,0:0:0:0:
448,192,2481,1,0,0:0:0:0:
320,192,2543,1,0,0:0:0:0:
448,192,2667,1,0,0:0:0:0:
192,192,2791,1,0,0:0:0:0:
192,192,2977,1,0,0:0:0:0:
64,192,3225,1,0,0:0:0:0:
192,192,3349,1,0,0:0:0:0:
320,192,3411,1,0,0:0:0:0:
448,192,3473,1,0,0:0:0:0:
320,192,3535,1,0,0:0:0:0:
192,192,3598,1,0,0:0:0:0:
64,192,3660,1,0,0:0:0:0:
192,192,3722,1,0,0:0:0:0:
320,192,3784,1,0,0:0:0:0:
448,192,3846,1,0,0:0:0:0:
448,192,4032,1,0,0:0:0:0:
320,192,4094,1,0,0:0:0:0:
192,192,4156,1,0,0:0:0:0:
64,192,4218,1,0,0:0:0:0:
192,192,4280,1,0,0:0:0:0:
320,192,4342,1,0,0:0:0:0:
448,192,4404,1,0,0:0:0:0:
320,192,4466,1,0,0:0:0:0:
192,192,4528,1,0,0:0:0:0:
64,192,4590,1,0,0:0:0:0:
192,192,4652,1,0,0:0:0:0:
320,192,4714,1,0,0:0:0:0:
448,192,4776,1,0,0:0:0:0:
320,192,4838,1,0,0:0:0:0:
192,192,4900,1,0,0:0:0:0:
64,192,4962,1,0,0:0:0:0:
192,192,5024,1,0,0:0:0:0:
320,192,5086,1,0,0:0:0:0:
448,192,5148,1,0,0:0:0:0:
448,192,5334,1,0,0:0:0:0:
320,192,5397,1,0,0:0:0:0:
192,192,5459,1,0,0:0:0:0:
64,192,5521,1,0,0:0:0:0:
192,192,5583,1,0,0:0:0:0:
320,192,5645,1,0,0:0:0:0:
448,192,5707,1,0,0:0:0:0:
320,192,5769,1,0,0:0:0:0:
192,192,5831,1,0,0:0:0:0:
64,192,6017,1,0,0:0:0:0:
320,192,6017,1,0,0:0:0:0:
192,192,6203,1,0,0:0:0:0:
448,192,6203,1,0,0:0:0:0:
64,192,6451,1,0,0:0:0:0:
320,192,6451,1,0,0:0:0:0:
64,192,6637,1,0,0:0:0:0:
192,192,6699,1,0,0:0:0:0:
64,192,6885,1,0,0:0:0:0:
192,192,6947,1,0,0:0:0:0:
320,192,7009,1,0,0:0:0:0:
64,192,7133,1,0,0:0:0:0:
192,192,7196,1,0,0:0:0:0:
320,192,7258,1,0,0:0:0:0:
448,192,7320,1,0,0:0:0:0:
320,192,7382,1,0,0:0:0:0:
192,192,7444,1,0,0:0:0:0:
64,192,7506,1,0,0:0:0:0:
192,192,7568,1,0,0:0:0:0:
320,192,7630,1,0,0:0:0:0:
448,192,7692,1,0,0:0:0:0:
320,192,7754,1,0,0:0:0:0:
192,192,7816,1,0,0:0:0:0:
64,192,7878,1,0,0:0:0:0:
192,192,7940,1,0,0:0:0:0:
320,192,8002,1,0,0:0:0:0:
448,192,8064,1,0,0:0:0:0:
320,192,8126,1,0,0:0:0:0:
192,192,8188,1,0,0:0:0:0:
64,192,8250,1,0,0:0:0:0:
192,192,8312,1,0,0:0:0:0:
64,192,8498,1,0,0:0:0:0:
448,192,8498,1,0,0:0:0:0:
192,192,8560,1,0,0:0:0:0:
320,192,8560,1,0,0:0:0:0:
192,192,8808,1,0,0:0:0:0:
320,192,8808,1,0,0:0:0:0:
64,192,8870,1,0,0:0:0:0:
448,192,8870,1,0,0:0:0:0:
192,192,9057,1,0,0:0:0:0:
320,192,9057,1,0,0:0:0:0:
448,192,9181,1,0,0:0:0:0:
64,192,9181,1,0,0:0:0:0:
64,192,9367,1,0,0:0:0:0:
448,192,9367,1,0,0:0:0:0:
320,192,9491,1,0,0:0:0:0:
192,192,9491,1,0,0:0:0:0:
64,192,9677,1,0,0:0:0:0:
192,192,9801,1,0,0:0:0:0:
448,192,9925,1,0,0:0:0:0:
192,192,9987,1,0,0:0:0:0:
64,192,10049,1,0,0:0:0:0:
192,192,10483,1,0,0:0:0:0:
64,192,10794,1,0,0:0:0:0:
320,192,10856,1,0,0:0:0:0:
448,192,10980,1,0,0:0:0:0:
192,192,11166,1,0,0:0:0:0:
64,192,11228,1,0,0:0:0:0:
192,192,11290,1,0,0:0:0:0:
320,192,11352,1,0,0:0:0:0:
448,192,11600,1,0,0:0:0:0:
64,192,12034,1,0,0:0:0:0:
448,192,12158,1,0,0:0:0:0:
320,192,12158,1,0,0:0:0:0:
64,192,12531,1,0,0:0:0:0:
320,192,12531,1,0,0:0:0:0:
320,192,12779,1,0,0:0:0:0:
320,192,12903,1,0,0:0:0:0:
320,192,13089,1,0,0:0:0:0:
64,192,13151,1,0,0:0:0:0:
64,192,13275,1,0,0:0:0:0:
64,192,13709,1,0,0:0:0:0:
448,192,13771,1,0,0:0:0:0:
320,192,13833,1,0,0:0:0:0:
320,192,13957,1,0,0:0:0:0:
320,192,14081,1,0,0:0:0:0:
192,192,14516,1,0,0:0:0:0:
320,192,14640,1,0,0:0:0:0:
320,192,14764,1,0,0:0:0:0:
320,192,15136,1,0,0:0:0:0:
448,192,15322,1,0,0:0:0:0:
64,192,15322,1,0,0:0:0:0:
192,192,15818,1,0,0:0:0:0:
448,192,15818,1,0,0:0:0:0:
320,192,16191,1,0,0:0:0:0:
64,192,16253,1,0,0:0:0:0:
448,192,16501,1,0,0:0:0:0:
192,192,16625,1,0,0:0:0:0:
448,192,16687,1,0,0:0:0:0:
64,192,16749,1,0,0:0:0:0:
64,192,16873,1,0,0:0:0:0:
320,192,17121,1,0,0:0:0:0:
64,192,17245,1,0,0:0:0:0:
320,192,17369,1,0,0:0:0:0:
64,192,17431,1,0,0:0:0:0:
320,192,17493,1,0,0:0:0:0:
64,192,17679,1,0,0:0:0:0:
192,192,17866,1,0,0:0:0:0:
448,192,18114,1,0,0:0:0:0:
320,192,18176,1,0,0:0:0:0:
448,192,18300,1,0,0:0:0:0:
192,192,18362,1,0,0:0:0:0:
64,192,18548,1,0,0:0:0:0:
192,192,18796,1,0,0:0:0:0:
448,192,18982,1,0,0:0:0:0:
64,192,19044,1,0,0:0:0:0:
448,192,19168,1,0,0:0:0:0:
64,192,19168,1,0,0:0:0:0:
448,192,19354,1,0,0:0:0:0:
64,192,19478,1,0,0:0:0:0:
64,192,19665,1,0,0:0:0:0:
448,192,19727,1,0,0:0:0:0:
192,192,19851,1,0,0:0:0:0:
448,192,19913,1,0,0:0:0:0:
320,192,20037,1,0,0:0:0:0:
448,192,20223,1,0,0:0:0:0:
192,192,20409,1,0,0:0:0:0:
64,192,20657,1,0,0:0:0:0:
64,192,20781,1,0,0:0:0:0:
192,192,20843,1,0,0:0:0:0:
320,192,20967,1,0,0:0:0:0:
448,192,21277,1,0,0:0:0:0:
448,192,21401,1,0,0:0:0:0:
192,192,21464,1,0,0:0:0:0:
448,192,21526,1,0,0:0:0:0:
64,192,21588,1,0,0:0:0:0:
64,192,21774,1,0,0:0:0:0:
192,192,22022,1,0,0:0:0:0:
448,192,22208,1,0,0:0:0:0:
64,192,22208,1,0,0:0:0:0:
64,192,22332,1,0,0:0:0:0:
448,192,22394,1,0,0:0:0:0:
64,192,22518,1,0,0:0:0:0:
448,192,22642,1,0,0:0:0:0:
192,192,22828,1,0,0:0:0:0:
64,192,22952,1,0,0:0:0:0:
448,192,23014,1,0,0:0:0:0:
448,192,23076,1,0,0:0:0:0:
192,192,23138,1,0,0:0:0:0:
448,192,23387,1,0,0:0:0:0:
64,192,23449,1,0,0:0:0:0:
320,192,23573,1,0,0:0:0:0:
64,192,23573,1,0,0:0:0:0:
64,192,23697,1,0,0:0:0:0:
448,192,23883,1,0,0:0:0:0:
320,192,24007,1,0,0:0:0:0:
448,192,24069,1,0,0:0:0:0:
320,192,24255,1,0,0:0:0:0:
64,192,24503,1,0,0:0:0:0:
192,192,24565,1,0,0:0:0:0:
64,192,24689,1,0,0:0:0:0:
320,192,24813,1,0,0:0:0:0:
64,192,24937,1,0,0:0:0:0:
320,192,25062,1,0,0:0:0:0:
192,192,25310,1,0,0:0:0:0:
448,192,25372,1,0,0:0:0:0:
64,192,25496,1,0,0:0:0:0:
448,192,25496,1,0,0:0:0:0:
192,192,25682,1,0,0:0:0:0:
448,192,25682,1,0,0:0:0:0:
320,192,25868,1,0,0:0:0:0:
320,192,26054,1,0,0:0:0:0:
192,192,26054,1,0,0:0:0:0:
64,192,26240,1,0,0:0:0:0:
320,192,26426,1,0,0:0:0:0:
448,192,26612,1,0,0:0:0:0:
192,192,26736,1,0,0:0:0:0:
64,192,26861,1,0,0:0:0:0:
448,192,27047,1,0,0:0:0:0:
192,192,27171,1,0,0:0:0:0:
64,192,27357,1,0,0:0:0:0:
448,192,27419,1,0,0:0:0:0:
192,192,27667,1,0,0:0:0:0:
64,192,27791,1,0,0:0:0:0:
320,192,27915,1,0,0:0:0:0:
448,192,28101,1,0,0:0:0:0:
64,192,28163,1,0,0:0:0:0:
64,192,28349,1,0,0:0:0:0:
320,192,28598,1,0,0:0:0:0:
448,192,28722,1,0,0:0:0:0:
64,192,28722,1,0,0:0:0:0:
320,192,28846,1,0,0:0:0:0:
320,192,29156,1,0,0:0:0:0:
320,192,29280,1,0,0:0:0:0:
64,192,29342,1,0,0:0:0:0:
320,192,29528,1,0,0:0:0:0:
64,192,29652,1,0,0:0:0:0:
64,192,30024,1,0,0:0:0:0:
192,192,30024,1,0,0:0:0:0:
64,192,30210,1,0,0:0:0:0:
192,192,30272,1,0,0:0:0:0:
320,192,30397,1,0,0:0:0:0:
448,192,30397,1,0,0:0:0:0:
320,192,30583,1,0,0:0:0:0:
448,192,30583,1,0,0:0:0:0:
64,192,30769,1,0,0:0:0:0:
320,192,30769,1,0,0:0:0:0:
448,192,31017,1,0,0:0:0:0:
64,192,31141,1,0,0:0:0:0:
320,192,31327,1,0,0:0:0:0:
448,192,31451,1,0,0:0:0:0:
192,192,31637,1,0,0:0:0:0:
64,192,31637,1,0,0:0:0:0:
64,192,31947,1,0,0:0:0:0:
192,192,31947,1,0,0:0:0:0:
320,192,31947,1,0,0:0:0:0:
448,192,31947,1,0,0:0:0:0:
64,192,32320,1,0,0:0:0:0:
192,192,32444,1,0,0:0:0:0:
320,192,32568,1,0,0:0:0:0:
192,192,32692,1,0,0:0:0:0:
448,192,32940,1,0,0:0:0:0:
192,192,33064,1,0,0:0:0:0:
64,192,33250,1,0,0:0:0:0:
192,192,33312,1,0,0:0:0:0:
320,192,33498,1,0,0:0:0:0:
64,192,33808,1,0,0:0:0:0:
64,192,33933,1,0,0:0:0:0:
448,192,33995,1,0,0:0:0:0:
320,192,33995,1,0,0:0:0:0:
192,192,34429,1,0,0:0:0:0:
64,192,34429,1,0,0:0:0:0:
448,192,34677,128,0,35235:0:0:0:0:
192,192,34739,1,0,0:0:0:0:
64,192,34863,1,0,0:0:0:0:
192,192,35173,1,0,0:0:0:0:
64,192,35297,1,0,0:0:0:0:
64,192,35669,1,0,0:0:0:0:
320,192,35918,1,0,0:0:0:0:
448,192,35918,1,0,0:0:0:0:
64,192,36042,1,0,0:0:0:0:
192,192,36476,1,0,0:0:0:0:
448,192,36538,1,0,0:0:0:0:
64,192,36724,1,0,0:0:0:0:
320,192,36910,1,0,0:0:0:0:
192,192,36910,1,0,0:0:0:0:
448,192,36910,1,0,0:0:0:0:
448,192,37344,1,0,0:0:0:0:
64,192,37406,1,0,0:0:0:0:
64,192,37593,1,0,0:0:0:0:
192,192,37841,1,0,0:0:0:0:
448,192,37965,1,0,0:0:0:0:
448,192,38461,1,0,0:0:0:0:
320,192,38523,1,0,0:0:0:0:
192,192,38585,1,0,0:0:0:0:
448,192,38957,1,0,0:0:0:0:
64,192,39081,1,0,0:0:0:0:
64,192,39205,1,0,0:0:0:0:
320,192,39267,1,0,0:0:0:0:
448,192,39330,1,0,0:0:0:0:
448,192,39516,1,0,0:0:0:0:
192,192,39950,1,0,0:0:0:0:
64,192,40074,1,0,0:0:0:0:
448,192,40384,1,0,0:0:0:0:
320,192,40570,1,0,0:0:0:0:
64,192,40756,1,0,0:0:0:0:
64,192,40942,1,0,0:0:0:0:
320,192,41191,1,0,0:0:0:0:
192,192,41253,1,0,0:0:0:0:
320,192,41501,1,0,0:0:0:0:
320,192,41687,1,0,0:0:0:0:
64,192,41811,1,0,0:0:0:0:
320,192,42059,1,0,0:0:0:0:
448,192,42245,1,0,0:0:0:0:
64,192,42369,128,0,42679:0:0:0:0:
320,192,42555,1,0,0:0:0:0:
320,192,42866,1,0,0:0:0:0:
64,192,43114,1,0,0:0:0:0:
192,192,43238,1,0,0:0:0:0:
320,192,43610,1,0,0:0:0:0:
448,192,43796,1,0,0:0:0:0:
64,192,43920,1,0,0:0:0:0:
64,192,44106,1,0,0:0:0:0:
448,192,44478,1,0,0:0:0:0:
448,192,44602,1,0,0:0:0:0:
192,192,44727,1,0,0:0:0:0:
64,192,44913,1,0,0:0:0:0:
320,192,44913,1,0,0:0:0:0:
192,192,45099,1,0,0:0:0:0:
320,192,45285,1,0,0:0:0:0:
320,192,45471,1,0,0:0:0:0:
192,192,45781,1,0,0:0:0:0:
64,192,45967,1,0,0:0:0:0:
448,192,46277,1,0,0:0:0:0:
192,192,46650,1,0,0:0:0:0:
320,192,46836,1,0,0:0:0:0:
64,192,46960,1,0,0:0:0:0:
320,192,47146,1,0,0:0:0:0:
320,192,47332,1,0,0:0:0:0:
192,192,47580,1,0,0:0:0:0:
64,192,47828,1,0,0:0:0:0:
192,192,47828,1,0,0:0:0:0:
448,192,47952,1,0,0:0:0:0:
320,192,48138,1,0,0:0:0:0:
64,192,48200,1,0,0:0:0:0:
320,192,48325,1,0,0:0:0:0:
448,192,48325,1,0,0:0:0:0:
192,192,48573,1,0,0:0:0:0:
448,192,49007,128,0,49193:0:0:0:0:
320,192,49255,128,0,49379:0:0:0:0:
192,192,49441,128,0,49565:0:0:0:0:
64,192,49627,128,0,49751:0:0:0:0:
192,192,49813,128,0,49937:0:0:0:0:
320,192,50000,128,0,50124:0:0:0:0:
448,192,50186,128,0,50310:0:0:0:0:
320,192,50372,128,0,50496:0:0:0:0:
192,192,50558,128,0,50682:0:0:0:0:
64,192,50682,128,0,51116:0:0:0:0:
192,192,51178,1,0,0:0:0:0:
192,192,51426,1,0,0:0:0:0:
64,192,51612,1,0,0:0:0:0:
320,192,51736,1,0,0:0:0:0:
192,192,51923,1,0,0:0:0:0:
320,192,51923,1,0,0:0:0:0:
64,192,52109,1,0,0:0:0:0:
320,192,52357,1,0,0:0:0:0:
64,192,52667,1,0,0:0:0:0:
320,192,52729,1,0,0:0:0:0:
192,192,52977,1,0,0:0:0:0:
320,192,53287,1,0,0:0:0:0:
448,192,53411,1,0,0:0:0:0:
192,192,53598,1,0,0:0:0:0:
448,192,53846,1,0,0:0:0:0:
64,192,53908,1,0,0:0:0:0:
448,192,54218,1,0,0:0:0:0:
320,192,54280,1,0,0:0:0:0:
64,192,54404,1,0,0:0:0:0:
448,192,54590,128,0,54714:0:0:0:0:
320,192,54776,128,0,54962:0:0:0:0:
192,192,55086,128,0,55272:0:0:0:0:
64,192,55334,128,0,55521:0:0:0:0:
192,192,55583,128,0,55769:0:0:0:0:
320,192,55831,128,0,56017:0:0:0:0:
448,192,56141,128,0,56637:0:0:0:0:
320,192,56699,128,0,57320:0:0:0:0:
192,192,57568,1,0,0:0:0:0:
320,192,57568,1,0,0:0:0:0:
192,192,57940,1,0,0:0:0:0:
320,192,57940,1,0,0:0:0:0:
192,192,58250,1,0,0:0:0:0:
320,192,58250,1,0,0:0:0:0:
64,192,58560,1,0,0:0:0:0:
192,192,58746,1,0,0:0:0:0:
448,192,58933,1,0,0:0:0:0:
320,192,59181,1,0,0:0:0:0:
64,192,59305,1,0,0:0:0:0:
448,192,59677,1,0,0:0:0:0:
320,192,59987,1,0,0:0:0:0:
64,192,60111,1,0,0:0:0:0:
192,192,60235,1,0,0:0:0:0:
320,192,60297,1,0,0:0:0:0:
448,192,60669,1,0,0:0:0:0:
64,192,60856,1,0,0:0:0:0:
320,192,61228,1,0,0:0:0:0:
192,192,61538,1,0,0:0:0:0:
448,192,61600,1,0,0:0:0:0:
192,192,61848,1,0,0:0:0:0:
64,192,62034,1,0,0:0:0:0:
320,192,62158,1,0,0:0:0:0:
320,192,62468,1,0,0:0:0:0:
64,192,62655,1,0,0:0:0:0:
320,192,62903,1,0,0:0:0:0:
64,192,63151,1,0,0:0:0:0:
320,192,63275,1,0,0:0:0:0:
192,192,63585,1,0,0:0:0:0:
64,192,63833,1,0,0:0:0:0:
320,192,64019,1,0,0:0:0:0:
64,192,64143,1,0,0:0:0:0:
448,192,64205,1,0,0:0:0:0:
320,192,64392,1,0,0:0:0:0:
192,192,64640,1,0,0:0:0:0:
320,192,64702,1,0,0:0:0:0:
448,192,64888,1,0,0:0:0:0:
192,192,65012,1,0,0:0:0:0:
64,192,65384,1,0,0:0:0:0:
320,192,65508,1,0,0:0:0:0:
448,192,65632,1,0,0:0:0:0:
64,192,65818,1,0,0:0:0:0:
192,192,65942,1,0,0:0:0:0:
192,192,66066,1,0,0:0:0:0:
320,192,66439,1,0,0:0:0:0:
448,192,66501,1,0,0:0:0:0:
448,192,66625,1,0,0:0:0:0:
64,192,66935,1,0,0:0:0:0:
192,192,67369,1,0,0:0:0:0:
320,192,67617,1,0,0:0:0:0:
320,192,67990,1,0,0:0:0:0:
192,192,68176,1,0,0:0:0:0:
192,192,68424,1,0,0:0:0:0:
320,192,68610,1,0,0:0:0:0:
448,192,68796,1,0,0:0:0:0:
64,192,68982,1,0,0:0:0:0:
448,192,69106,1,0,0:0:0:0:
64,192,69292,1,0,0:0:0:0:
448,192,69478,1,0,0:0:0:0:
64,192,69540,1,0,0:0:0:0:
320,192,69789,1,0,0:0:0:0:
448,192,70037,1,0,0:0:0:0:
448,192,70223,1,0,0:0:0:0:
192,192,70533,1,0,0:0:0:0:
192,192,70781,1,0,0:0:0:0:
320,192,71029,1,0,0:0:0:0:
64,192,71277,1,0,0:0:0:0:
192,192,71526,1,0,0:0:0:0:
448,192,71712,1,0,0:0:0:0:
192,192,71836,1,0,0:0:0:0:
192,192,72084,1,0,0:0:0:0:
448,192,72270,1,0,0:0:0:0:
64,192,72518,1,0,0:0:0:0:
192,192,72766,1,0,0:0:0:0:
64,192,73138,1,0,0:0:0:0:
192,192,73200,1,0,0:0:0:0:
320,192,73263,1,0,0:0:0:0:
64,192,73387,1,0,0:0:0:0:
448,192,73635,1,0,0:0:0:0:
64,192,73759,1,0,0:0:0:0:
448,192,73759,1,0,0:0:0:0:
320,192,74007,1,0,0:0:0:0:
64,192,74317,1,0,0:0:0:0:
320,192,74565,1,0,0:0:0:0:
320,192,75000,1,0,0:0:0:0:
192,192,75124,1,0,0:0:0:0:
64,192,75248,1,0,0:0:0:0:
192,192,75310,1,0,0:0:0:0:
320,192,75372,1,0,0:0:0:0:
448,192,75434,1,0,0:0:0:0:
320,192,75496,1,0,0:0:0:0:
192,192,75558,1,0,0:0:0:0:
64,192,75620,1,0,0:0:0:0:
192,192,75682,1,0,0:0:0:0:
320,192,75744,1,0,0:0:0:0:
448,192,75930,1,0,0:0:0:0:
448,192,76116,1,0,0:0:0:0:
320,192,76364,1,0,0:0:0:0:
192,192,76612,1,0,0:0:0:0:
64,192,77047,1,0,0:0:0:0:
192,192,77047,1,0,0:0:0:0:
320,192,77047,1,0,0:0:0:0:
448,192,77047,1,0,0:0:0:0:
448,192,77605,1,0,0:0:0:0:
320,192,77791,1,0,0:0:0:0:
192,192,77977,1,0,0:0:0:0:
64,192,78163,1,0,0:0:0:0:
448,192,78349,1,0,0:0:0:0:
320,192,78660,1,0,0:0:0:0:
64,192,78784,1,0,0:0:0:0:
192,192,79094,1,0,0:0:0:0:
448,192,79156,1,0,0:0:0:0:
64,192,79218,1,0,0:0:0:0:
320,192,79342,1,0,0:0:0:0:
64,192,79466,1,0,0:0:0:0:
192,192,79776,1,0,0:0:0:0:
448,192,79962,1,0,0:0:0:0:
64,192,80148,1,0,0:0:0:0:
320,192,80334,1,0,0:0:0:0:
192,192,80521,1,0,0:0:0:0:
192,192,80769,1,0,0:0:0:0:
192,192,81079,1,0,0:0:0:0:
64,192,81141,1,0,0:0:0:0:
448,192,81451,1,0,0:0:0:0:
64,192,81823,1,0,0:0:0:0:
448,192,82009,1,0,0:0:0:0:
192,192,82071,1,0,0:0:0:0:
64,192,82258,1,0,0:0:0:0:
448,192,82568,1,0,0:0:0:0:
64,192,83374,1,0,0:0:0:0:
448,192,83808,1,0,0:0:0:0:
448,192,84057,1,0,0:0:0:0:
192,192,84119,1,0,0:0:0:0:
64,192,84429,1,0,0:0:0:0:
192,192,84677,1,0,0:0:0:0:
64,192,84739,1,0,0:0:0:0:
448,192,84739,1,0,0:0:0:0:
320,192,84925,1,0,0:0:0:0:
320,192,85421,1,0,0:0:0:0:
64,192,85421,1,0,0:0:0:0:
192,192,85669,1,0,0:0:0:0:
192,192,85856,1,0,0:0:0:0:
320,192,85980,1,0,0:0:0:0:
448,192,86166,1,0,0:0:0:0:
192,192,86414,1,0,0:0:0:0:
64,192,86662,1,0,0:0:0:0:
192,192,86910,1,0,0:0:0:0:
320,192,87034,1,0,0:0:0:0:
448,192,87344,1,0,0:0:0:0:
64,192,87531,1,0,0:0:0:0:
192,192,87779,1,0,0:0:0:0:
320,192,87965,1,0,0:0:0:0:
320,192,88151,1,0,0:0:0:0:
192,192,88399,1,0,0:0:0:0:
320,192,88647,1,0,0:0:0:0:
448,192,88833,1,0,0:0:0:0:
192,192,89019,1,0,0:0:0:0:
64,192,89267,1,0,0:0:0:0:
320,192,89516,1,0,0:0:0:0:
64,192,89702,1,0,0:0:0:0:
448,192,89764,1,0,0:0:0:0:
192,192,90012,1,0,0:0:0:0:
64,192,90198,1,0,0:0:0:0:
320,192,90384,1,0,0:0:0:0:
448,192,90570,1,0,0:0:0:0:
64,192,90818,1,0,0:0:0:0:
320,192,90880,1,0,0:0:0:0:
448,192,91129,1,0,0:0:0:0:
64,192,91377,1,0,0:0:0:0:
320,192,91563,1,0,0:0:0:0:
64,192,91625,1,0,0:0:0:0:
320,192,91935,1,0,0:0:0:0:
64,192,92245,1,0,0:0:0:0:
320,192,92555,1,0,0:0:0:0:
320,192,92741,1,0,0:0:0:0:
192,192,93114,1,0,0:0:0:0:
320,192,93362,1,0,0:0:0:0:
448,192,93548,1,0,0:0:0:0:
320,192,93796,1,0,0:0:0:0:
64,192,93982,1,0,0:0:0:0:
64,192,94168,1,0,0:0:0:0:
448,192,94168,1,0,0:0:0:0:
320,192,94416,1,0,0:0:0:0:
192,192,94478,1,0,0:0:0:0:
64,192,94602,1,0,0:0:0:0:
448,192,94665,1,0,0:0:0:0:
192,192,94789,1,0,0:0:0:0:
320,192,94913,1,0,0:0:0:0:
192,192,95223,1,0,0:0:0:0:
64,192,95657,1,0,0:0:0:0:
320,192,95843,1,0,0:0:0:0:
64,192,96091,1,0,0:0:0:0:
448,192,96215,1,0,0:0:0:0:
320,192,96339,1,0,0:0:0:0:
192,192,96526,1,0,0:0:0:0:
64,192,96774,1,0,0:0:0:0:
448,192,96960,1,0,0:0:0:0:
192,192,97084,1,0,0:0:0:0:
320,192,97456,1,0,0:0:0:0:
320,192,97890,1,0,0:0:0:0:
320,192,98511,1,0,0:0:0:0:
320,192,98635,1,0,0:0:0:0:
320,192,98821,1,0,0:0:0:0:
64,192,99379,1,0,0:0:0:0:
64,192,99937,1,0,0:0:0:0:
64,192,100186,1,0,0:0:0:0:
64,192,100310,1,0,0:0:0:0:
192,192,100682,1,0,0:0:0:0:
192,192,101054,1,0,0:0:0:0:
192,192,101550,1,0,0:0:0:0:
192,192,101736,1,0,0:0:0:0:
192,192,101861,1,0,0:0:0:0:
192,192,102543,1,0,0:0:0:0:
320,192,102605,1,0,0:0:0:0:
320,192,102915,1,0,0:0:0:0:
192,192,102977,1,0,0:0:0:0:
192,192,103287,1,0,0:0:0:0:
320,192,103349,1,0,0:0:0:0:
320,192,103535,1,0,0:0:0:0:
192,192,103660,1,0,0:0:0:0:
320,192,103722,1,0,0:0:0:0:
320,192,103908,1,0,0:0:0:0:
192,192,103970,1,0,0:0:0:0:
192,192,104342,1,0,0:0:0:0:
320,192,104528,1,0,0:0:0:0:
192,192,104776,1,0,0:0:0:0:
64,192,105210,1,0,0:0:0:0:
448,192,105459,1,0,0:0:0:0:
320,192,105707,1,0,0:0:0:0:
192,192,105893,1,0,0:0:0:0:
64,192,106079,1,0,0:0:0:0:
448,192,106389,1,0,0:0:0:0:
320,192,106575,1,0,0:0:0:0:
64,192,106885,1,0,0:0:0:0:
320,192,107133,1,0,0:0:0:0:
64,192,107320,1,0,0:0:0:0:
320,192,107444,1,0,0:0:0:0:
192,192,107630,1,0,0:0:0:0:
448,192,107630,1,0,0:0:0:0:
320,192,107940,1,0,0:0:0:0:
64,192,108126,1,0,0:0:0:0:
320,192,108374,1,0,0:0:0:0:
448,192,108560,1,0,0:0:0:0:
192,192,108560,1,0,0:0:0:0:
192,192,108746,1,0,0:0:0:0:
64,192,108746,1,0,0:0:0:0:
320,192,108995,1,0,0:0:0:0:
192,192,109181,1,0,0:0:0:0:
448,192,109305,1,0,0:0:0:0:
320,192,109367,1,0,0:0:0:0:
192,192,109367,1,0,0:0:0:0:
64,192,109491,1,0,0:0:0:0:
192,192,109553,1,0,0:0:0:0:
320,192,109615,1,0,0:0:0:0:
448,192,109677,1,0,0:0:0:0:
320,192,109739,1,0,0:0:0:0:
192,192,109801,1,0,0:0:0:0:
64,192,109863,1,0,0:0:0:0:
192,192,109925,1,0,0:0:0:0:
320,192,109987,1,0,0:0:0:0:
448,192,110049,1,0,0:0:0:0:
192,192,110173,1,0,0:0:0:0:
320,192,110359,1,0,0:0:0:0:
448,192,110483,1,0,0:0:0:0:
192,192,110669,1,0,0:0:0:0:
192,192,110856,1,0,0:0:0:0:
192,192,111104,1,0,0:0:0:0:
320,192,111352,1,0,0:0:0:0:
192,192,111538,1,0,0:0:0:0:
448,192,111848,1,0,0:0:0:0:
64,192,111972,1,0,0:0:0:0:
192,192,112158,1,0,0:0:0:0:
64,192,112655,1,0,0:0:0:0:
448,192,112717,1,0,0:0:0:0:
64,192,113151,1,0,0:0:0:0:
192,192,113337,1,0,0:0:0:0:
320,192,113709,1,0,0:0:0:0:
448,192,113895,1,0,0:0:0:0:
64,192,114019,1,0,0:0:0:0:
64,192,114205,1,0,0:0:0:0:
448,192,114330,1,0,0:0:0:0:
64,192,114578,1,0,0:0:0:0:
320,192,115012,1,0,0:0:0:0:
64,192,115074,1,0,0:0:0:0:
192,192,115198,1,0,0:0:0:0:
320,192,115446,1,0,0:0:0:0:
320,192,115694,1,0,0:0:0:0:
192,192,115942,1,0,0:0:0:0:
192,192,116066,1,0,0:0:0:0:
448,192,116191,1,0,0:0:0:0:
192,192,116315,1,0,0:0:0:0:
64,192,116377,1,0,0:0:0:0:
320,192,116563,1,0,0:0:0:0:
448,192,116563,1,0,0:0:0:0:
192,192,116687,1,0,0:0:0:0:
64,192,116873,1,0,0:0:0:0:
320,192,117121,1,0,0:0:0:0:
64,192,117245,1,0,0:0:0:0:
448,192,117307,1,0,0:0:0:0:
448,192,117555,1,0,0:0:0:0:
192,192,117679,1,0,0:0:0:0:
64,192,117866,1,0,0:0:0:0:
320,192,117928,1,0,0:0:0:0:
448,192,118114,1,0,0:0:0:0:
192,192,118362,1,0,0:0:0:0:
64,192,118424,1,0,0:0:0:0:
448,192,118548,1,0,0:0:0:0:
448,192,118982,128,0,119230:0:0:0:0:
320,192,119292,128,0,119416:0:0:0:0:
192,192,119478,128,0,119665:0:0:0:0:
64,192,119727,128,0,119975:0:0:0:0:
192,192,120037,128,0,120161:0:0:0:0:
320,192,120223,128,0,120781:0:0:0:0:
448,192,120843,128,0,121277:0:0:0:0:
64,192,121526,1,0,0:0:0:0:
192,192,121526,1,0,0:0:0:0:
448,192,121526,1,0,0:0:0:0:
320,192,121526,1,0,0:0:0:0:
64,192,121774,1,0,0:0:0:0:
448,192,122146,1,0,0:0:0:0:
192,192,122332,1,0,0:0:0:0:
64,192,122394,1,0,0:0:0:0:
320,192,122704,1,0,0:0:0:0:
320,192,122890,1,0,0:0:0:0:
192,192,123263,1,0,0:0:0:0:
448,192,123387,1,0,0:0:0:0:
320,192,123387,1,0,0:0:0:0:
64,192,123449,1,0,0:0:0:0:
320,192,123635,1,0,0:0:0:0:
64,192,124007,1,0,0:0:0:0:
320,192,124131,1,0,0:0:0:0:
320,192,124379,1,0,0:0:0:0:
192,192,124813,1,0,0:0:0:0:
448,192,124937,1,0,0:0:0:0:
448,192,125124,1,0,0:0:0:0:
320,192,125310,1,0,0:0:0:0:
192,192,125372,1,0,0:0:0:0:
64,192,125620,1,0,0:0:0:0:
192,192,125806,1,0,0:0:0:0:
64,192,125868,1,0,0:0:0:0:
320,192,125992,1,0,0:0:0:0:
192,192,126240,1,0,0:0:0:0:
320,192,126240,1,0,0:0:0:0:
448,192,126488,128,0,126612:0:0:0:0:
320,192,126674,128,0,126799:0:0:0:0:
192,192,126861,128,0,127047:0:0:0:0:
64,192,127109,128,0,127233:0:0:0:0:
192,192,127295,128,0,127419:0:0:0:0:
320,192,127543,128,0,127915:0:0:0:0:
320,192,128163,1,0,0:0:0:0:
64,192,128287,1,0,0:0:0:0:
320,192,128411,1,0,0:0:0:0:
448,192,128535,1,0,0:0:0:0:
192,192,128660,1,0,0:0:0:0:
320,192,128660,1,0,0:0:0:0:
320,192,129032,1,0,0:0:0:0:
448,192,129156,1,0,0:0:0:0:
320,192,129218,1,0,0:0:0:0:
192,192,129280,1,0,0:0:0:0:
192,192,129590,1,0,0:0:0:0:
320,192,129652,1,0,0:0:0:0:
64,192,129776,1,0,0:0:0:0:
448,192,130024,1,0,0:0:0:0:
64,192,130086,1,0,0:0:0:0:
320,192,130086,1,0,0:0:0:0:
320,192,130334,1,0,0:0:0:0:
64,192,130397,1,0,0:0:0:0:
192,192,130521,1,0,0:0:0:0:
448,192,130707,1,0,0:0:0:0:
192,192,130707,1,0,0:0:0:0:
192,192,130955,1,0,0:0:0:0:
448,192,130955,1,0,0:0:0:0:
64,192,131203,1,0,0:0:0:0:
448,192,131203,1,0,0:0:0:0:
192,192,131513,1,0,0:0:0:0:
192,192,131637,128,0,132568:0:0:0:0:
320,192,131637,128,0,132568:0:0:0:0:
448,192,131637,128,0,132568:0:0:0:0:
64,192,131637,128,0,132568:0:0:0:0:
64,192,132754,1,0,0:0:0:0:
192,192,132816,1,0,0:0:0:0:
320,192,132878,1,0,0:0:0:0:
448,192,132940,1,0,0:0:0:0:
320,192,133064,1,0,0:0:0:0:
192,192,133126,1,0,0:0:0:0:
64,192,133188,1,0,0:0:0:0:
192,192,133312,1,0,0:0:0:0:
320,192,133374,1,0,0:0:0:0:
448,192,133436,1,0,0:0:0:0:
192,192,133622,1,0,0:0:0:0:
320,192,133622,1,0,0:0:0:0:
192,192,133870,1,0,0:0:0:0:
320,192,133870,1,0,0:0:0:0:
64,192,133995,1,0,0:0:0:0:
320,192,134119,1,0,0:0:0:0:
448,192,134367,1,0,0:0:0:0:
64,192,134491,1,0,0:0:0:0:
448,192,134615,1,0,0:0:0:0:
64,192,134739,1,0,0:0:0:0:
192,192,134987,1,0,0:0:0:0:
448,192,135049,1,0,0:0:0:0:
192,192,135235,1,0,0:0:0:0:
64,192,135421,1,0,0:0:0:0:
448,192,135545,1,0,0:0:0:0:
192,192,135669,1,0,0:0:0:0:
64,192,135669,1,0,0:0:0:0:
192,192,135794,1,0,0:0:0:0:
320,192,135918,1,0,0:0:0:0:
192,192,136228,1,0,0:0:0:0:
448,192,136290,1,0,0:0:0:0:
64,192,136538,1,0,0:0:0:0:
320,192,136662,1,0,0:0:0:0:
320,192,136848,1,0,0:0:0:0:
192,192,137220,1,0,0:0:0:0:
448,192,137282,1,0,0:0:0:0:
192,192,137531,1,0,0:0:0:0:
448,192,137655,1,0,0:0:0:0:
64,192,137717,1,0,0:0:0:0:
192,192,137903,1,0,0:0:0:0:
320,192,138027,1,0,0:0:0:0:
320,192,138213,1,0,0:0:0:0:
64,192,138275,1,0,0:0:0:0:
448,192,138337,1,0,0:0:0:0:
192,192,138585,1,0,0:0:0:0:
448,192,138709,1,0,0:0:0:0:
320,192,138771,1,0,0:0:0:0:
192,192,139019,1,0,0:0:0:0:
320,192,139143,1,0,0:0:0:0:
64,192,139267,1,0,0:0:0:0:
320,192,139454,1,0,0:0:0:0:
192,192,139578,1,0,0:0:0:0:
448,192,139640,1,0,0:0:0:0:
448,192,139826,1,0,0:0:0:0:
192,192,139826,1,0,0:0:0:0:
192,192,140136,1,0,0:0:0:0:
320,192,140136,1,0,0:0:0:0:
64,192,140260,1,0,0:0:0:0:
448,192,140446,1,0,0:0:0:0:
64,192,140508,1,0,0:0:0:0:
192,192,140570,1,0,0:0:0:0:
320,192,140756,1,0,0:0:0:0:
192,192,140942,1,0,0:0:0:0:
320,192,141253,1,0,0:0:0:0:
64,192,141377,1,0,0:0:0:0:
448,192,141563,1,0,0:0:0:0:
64,192,141687,1,0,0:0:0:0:
448,192,141749,1,0,0:0:0:0:
64,192,141749,1,0,0:0:0:0:
320,192,141811,1,0,0:0:0:0:
320,192,141935,1,0,0:0:0:0:
448,192,142183,1,0,0:0:0:0:
192,192,142183,1,0,0:0:0:0:
192,192,142369,1,0,0:0:0:0:
64,192,142555,1,0,0:0:0:0:
320,192,142555,1,0,0:0:0:0:
64,192,142741,1,0,0:0:0:0:
320,192,142866,1,0,0:0:0:0:
448,192,142990,1,0,0:0:0:0:
64,192,143052,1,0,0:0:0:0:
320,192,143238,1,0,0:0:0:0:
64,192,143362,1,0,0:0:0:0:
448,192,143424,1,0,0:0:0:0:
64,192,143548,1,0,0:0:0:0:
64,192,143734,1,0,0:0:0:0:
320,192,143982,1,0,0:0:0:0:
448,192,143982,1,0,0:0:0:0:
320,192,144106,1,0,0:0:0:0:
64,192,144106,1,0,0:0:0:0:
64,192,144230,1,0,0:0:0:0:
320,192,144292,1,0,0:0:0:0:
192,192,144416,1,0,0:0:0:0:
64,192,144540,1,0,0:0:0:0:
448,192,144665,1,0,0:0:0:0:
320,192,144727,1,0,0:0:0:0:
448,192,144851,1,0,0:0:0:0:
320,192,144975,1,0,0:0:0:0:
192,192,145037,1,0,0:0:0:0:
64,192,145099,1,0,0:0:0:0:
320,192,145285,1,0,0:0:0:0:
64,192,145409,1,0,0:0:0:0:
448,192,145409,1,0,0:0:0:0:
448,192,145781,1,0,0:0:0:0:
192,192,145905,1,0,0:0:0:0:
64,192,146029,128,0,146153:0:0:0:0:
192,192,146215,128,0,146339:0:0:0:0:
320,192,146401,128,0,146526:0:0:0:0:
448,192,146588,128,0,147022:0:0:0:0:
64,192,146774,1,0,0:0:0:0:
192,192,146774,1,0,0:0:0:0:
320,192,147084,128,0,147146:0:0:0:0:
192,192,147208,128,0,147270:0:0:0:0:
64,192,147332,128,0,147394:0:0:0:0:
448,192,147456,1,0,0:0:0:0:
320,192,147580,1,0,0:0:0:0:
64,192,147704,1,0,0:0:0:0:
320,192,147766,1,0,0:0:0:0:
448,192,148014,1,0,0:0:0:0:
448,192,148263,1,0,0:0:0:0:
192,192,148325,1,0,0:0:0:0:
448,192,148325,1,0,0:0:0:0:
448,192,148387,1,0,0:0:0:0:
64,192,148449,1,0,0:0:0:0:
192,192,148511,1,0,0:0:0:0:
192,192,148697,1,0,0:0:0:0:
320,192,148759,1,0,0:0:0:0:
320,192,148821,1,0,0:0:0:0:
64,192,148945,1,0,0:0:0:0:
320,192,149007,1,0,0:0:0:0:
64,192,149131,1,0,0:0:0:0:
320,192,149193,1,0,0:0:0:0:
64,192,149255,1,0,0:0:0:0:
192,192,149441,1,0,0:0:0:0:
320,192,149565,1,0,0:0:0:0:
448,192,149689,1,0,0:0:0:0:
64,192,149689,1,0,0:0:0:0:
448,192,149875,1,0,0:0:0:0:
192,192,149875,1,0,0:0:0:0:
64,192,150062,1,0,0:0:0:0:
320,192,150186,1,0,0:0:0:0:
64,192,150248,1,0,0:0:0:0:
448,192,150248,1,0,0:0:0:0:
192,192,150496,1,0,0:0:0:0:
448,192,150620,1,0,0:0:0:0:
192,192,150744,1,0,0:0:0:0:
192,192,150868,1,0,0:0:0:0:
320,192,150992,1,0,0:0:0:0:
64,192,151054,1,0,0:0:0:0:
320,192,151302,1,0,0:0:0:0:
64,192,151426,1,0,0:0:0:0:
192,192,151550,1,0,0:0:0:0:
192,192,151736,1,0,0:0:0:0:
320,192,151861,1,0,0:0:0:0:
64,192,151985,1,0,0:0:0:0:
448,192,152047,1,0,0:0:0:0:
192,192,152357,1,0,0:0:0:0:
448,192,152481,1,0,0:0:0:0:
64,192,152667,1,0,0:0:0:0:
320,192,152791,1,0,0:0:0:0:
320,192,152977,1,0,0:0:0:0:
192,192,153039,1,0,0:0:0:0:
448,192,153287,1,0,0:0:0:0:
64,192,153349,1,0,0:0:0:0:
320,192,153598,1,0,0:0:0:0:
448,192,153722,1,0,0:0:0:0:
320,192,153846,1,0,0:0:0:0:
64,192,154032,1,0,0:0:0:0:
192,192,154156,1,0,0:0:0:0:
320,192,154342,1,0,0:0:0:0:
320,192,154528,1,0,0:0:0:0:
64,192,154652,1,0,0:0:0:0:
320,192,154714,1,0,0:0:0:0:
448,192,154838,1,0,0:0:0:0:
192,192,154962,1,0,0:0:0:0:
448,192,155024,1,0,0:0:0:0:
320,192,155086,1,0,0:0:0:0:
192,192,155210,1,0,0:0:0:0:
448,192,155272,1,0,0:0:0:0:
448,192,155397,1,0,0:0:0:0:
64,192,155459,1,0,0:0:0:0:
192,192,155521,1,0,0:0:0:0:
192,192,155583,1,0,0:0:0:0:
448,192,155645,1,0,0:0:0:0:
320,192,155707,1,0,0:0:0:0:
448,192,155831,1,0,0:0:0:0:
192,192,155955,1,0,0:0:0:0:
192,192,156141,1,0,0:0:0:0:
64,192,156327,1,0,0:0:0:0:
192,192,156513,1,0,0:0:0:0:
320,192,156699,1,0,0:0:0:0:
448,192,156885,1,0,0:0:0:0:
320,192,157071,1,0,0:0:0:0:
64,192,157258,1,0,0:0:0:0:
192,192,157382,1,0,0:0:0:0:
320,192,157568,1,0,0:0:0:0:
320,192,157754,1,0,0:0:0:0:
320,192,157940,1,0,0:0:0:0:
64,192,158188,1,0,0:0:0:0:
192,192,158250,1,0,0:0:0:0:
192,192,158436,1,0,0:0:0:0:
64,192,158684,1,0,0:0:0:0:
192,192,158684,1,0,0:0:0:0:
320,192,158684,1,0,0:0:0:0:
448,192,158684,1,0,0:0:0:0:
64,192,158995,1,0,0:0:0:0:
192,192,158995,1,0,0:0:0:0:
320,192,158995,1,0,0:0:0:0:
448,192,158995,1,0,0:0:0:0:
64,192,159243,1,0,0:0:0:0:
192,192,159243,1,0,0:0:0:0:
320,192,159243,1,0,0:0:0:0:
448,192,159243,1,0,0:0:0:0:
64,192,159491,1,0,0:0:0:0:
192,192,159491,1,0,0:0:0:0:
320,192,159491,1,0,0:0:0:0:
448,192,159491,1,0,0:0:0:0:
192,192,159739,128,0,162158:0:0:0:0:
448,192,159739,128,0,162034:0:0:0:0:
320,192,159739,128,0,162096:0:0:0:0:
64,192,159739,128,0,162282:0:0:0:0:
448,192,162593,128,0,169727:0:0:0:0:
