osu file format v14

[General]
AudioFilename: audio.mp3
AudioLeadIn: 0
PreviewTime: 200538
Countdown: 0
SampleSet: Drum
StackLeniency: 0.4
Mode: 0
LetterboxInBreaks: 0
WidescreenStoryboard: 1

[Editor]
Bookmarks: 256,25299,50342,75386,87908,100429,112951,125473,150516,175560,188082,200603,225647,250690,275734,288471,324461,342461,360471,387461,414461,432461,441461,459461,477461,496243,521297,587025
DistanceSpacing: 1
BeatDivisor: 8
GridSize: 32
TimelineZoom: 2.899999

[Metadata]
Title:The Spiritual Relief
TitleUnicode:The Spiritual Relief
Artist:Keep Of Kalessin
ArtistUnicode:Keep Of Kalessin
Creator:Roupus
Version:Drowning In Rejuvenation
Source:
Tags:iamtickrate epistemology melodic death black metal english Obsidian Claw Arnt Grønbech Vyl Vegar Ytterdal Larsen Wizziac Robin Isaksen Indie Recordings
BeatmapID:4017986
BeatmapSetID:1942429

[Difficulty]
HPDrainRate:6
CircleSize:4.1
OverallDifficulty:10
ApproachRate:10
SliderMultiplier:2
SliderTickRate:1

[Events]
//Background and Video events
0,0,"nikita-shushman-ice-hall.jpg",0,0
//Break Periods
2,477791,479358
2,480791,481706
//Storyboard Layer 0 (Background)
//Storyboard Layer 1 (Fail)
//Storyboard Layer 2 (Pass)
//Storyboard Layer 3 (Foreground)
//Storyboard Layer 4 (Overlay)
//Storyboard Sound Samples

[TimingPoints]
256,260.869565217391,3,3,1,50,1,0
256,-83.3333333333333,3,3,1,50,0,0
24516,-83.3333333333333,3,3,6,50,0,0
24712,-83.3333333333333,3,3,7,50,0,0
24842,-83.3333333333333,3,3,8,50,0,0
25038,-83.3333333333333,3,3,1,50,0,0
25299,-74.0740740740741,3,3,1,50,0,0
25495,-74.0740740740741,3,3,1,5,0,0
25560,-74.0740740740741,3,3,1,60,0,0
50342,-74.0740740740741,3,3,1,69,0,0
62082,-66.6666666666667,3,3,1,69,0,0
63125,-74.0740740740741,3,3,1,69,0,0
75647,-74.0740740740741,3,3,1,50,0,0
87125,-74.0740740740741,3,3,6,50,0,0
87386,-74.0740740740741,3,3,7,50,0,0
87647,-74.0740740740741,3,3,8,50,0,0
87908,-66.6666666666667,3,3,1,50,0,0
93908,-66.6666666666667,3,3,6,50,0,0
93973,-66.6666666666667,3,3,7,50,0,0
94038,-66.6666666666667,3,3,8,50,0,0
94169,-66.6666666666667,3,3,1,50,0,0
100429,-83.3333333333333,3,3,1,50,0,0
100625,-83.3333333333333,3,3,1,5,0,0
100690,-66.6666666666667,3,3,1,50,0,0
125473,-66.6666666666667,3,3,1,69,0,1
125669,-66.6666666666667,3,3,1,5,0,1
125734,-66.6666666666667,3,3,2,69,0,1
137277,-66.6666666666667,3,3,6,69,0,1
137473,-66.6666666666667,3,3,7,69,0,1
137734,-66.6666666666667,3,3,8,69,0,1
137995,-66.6666666666667,3,3,2,69,0,1
138190,-66.6666666666667,3,3,1,5,0,1
138255,-66.6666666666667,3,3,2,69,0,1
150712,-66.6666666666667,3,3,1,5,0,1
150777,-66.6666666666667,3,3,2,69,0,1
161995,-66.6666666666667,3,3,6,69,0,1
162125,-66.6666666666667,3,3,7,69,0,1
162255,-66.6666666666667,3,3,2,69,0,1
174516,-66.6666666666667,3,3,6,69,0,1
174777,-66.6666666666667,3,3,7,69,0,1
175038,-66.6666666666667,3,3,8,69,0,1
175299,-66.6666666666667,3,3,2,69,0,1
175560,-74.0740740740741,3,3,1,69,0,0
175755,-74.0740740740741,3,3,1,5,0,0
175821,-66.6666666666667,3,3,1,69,0,0
178886,-66.6666666666667,3,3,1,5,0,0
178951,-66.6666666666667,3,3,1,69,0,0
182016,-66.6666666666667,3,3,1,5,0,0
182082,-66.6666666666667,3,3,1,69,0,0
185147,-66.6666666666667,3,3,1,5,0,0
185212,-66.6666666666667,3,3,1,69,0,0
188016,-66.6666666666667,3,3,1,5,0,0
188082,-57.1428571428571,3,3,1,69,0,0
188277,-57.1428571428571,3,3,1,5,0,0
188342,-57.1428571428571,3,3,1,69,0,0
191408,-57.1428571428571,3,3,1,5,0,0
191473,-57.1428571428571,3,3,1,69,0,0
194342,-66.6666666666667,3,3,1,69,0,0
194538,-66.6666666666667,3,3,1,5,0,0
194603,-66.6666666666667,3,3,1,69,0,0
197669,-66.6666666666667,3,3,1,5,0,0
197734,-66.6666666666667,3,3,1,69,0,0
199299,-66.6666666666667,3,3,6,69,0,0
199560,-66.6666666666667,3,3,7,69,0,0
200082,-66.6666666666667,3,3,8,69,0,0
200342,-66.6666666666667,3,3,1,69,0,0
200603,-66.6666666666667,3,3,1,69,0,1
200799,-66.6666666666667,3,3,1,5,0,1
200864,-66.6666666666667,3,3,2,69,0,1
212342,-66.6666666666667,3,3,6,69,0,1
212538,-66.6666666666667,3,3,7,69,0,1
212669,-66.6666666666667,3,3,8,69,0,1
212864,-66.6666666666667,3,3,2,69,0,1
213321,-66.6666666666667,3,3,1,5,0,1
213386,-66.6666666666667,3,3,2,69,0,1
222516,-66.6666666666667,3,3,8,69,0,1
222777,-66.6666666666667,3,3,7,69,0,1
222842,-66.6666666666667,3,3,2,69,0,1
223299,-66.6666666666667,3,3,6,69,0,1
223560,-66.6666666666667,3,3,7,69,0,1
224082,-66.6666666666667,3,3,8,69,0,1
224603,-66.6666666666667,3,3,2,69,0,1
225125,-66.6666666666667,3,3,6,69,0,1
225321,-66.6666666666667,3,3,7,69,0,1
225451,-66.6666666666667,3,3,8,69,0,1
225647,-66.6666666666667,3,3,2,69,0,1
225842,-66.6666666666667,3,3,2,5,0,1
225908,-66.6666666666667,3,3,2,69,0,1
237386,-66.6666666666667,3,3,6,69,0,1
237647,-66.6666666666667,3,3,7,69,0,1
237908,-66.6666666666667,3,3,2,69,0,1
238364,-66.6666666666667,3,3,2,5,0,1
238429,-66.6666666666667,3,3,2,69,0,1
249386,-66.6666666666667,3,3,6,69,0,1
249647,-66.6666666666667,3,3,7,69,0,1
249908,-66.6666666666667,3,3,2,69,0,1
250038,-66.6666666666667,3,3,6,69,0,1
250234,-66.6666666666667,3,3,7,69,0,1
250429,-74.0740740740741,3,3,8,69,0,0
250886,-74.0740740740741,3,3,1,5,0,0
250951,-66.6666666666667,3,3,1,69,0,0
254016,-66.6666666666667,3,3,1,5,0,0
254082,-66.6666666666667,3,3,1,69,0,0
257147,-66.6666666666667,3,3,1,5,0,0
257212,-66.6666666666667,3,3,1,69,0,0
260277,-66.6666666666667,3,3,1,5,0,0
260342,-66.6666666666667,3,3,1,69,0,0
262429,-66.6666666666667,3,3,6,69,0,0
262560,-66.6666666666667,3,3,7,69,0,0
262755,-66.6666666666667,3,3,8,69,0,0
263212,-66.6666666666667,3,3,1,69,0,0
266538,-66.6666666666667,3,3,1,5,0,0
266603,-66.6666666666667,3,3,1,69,0,0
274690,-66.6666666666667,3,3,6,69,0,0
274821,-66.6666666666667,3,3,7,69,0,0
274951,-66.6666666666667,3,3,1,69,0,0
275734,304.568527918782,3,3,1,69,1,0
275734,-66.6666666666667,3,3,1,69,0,0
275962,-66.6666666666667,3,3,1,5,0,0
276038,243.90243902439,3,3,1,69,1,0
276159,264.31718061674,3,3,1,69,1,0
276423,283.018867924529,3,3,1,69,1,0
276564,288.461538461538,3,3,1,69,1,0
276564,-125,3,3,1,69,0,0
276780,-133.333333333333,3,3,1,5,0,0
276852,254.237288135593,3,3,6,69,1,0
276852,-80,3,3,1,69,0,0
276979,291.26213592233,3,3,6,69,1,0
277124,293.398533007335,3,3,6,69,1,0
277417,329.670329670329,3,3,1,69,1,0
277664,-100,3,3,1,5,0,0
277746,264.31718061674,3,3,6,69,1,0
277746,-100,3,3,1,69,0,0
277878,357.142857142857,3,3,6,69,1,0
278056,285.714285714286,3,3,7,69,1,0
278198,303.030303030303,3,3,7,69,1,0
278349,396.039603960396,3,3,1,69,1,0
278349,-133.333333333333,3,3,1,69,0,0
278646,-133.333333333333,3,3,1,5,0,0
278745,346.820809248555,3,3,6,69,1,0
278745,-133.333333333333,3,3,1,69,0,0
279084,320.855614973262,3,3,7,69,1,0
279244,437.956204379562,3,3,8,69,1,0
279462,379.14691943128,3,3,1,69,1,0
279462,-80,3,3,1,69,0,0
280504,-80,3,3,1,5,0,0
280599,371.517027863777,3,3,1,69,1,0
281619,-100,3,3,1,5,0,0
281713,374.414976599064,3,3,1,69,1,0
281713,-133.333333333333,3,3,1,69,0,0
282742,-133.333333333333,3,3,1,5,0,0
282836,375,3,3,1,69,1,0
283867,-100,3,3,1,5,0,0
283961,-133.333333333333,3,3,1,69,0,0
286117,-133.333333333333,3,3,1,5,0,0
286211,-133.333333333333,3,3,1,69,0,0
286711,-133.333333333333,3,3,6,69,0,0
286961,-133.333333333333,3,3,7,69,0,0
287086,-133.333333333333,3,3,8,69,0,0
287461,-133.333333333333,3,3,7,69,0,0
287711,-133.333333333333,3,3,6,69,0,0
287836,-133.333333333333,3,3,8,69,0,0
288461,375,3,3,1,50,1,0
288461,-200,3,3,1,50,0,0
292961,-133.333333333333,3,3,1,50,0,0
295164,-133.333333333333,3,3,1,5,0,0
295211,-133.333333333333,3,3,6,50,0,0
295961,-133.333333333333,3,3,7,50,0,0
296523,-133.333333333333,3,3,8,50,0,0
297086,-100,3,3,1,50,0,0
297367,-100,3,3,1,5,0,0
297461,-200,3,3,1,50,0,0
301961,-133.333333333333,3,3,1,50,0,0
304586,-133.333333333333,3,3,6,50,0,0
305336,-133.333333333333,3,3,7,50,0,0
305711,-133.333333333333,3,3,8,50,0,0
306086,-100,3,3,1,50,0,0
306367,-100,3,3,1,5,0,0
306461,-200,3,3,1,50,0,0
310961,-133.333333333333,3,3,1,50,0,0
313211,-133.333333333333,3,3,6,50,0,0
313961,-133.333333333333,3,3,7,50,0,0
314523,-133.333333333333,3,3,8,50,0,0
315086,-133.333333333333,3,3,6,50,0,0
315179,-133.333333333333,3,3,7,50,0,0
315273,-133.333333333333,3,3,8,50,0,0
315461,-200,3,3,1,50,0,0
319961,-133.333333333333,3,3,1,50,0,0
322211,-133.333333333333,3,3,1,35,0,0
322586,-133.333333333333,3,3,1,40,0,0
322961,-133.333333333333,3,3,1,45,0,0
323336,-133.333333333333,3,3,1,50,0,0
323711,-133.333333333333,3,3,1,60,0,0
324086,-133.333333333333,3,3,1,60,0,0
324461,-100,3,3,1,60,0,0
340492,-100,3,3,1,5,0,0
340586,-100,3,3,1,60,0,0
341523,-100,3,3,6,60,0,0
341898,-100,3,3,7,60,0,0
342179,-100,3,3,8,60,0,0
342461,-100,3,3,1,60,0,0
343211,-66.6666666666667,3,3,1,60,0,0
348367,-66.6666666666667,3,3,1,5,0,0
348461,-66.6666666666667,3,3,1,60,0,0
351086,-133.333333333333,3,3,1,60,0,0
351461,-66.6666666666667,3,3,1,60,0,0
358398,-66.6666666666667,3,3,6,60,0,0
359148,-66.6666666666667,3,3,7,60,0,0
359523,-66.6666666666667,3,3,8,60,0,0
359898,-66.6666666666667,3,3,1,60,0,0
360461,-117.647058823529,3,3,1,60,0,0
361586,-100,3,3,1,50,0,0
361961,-117.647058823529,3,3,1,50,0,0
363023,-117.647058823529,3,3,1,5,0,0
363086,-100,3,3,1,50,0,0
363461,-117.647058823529,3,3,1,50,0,0
368961,-117.647058823529,3,3,6,50,0,0
369211,-117.647058823529,3,3,7,50,0,0
369461,-117.647058823529,3,3,1,50,0,0
370586,-100,3,3,1,50,0,0
370961,-117.647058823529,3,3,1,50,0,0
372023,-117.647058823529,3,3,1,5,0,0
372086,-100,3,3,1,50,0,0
372461,-117.647058823529,3,3,1,50,0,0
375086,-100,3,3,1,50,0,0
375461,-117.647058823529,3,3,1,50,0,0
376398,-117.647058823529,3,3,1,5,0,0
376461,-117.647058823529,3,3,6,50,0,0
376836,-117.647058823529,3,3,1,50,0,0
377211,-117.647058823529,3,3,6,50,0,0
377586,-117.647058823529,3,3,7,50,0,0
377898,-117.647058823529,3,3,8,50,0,0
378211,-117.647058823529,3,3,1,50,0,0
379586,-100,3,3,1,50,0,0
379961,-117.647058823529,3,3,1,50,0,0
381023,-117.647058823529,3,3,1,5,0,0
381086,-100,3,3,1,50,0,0
381461,-117.647058823529,3,3,1,50,0,0
383148,-117.647058823529,3,3,1,5,0,0
383211,-117.647058823529,3,3,1,50,0,0
384961,-117.647058823529,3,3,6,50,0,0
385211,-117.647058823529,3,3,1,50,0,0
385711,-117.647058823529,3,3,6,50,0,0
385961,-117.647058823529,3,3,1,50,0,0
386086,-117.647058823529,3,3,7,50,0,0
386336,-117.647058823529,3,3,1,50,0,0
386461,-117.647058823529,3,3,8,50,0,0
386961,-117.647058823529,3,3,1,50,0,0
387336,-117.647058823529,3,3,1,5,0,0
387453,375,3,3,1,50,1,0
387453,-117.647058823529,3,3,1,50,0,0
388140,-117.647058823529,3,3,1,5,0,0
388203,-117.647058823529,3,3,1,50,0,0
388578,-100,3,3,1,50,0,0
388953,-117.647058823529,3,3,1,50,0,0
390015,-117.647058823529,3,3,1,5,0,0
390078,-100,3,3,1,50,0,0
390453,-117.647058823529,3,3,1,50,0,0
393078,-100,3,3,1,50,0,0
393453,-117.647058823529,3,3,1,50,0,0
396078,-117.647058823529,3,3,6,50,0,0
396203,-117.647058823529,3,3,7,50,0,0
396328,-117.647058823529,3,3,8,50,0,0
396453,-117.647058823529,3,3,1,50,0,0
397578,-100,3,3,1,50,0,0
397953,-117.647058823529,3,3,1,50,0,0
399015,-117.647058823529,3,3,1,5,0,0
399078,-100,3,3,1,50,0,0
399453,-117.647058823529,3,3,1,50,0,0
402078,-100,3,3,1,50,0,0
402453,-117.647058823529,3,3,1,50,0,0
403390,-117.647058823529,3,3,1,5,0,0
403453,-117.647058823529,3,3,1,50,0,0
404203,-117.647058823529,3,3,6,50,0,0
404578,-117.647058823529,3,3,7,50,0,0
404890,-117.647058823529,3,3,7,5,0,0
404953,-117.647058823529,3,3,8,50,0,0
405203,-117.647058823529,3,3,1,50,0,0
406578,-100,3,3,1,50,0,0
406953,-117.647058823529,3,3,1,50,0,0
408015,-117.647058823529,3,3,1,5,0,0
408078,-100,3,3,1,50,0,0
408453,-117.647058823529,3,3,1,50,0,0
411078,-100,3,3,1,50,0,0
411453,-117.647058823529,3,3,1,50,0,0
412578,-117.647058823529,3,3,6,50,0,0
413328,-117.647058823529,3,3,7,50,0,0
413703,-117.647058823529,3,3,8,50,0,0
414078,-117.647058823529,3,3,1,50,0,0
416703,-100,3,3,1,50,0,0
417015,-100,3,3,1,5,0,0
417078,-100,3,3,1,50,0,0
417453,-117.647058823529,3,3,1,50,0,0
420078,-100,3,3,1,50,0,0
420453,-117.647058823529,3,3,1,50,0,0
421578,-117.647058823529,3,3,6,50,0,0
422140,-117.647058823529,3,3,7,50,0,0
422890,-117.647058823529,3,3,8,50,0,0
423265,-117.647058823529,3,3,1,50,0,0
424578,-100,3,3,1,50,0,0
424953,-117.647058823529,3,3,1,50,0,0
426015,-117.647058823529,3,3,1,5,0,0
426078,-100,3,3,1,50,0,0
426453,-117.647058823529,3,3,1,50,0,0
429078,-100,3,3,1,50,0,0
432453,-133.333333333333,3,3,1,50,0,0
433515,-133.333333333333,3,3,1,5,0,0
433578,-117.647058823529,3,3,1,50,0,0
434640,-133.333333333333,3,3,1,5,0,0
434703,-133.333333333333,3,3,1,50,0,0
435765,-133.333333333333,3,3,1,5,0,0
435828,-133.333333333333,3,3,1,50,0,0
436890,-133.333333333333,3,3,1,5,0,0
436953,-666.666666666667,3,3,1,50,0,0
441390,-666.666666666667,3,3,1,5,0,0
441453,-100,3,3,1,50,0,0
443234,-100,3,3,1,5,0,0
443328,-100,3,3,1,50,0,0
444734,-100,3,3,1,5,0,0
444828,-100,3,3,1,50,0,0
445484,-100,3,3,1,5,0,0
445578,-100,3,3,1,50,0,0
446984,-100,3,3,1,5,0,0
447078,-100,3,3,1,50,0,0
447734,-100,3,3,1,5,0,0
447828,-100,3,3,1,50,0,0
451578,-133.333333333333,3,3,1,50,0,0
452234,-133.333333333333,3,3,1,5,0,0
452328,-133.333333333333,3,3,1,50,0,0
452703,-100,3,3,1,50,0,0
454484,-100,3,3,1,5,0,0
454578,-100,3,3,1,50,0,0
455984,-100,3,3,1,5,0,0
456078,-133.333333333333,3,3,1,50,0,0
456734,-133.333333333333,3,3,1,5,0,0
456828,-133.333333333333,3,3,1,50,0,0
457578,-133.333333333333,3,3,6,50,0,0
458328,-133.333333333333,3,3,7,50,0,0
458703,-133.333333333333,3,3,8,50,0,0
459078,-133.333333333333,3,3,1,50,0,0
459390,-133.333333333333,3,3,1,5,0,0
459453,-100,3,3,1,50,0,0
461234,-100,3,3,1,5,0,0
461328,-100,3,3,1,50,0,0
462734,-100,3,3,1,5,0,0
462828,-100,3,3,1,50,0,0
463484,-100,3,3,1,5,0,0
463578,-100,3,3,1,50,0,0
464984,-100,3,3,1,5,0,0
465078,-133.333333333333,3,3,1,50,0,0
466109,-133.333333333333,3,3,1,5,0,0
466203,-133.333333333333,3,3,1,50,0,0
466578,-133.333333333333,3,3,6,50,0,0
466953,-133.333333333333,3,3,7,50,0,0
467328,-133.333333333333,3,3,8,50,0,0
467703,-133.333333333333,3,3,1,50,0,0
468078,-83.3333333333333,3,3,1,50,0,0
468453,-100,3,3,1,50,0,0
470234,-100,3,3,1,5,0,0
470328,-100,3,3,1,50,0,0
471734,-100,3,3,1,5,0,0
471828,-100,3,3,1,50,0,0
472484,-100,3,3,1,5,0,0
472578,-100,3,3,1,50,0,0
473984,-100,3,3,1,5,0,0
474078,-100,3,3,1,50,0,0
475578,-100,3,3,1,40,0,0
475953,-100,3,3,1,45,0,0
476328,-100,3,3,1,50,0,0
476703,-100,3,3,1,60,0,0
477078,-100,3,3,1,69,0,0
477461,260.869565217391,3,3,1,69,1,0
477461,-80,3,3,1,69,0,0
477591,-80,3,3,1,5,0,0
479808,-80,3,3,1,69,0,0
483200,-72.992700729927,3,3,1,69,0,0
483461,-66.6666666666667,3,3,1,69,0,0
483917,-66.6666666666667,3,3,1,5,0,0
483982,-66.6666666666667,3,3,1,69,0,0
487047,-66.6666666666667,3,3,1,5,0,0
487113,-66.6666666666667,3,3,1,69,0,0
489200,-100,3,3,1,69,0,0
489787,-100,3,3,6,69,0,0
489852,-100,3,3,7,69,0,0
489917,-100,3,3,8,69,0,0
489982,-66.6666666666667,3,3,1,69,0,0
490178,-66.6666666666667,3,3,1,5,0,0
490243,-66.6666666666667,3,3,1,69,0,0
493308,-66.6666666666667,3,3,1,5,0,0
493374,-66.6666666666667,3,3,1,69,0,0
496243,-66.6666666666667,3,3,2,69,0,1
496439,-66.6666666666667,3,3,2,5,0,1
496504,-66.6666666666667,3,3,2,69,0,1
520504,-66.6666666666667,3,3,6,69,0,1
520765,-66.6666666666667,3,3,7,69,0,1
521026,-66.6666666666667,3,3,2,69,0,1
521482,-66.6666666666667,3,3,2,5,0,1
521547,-66.6666666666667,3,3,2,69,0,1
532504,-66.6666666666667,3,3,6,69,0,1
533026,-66.6666666666667,3,3,7,69,0,1
533287,-66.6666666666667,3,3,8,69,0,1
533547,-66.6666666666667,3,3,2,69,0,1
534004,-66.6666666666667,3,3,2,5,0,1
534069,-66.6666666666667,3,3,2,69,0,1
545547,-66.6666666666667,3,3,6,69,0,1
545808,-66.6666666666667,3,3,7,69,0,1
546069,-66.6666666666667,3,3,8,69,0,1
546330,521.739130434783,3,2,1,69,1,0
546330,-200,3,2,1,69,0,0
557286,-200,3,3,6,69,0,0
557808,-200,3,3,7,69,0,0
558330,-200,3,3,8,69,0,0
558851,-200,3,2,1,69,0,0
574503,-243.90243902439,3,2,1,69,0,0
583895,-243.90243902439,3,2,1,60,0,0
584416,-243.90243902439,3,2,1,50,0,0
584938,-243.90243902439,3,2,1,40,0,0
585460,-243.90243902439,3,2,1,30,0,0
585982,-243.90243902439,3,2,1,20,0,0
586503,-243.90243902439,3,2,1,10,0,0
587025,-243.90243902439,3,2,1,5,0,0

[Colours]
Combo1 : 63,63,63
Combo2 : 5,198,207
Combo3 : 33,150,243
Combo4 : 170,170,170

[HitObjects]
51,315,256,5,2,0:0:0:0:
20,286,321,1,8,0:0:0:0:
18,244,386,1,2,0:0:0:0:
38,207,451,1,8,0:0:0:0:
78,197,516,1,2,0:0:0:0:
118,208,582,1,8,0:0:0:0:
137,245,647,1,2,0:0:0:0:
136,286,712,1,8,0:0:0:0:
161,319,777,1,2,0:0:0:0:
201,329,842,1,8,0:0:0:0:
238,309,908,1,2,0:0:0:0:
254,270,973,1,8,0:0:0:0:
239,230,1038,1,2,0:0:0:0:
251,189,1103,1,8,0:0:0:0:
286,165,1169,1,2,0:0:0:0:
327,166,1234,1,8,0:0:0:0:
351,200,1299,2,0,P|341:239|332:270,3,59.9999981689454,2|8|2|8,0:0|0:0|0:0|0:0,0:0:0:0:
259,303,1560,2,0,P|269:342|278:373,3,59.9999981689454,2|8|2|8,0:0|0:0|0:0|0:0,0:0:0:0:
455,296,1821,5,2,0:0:0:0:
477,285,1886,1,8,0:0:0:0:
484,263,1951,1,2,0:0:0:0:
474,242,2016,1,8,0:0:0:0:
472,218,2082,1,2,0:0:0:0:
486,198,2147,1,8,0:0:0:0:
510,193,2212,5,2,0:0:0:0:
491,220,2277,1,8,0:0:0:0:
458,216,2342,1,2,0:0:0:0:
436,190,2408,1,8,0:0:0:0:
434,157,2473,1,2,0:0:0:0:
455,132,2538,1,8,0:0:0:0:
487,134,2603,5,2,0:0:0:0:
458,165,2669,1,8,0:0:0:0:
416,164,2734,1,2,0:0:0:0:
386,134,2799,1,8,0:0:0:0:
390,92,2864,1,2,0:0:0:0:
363,59,2929,1,8,0:0:0:0:
321,49,2995,1,2,0:0:0:0:
284,70,3060,1,8,0:0:0:0:
278,111,3125,2,8,L|358:125,3,59.9999981689454,0|10|0|10,0:0|0:0|0:0|0:0,0:0:0:0:
50,76,3386,5,2,0:0:0:0:
51,25,3451,1,8,0:0:0:0:
95,0,3516,1,2,0:0:0:0:
144,14,3582,1,8,0:0:0:0:
160,62,3647,1,2,0:0:0:0:
140,109,3712,1,8,0:0:0:0:
100,140,3777,1,2,0:0:0:0:
95,190,3842,1,8,0:0:0:0:
123,232,3908,1,2,0:0:0:0:
173,237,3973,1,8,0:0:0:0:
214,208,4038,1,2,0:0:0:0:
264,203,4103,1,8,0:0:0:0:
305,233,4169,1,2,0:0:0:0:
316,282,4234,1,8,0:0:0:0:
295,328,4299,1,2,0:0:0:0:
247,347,4364,1,8,0:0:0:0:
199,328,4429,2,0,L|214:248,3,59.9999981689454,2|8|2|8,0:0|0:0|0:0|0:0,0:0:0:0:
109,326,4690,2,0,L|121:385,3,59.9999981689454,2|8|2|8,0:0|0:0|0:0|0:0,0:0:0:0:
26,272,4951,5,2,0:0:0:0:
29,263,5016,1,8,0:0:0:0:
31,254,5082,1,2,0:0:0:0:
34,246,5147,1,8,0:0:0:0:
37,237,5211,1,2,0:0:0:0:
39,229,5277,1,8,0:0:0:0:
40,220,5342,1,2,0:0:0:0:
42,211,5408,1,8,0:0:0:0:
43,202,5473,1,2,0:0:0:0:
44,192,5538,1,8,0:0:0:0:
44,183,5603,1,2,0:0:0:0:
44,175,5669,1,8,0:0:0:0:
44,166,5734,1,2,0:0:0:0:
43,156,5799,1,8,0:0:0:0:
42,148,5864,1,2,0:0:0:0:
40,139,5929,1,8,0:0:0:0:
37,130,5995,2,0,P|63:132|116:151,3,59.9999981689454,2|8|2|8,0:0|0:0|0:0|0:0,0:0:0:0:
164,213,6255,2,0,P|194:206|240:176,3,59.9999981689454,2|8|2|8,0:0|0:0|0:0|0:0,0:0:0:0:
330,77,6516,5,2,0:0:0:0:
306,126,6582,1,8,0:0:0:0:
332,172,6647,1,2,0:0:0:0:
383,189,6712,1,8,0:0:0:0:
431,164,6777,1,2,0:0:0:0:
447,112,6842,1,8,0:0:0:0:
420,64,6908,1,2,0:0:0:0:
369,44,6973,1,8,0:0:0:0:
317,57,7038,1,2,0:0:0:0:
290,103,7103,1,8,0:0:0:0:
239,124,7169,1,2,0:0:0:0:
186,112,7234,1,8,0:0:0:0:
161,64,7299,1,2,0:0:0:0:
128,21,7364,1,8,0:0:0:0:
74,12,7429,1,2,0:0:0:0:
24,36,7495,1,8,0:0:0:0:
5,86,7560,1,2,0:0:0:0:
22,137,7625,1,8,0:0:0:0:
67,165,7690,1,2,0:0:0:0:
120,161,7755,1,8,0:0:0:0:
159,123,7821,5,2,0:0:0:0:
139,109,7886,1,8,0:0:0:0:
115,103,7951,1,2,0:0:0:0:
91,105,8016,1,8,0:0:0:0:
68,112,8082,1,2,0:0:0:0:
50,127,8147,1,8,0:0:0:0:
39,148,8212,1,2,0:0:0:0:
33,171,8277,1,8,0:0:0:0:
33,194,8342,1,2,0:0:0:0:
42,216,8408,1,8,0:0:0:0:
55,235,8473,1,2,0:0:0:0:
74,249,8538,1,8,0:0:0:0:
96,256,8603,5,2,0:0:0:0:
103,246,8669,1,8,0:0:0:0:
107,234,8734,1,2,0:0:0:0:
108,222,8799,1,8,0:0:0:0:
105,210,8864,2,0,P|92:170|69:138,3,59.9999981689454,2|8|2|8,0:0|0:0|0:0|0:0,0:0:0:0:
180,295,9125,2,0,P|159:331|144:367,3,59.9999981689454,8|2|8|2,0:0|0:0|0:0|0:0,0:0:0:0:
270,233,9386,2,0,P|242:220|217:204,3,59.9999981689454,2|8|2|8,0:0|0:0|0:0|0:0,0:0:0:0:
456,318,9647,5,2,0:0:0:0:
420,350,9712,1,8,0:0:0:0:
372,341,9777,1,2,0:0:0:0:
348,299,9842,1,8,0:0:0:0:
356,251,9908,1,2,0:0:0:0:
394,223,9973,1,8,0:0:0:0:
441,225,10038,1,2,0:0:0:0:
481,199,10103,1,8,0:0:0:0:
496,153,10169,1,2,0:0:0:0:
474,110,10234,1,8,0:0:0:0:
430,89,10299,1,2,0:0:0:0:
384,102,10364,1,8,0:0:0:0:
357,141,10429,1,2,0:0:0:0:
309,149,10495,1,8,0:0:0:0:
266,127,10560,1,2,0:0:0:0:
253,80,10625,1,8,0:0:0:0:
267,34,10690,2,0,L|332:46,3,59.9999981689454,2|8|2|8,0:0|0:0|0:0|0:0,0:0:0:0:
252,138,10951,2,0,L|187:150,3,59.9999981689454,2|8|2|8,0:0|0:0|0:0|0:0,0:0:0:0:
23,77,11212,5,2,0:0:0:0:
32,42,11277,1,8,0:0:0:0:
64,27,11342,1,2,0:0:0:0:
100,32,11408,1,8,0:0:0:0:
125,57,11473,1,2,0:0:0:0:
126,92,11538,1,8,0:0:0:0:
105,121,11603,1,2,0:0:0:0:
71,135,11669,1,8,0:0:0:0:
51,165,11734,1,2,0:0:0:0:
50,200,11799,1,8,0:0:0:0:
75,225,11864,1,2,0:0:0:0:
109,233,11929,1,8,0:0:0:0:
138,212,11995,1,2,0:0:0:0:
146,177,12060,1,8,0:0:0:0:
124,148,12125,1,2,0:0:0:0:
88,148,12190,1,8,0:0:0:0:
64,175,12255,2,0,L|94:249,3,59.9999981689454,2|8|2|8,0:0|0:0|0:0|0:0,0:0:0:0:
39,324,12516,6,0,P|105:304|210:281,1,119.999996337891,2|2,0:0|0:0,0:0:0:0:
469,247,12777,5,6,0:0:0:0:
492,288,12842,1,8,0:0:0:0:
484,336,12908,1,2,0:0:0:0:
443,362,12973,1,8,0:0:0:0:
396,352,13038,1,2,0:0:0:0:
372,310,13103,1,8,0:0:0:0:
382,262,13169,1,2,0:0:0:0:
360,219,13234,1,8,0:0:0:0:
314,203,13299,1,2,0:0:0:0:
268,218,13364,1,8,0:0:0:0:
248,261,13429,1,2,0:0:0:0:
262,307,13495,1,8,0:0:0:0:
303,330,13560,6,0,L|313:263,1,59.9999981689454,2|8,0:0|0:0,0:0:0:0:
388,263,13690,2,0,L|378:196,1,59.9999981689454,2|8,0:0|0:0,0:0:0:0:
268,103,13821,1,2,0:0:0:0:
262,110,13886,1,8,0:0:0:0:
260,118,13951,1,2,0:0:0:0:
260,126,14016,1,8,0:0:0:0:
261,134,14082,1,2,0:0:0:0:
263,142,14147,1,8,0:0:0:0:
268,149,14212,1,2,0:0:0:0:
274,155,14277,1,8,0:0:0:0:
281,159,14342,6,0,P|305:146|339:136,1,59.9999981689454,2|8,0:0|0:0,0:0:0:0:
418,47,14473,1,2,0:0:0:0:
425,41,14538,1,8,0:0:0:0:
433,39,14603,1,2,0:0:0:0:
441,39,14668,1,8,0:0:0:0:
449,40,14734,1,2,0:0:0:0:
457,42,14799,1,8,0:0:0:0:
464,46,14864,2,0,P|472:78|479:111,3,59.9999981689454,2|8|2|8,0:0|0:0|0:0|0:0,0:0:0:0:
266,8,15125,5,2,0:0:0:0:
280,40,15190,1,8,0:0:0:0:
264,72,15255,1,2,0:0:0:0:
228,80,15321,1,8,0:0:0:0:
195,94,15386,1,2,0:0:0:0:
184,128,15451,1,8,0:0:0:0:
204,157,15516,2,0,P|236:149|269:142,5,59.9999981689454,2|8|2|8|0|0,0:0|0:0|0:0|0:0|0:0|0:0,0:0:0:0:
244,283,15908,5,2,0:0:0:0:
253,333,15973,1,8,0:0:0:0:
222,374,16038,1,2,0:0:0:0:
171,379,16103,1,8,0:0:0:0:
127,352,16169,1,2,0:0:0:0:
113,303,16234,1,8,0:0:0:0:
132,257,16299,1,2,0:0:0:0:
179,241,16364,1,8,0:0:0:0:
226,260,16429,1,2,0:0:0:0:
277,259,16495,1,8,0:0:0:0:
319,231,16560,1,2,0:0:0:0:
337,184,16625,1,8,0:0:0:0:
383,157,16690,1,2,0:0:0:0:
432,167,16755,1,8,0:0:0:0:
461,210,16821,1,2,0:0:0:0:
456,261,16886,1,8,0:0:0:0:
417,295,16951,2,0,L|397:226,3,59.9999981689454,2|8|2|8,0:0|0:0|0:0|0:0,0:0:0:0:
250,173,17212,2,0,L|270:104,3,59.9999981689454,2|8|2|8,0:0|0:0|0:0|0:0,0:0:0:0:
366,62,17473,5,2,0:0:0:0:
354,18,17538,1,8,0:0:0:0:
311,2,17603,1,2,0:0:0:0:
267,14,17669,1,8,0:0:0:0:
249,55,17734,1,2,0:0:0:0:
260,98,17799,1,8,0:0:0:0:
246,140,17864,1,2,0:0:0:0:
205,159,17929,1,8,0:0:0:0:
161,147,17995,1,2,0:0:0:0:
145,104,18060,1,8,0:0:0:0:
157,60,18125,1,2,0:0:0:0:
198,42,18190,1,8,0:0:0:0:
240,55,18255,1,2,0:0:0:0:
248,99,18321,1,8,0:0:0:0:
222,135,18386,1,2,0:0:0:0:
177,127,18451,1,8,0:0:0:0:
172,82,18516,2,0,L|246:71,3,59.9999981689454,2|8|2|8,0:0|0:0|0:0|0:0,0:0:0:0:
93,152,18777,2,0,L|22:137,3,59.9999981689454,2|8|2|8,0:0|0:0|0:0|0:0,0:0:0:0:
116,314,19038,5,2,0:0:0:0:
130,346,19103,1,8,0:0:0:0:
164,357,19169,1,2,0:0:0:0:
197,342,19234,1,8,0:0:0:0:
207,307,19299,1,2,0:0:0:0:
191,274,19364,1,8,0:0:0:0:
199,239,19429,1,2,0:0:0:0:
229,218,19495,1,8,0:0:0:0:
264,223,19560,1,2,0:0:0:0:
288,249,19625,1,8,0:0:0:0:
323,255,19690,1,2,0:0:0:0:
356,242,19755,1,8,0:0:0:0:
366,207,19821,2,0,L|283:233,3,59.9999981689454,2|8|2|8,0:0|0:0|0:0|0:0,0:0:0:0:
492,328,20082,5,2,0:0:0:0:
465,360,20147,1,8,0:0:0:0:
423,356,20212,1,2,0:0:0:0:
402,319,20277,1,8,0:0:0:0:
418,280,20342,2,0,L|501:306,3,59.9999981689454,2|8|2|8,0:0|0:0|0:0|0:0,0:0:0:0:
455,196,20603,2,0,L|538:222,3,59.9999981689454,2|8|2|8,0:0|0:0|0:0|0:0,0:0:0:0:
512,115,20864,2,0,L|454:97,1,59.9999981689454,2|8,0:0|0:0,0:0:0:0:
335,7,20995,5,2,0:0:0:0:
311,12,21060,1,8,0:0:0:0:
299,32,21125,1,2,0:0:0:0:
303,55,21190,1,8,0:0:0:0:
321,69,21255,1,2,0:0:0:0:
345,69,21321,1,8,0:0:0:0:
361,52,21386,5,2,0:0:0:0:
329,34,21451,1,8,0:0:0:0:
294,42,21516,1,2,0:0:0:0:
273,72,21582,1,8,0:0:0:0:
278,107,21647,1,2,0:0:0:0:
263,139,21712,1,8,0:0:0:0:
228,149,21777,1,2,0:0:0:0:
194,135,21842,1,8,0:0:0:0:
187,99,21908,2,0,L|260:112,3,59.9999981689454,2|8|2|8,0:0|0:0|0:0|0:0,0:0:0:0:
47,243,22169,5,2,0:0:0:0:
84,208,22234,1,8,0:0:0:0:
134,212,22299,1,2,0:0:0:0:
159,255,22364,1,8,0:0:0:0:
152,305,22429,1,2,0:0:0:0:
176,351,22495,1,8,0:0:0:0:
226,358,22560,1,2,0:0:0:0:
268,329,22625,1,8,0:0:0:0:
274,278,22690,1,2,0:0:0:0:
305,238,22755,1,8,0:0:0:0:
355,226,22821,1,2,0:0:0:0:
398,251,22886,1,8,0:0:0:0:
411,299,22951,5,2,0:0:0:0:
361,308,23016,1,8,0:0:0:0:
327,269,23082,1,2,0:0:0:0:
344,221,23147,1,8,0:0:0:0:
330,172,23212,1,2,0:0:0:0:
285,148,23277,1,8,0:0:0:0:
239,170,23342,2,0,P|252:202|262:235,1,59.9999981689454,2|8,0:0|0:0,0:0:0:0:
453,132,23473,5,2,0:0:0:0:
464,126,23538,1,8,0:0:0:0:
476,130,23603,1,2,0:0:0:0:
482,141,23669,1,8,0:0:0:0:
478,154,23734,5,8,0:0:0:0:
420,143,23799,1,8,0:0:0:0:
361,132,23864,1,8,0:0:0:0:
303,121,23929,1,8,0:0:0:0:
244,110,23995,1,8,0:0:0:0:
186,100,24060,1,8,0:0:0:0:
127,89,24125,1,8,0:0:0:0:
68,80,24190,1,8,0:0:0:0:
11,69,24255,2,0,L|-3:-3,3,59.9999981689454,8|0|0|0,0:0|0:0|0:0|0:0,0:0:0:0:
152,162,24516,5,8,0:0:0:0:
186,149,24582,1,8,0:0:0:0:
219,137,24647,1,8,0:0:0:0:
252,125,24712,1,8,0:0:0:0:
285,113,24777,2,0,L|300:34,3,59.9999981689454,8|8|8|8,0:0|0:0|0:0|0:0,0:0:0:0:
75,262,25038,5,8,0:0:0:0:
173,8,25169,1,8,0:0:0:0:
0,273,25299,6,0,P|92:295|238:344,1,202.500000772476,12|0,0:0|0:0,0:0:0:0:
272,375,25560,5,2,0:0:0:0:
318,381,25625,1,8,0:0:0:0:
357,355,25690,1,2,0:0:0:0:
366,308,25755,1,8,0:0:0:0:
335,271,25821,1,2,0:0:0:0:
287,268,25886,1,8,0:0:0:0:
253,234,25951,1,2,0:0:0:0:
254,186,26016,1,8,0:0:0:0:
291,156,26082,1,2,0:0:0:0:
338,157,26147,1,8,0:0:0:0:
373,188,26212,1,2,0:0:0:0:
419,196,26277,1,8,0:0:0:0:
457,169,26342,1,2,0:0:0:0:
458,121,26408,1,8,0:0:0:0:
421,91,26473,1,2,0:0:0:0:
373,91,26538,1,8,0:0:0:0:
346,129,26603,1,2,0:0:0:0:
352,176,26669,1,8,0:0:0:0:
324,214,26734,1,2,0:0:0:0:
278,227,26799,1,8,0:0:0:0:
236,205,26864,1,2,0:0:0:0:
229,165,26929,1,8,0:0:0:0:
244,134,26995,1,2,0:0:0:0:
268,122,27060,1,8,0:0:0:0:
288,123,27125,1,2,0:0:0:0:
299,129,27190,1,8,0:0:0:0:
306,140,27255,1,2,0:0:0:0:
306,153,27321,1,8,0:0:0:0:
299,165,27386,2,0,L|220:150,3,67.5000002574921,2|8|2|8,0:0|0:0|0:0|0:0,0:0:0:0:
263,296,27647,5,2,0:0:0:0:
224,322,27712,1,8,0:0:0:0:
176,319,27777,1,2,0:0:0:0:
147,281,27842,1,8,0:0:0:0:
102,262,27908,1,2,0:0:0:0:
55,268,27973,1,8,0:0:0:0:
27,306,28038,1,2,0:0:0:0:
30,352,28103,1,8,0:0:0:0:
72,373,28169,2,0,L|87:294,3,67.5000002574921,2|8|2|8,0:0|0:0|0:0|0:0,0:0:0:0:
33,191,28429,5,2,0:0:0:0:
38,136,28495,1,8,0:0:0:0:
80,103,28560,1,2,0:0:0:0:
133,102,28625,1,8,0:0:0:0:
169,141,28690,1,2,0:0:0:0:
174,194,28755,1,8,0:0:0:0:
203,240,28821,1,2,0:0:0:0:
255,250,28886,1,8,0:0:0:0:
300,220,28951,1,2,0:0:0:0:
309,167,29016,1,8,0:0:0:0:
276,123,29082,1,2,0:0:0:0:
272,69,29147,1,8,0:0:0:0:
304,26,29212,1,2,0:0:0:0:
357,23,29277,1,8,0:0:0:0:
395,60,29342,1,2,0:0:0:0:
395,114,29408,1,8,0:0:0:0:
365,158,29473,1,2,0:0:0:0:
317,158,29538,1,8,0:0:0:0:
288,129,29603,1,2,0:0:0:0:
287,94,29669,1,8,0:0:0:0:
299,69,29734,1,2,0:0:0:0:
318,63,29799,1,8,0:0:0:0:
331,64,29864,1,2,0:0:0:0:
342,71,29929,1,8,0:0:0:0:
348,83,29995,5,2,0:0:0:0:
332,112,30060,1,8,0:0:0:0:
300,124,30125,1,2,0:0:0:0:
266,120,30190,1,8,0:0:0:0:
243,94,30255,1,2,0:0:0:0:
210,82,30321,1,8,0:0:0:0:
176,86,30386,1,2,0:0:0:0:
150,108,30451,1,8,0:0:0:0:
144,141,30516,1,2,0:0:0:0:
154,166,30582,1,8,0:0:0:0:
171,176,30647,1,2,0:0:0:0:
184,176,30712,1,8,0:0:0:0:
194,167,30777,2,0,L|115:152,3,67.5000002574921,2|8|2|8,0:0|0:0|0:0|0:0,0:0:0:0:
54,258,31038,2,0,L|120:245,3,67.5000002574921,2|8|2|8,0:0|0:0|0:0|0:0,0:0:0:0:
164,338,31299,5,2,0:0:0:0:
175,344,31364,1,8,0:0:0:0:
188,345,31429,1,2,0:0:0:0:
201,343,31495,1,8,0:0:0:0:
212,336,31560,5,2,0:0:0:0:
195,288,31625,1,8,0:0:0:0:
207,239,31690,1,2,0:0:0:0:
253,220,31755,1,8,0:0:0:0:
302,233,31821,1,2,0:0:0:0:
322,279,31886,1,8,0:0:0:0:
367,300,31951,1,2,0:0:0:0:
415,287,32016,1,8,0:0:0:0:
434,239,32082,1,2,0:0:0:0:
417,191,32147,1,8,0:0:0:0:
368,175,32212,1,2,0:0:0:0:
336,135,32277,1,8,0:0:0:0:
342,84,32342,1,2,0:0:0:0:
389,64,32408,1,8,0:0:0:0:
437,77,32473,1,2,0:0:0:0:
454,124,32538,1,8,0:0:0:0:
438,172,32603,1,2,0:0:0:0:
391,192,32669,1,8,0:0:0:0:
345,170,32734,1,2,0:0:0:0:
325,123,32799,1,8,0:0:0:0:
285,91,32864,1,2,0:0:0:0:
235,99,32929,1,8,0:0:0:0:
205,141,32995,1,2,0:0:0:0:
208,191,33060,1,8,0:0:0:0:
191,238,33125,1,2,0:0:0:0:
149,252,33190,1,8,0:0:0:0:
109,241,33255,1,2,0:0:0:0:
94,209,33321,1,8,0:0:0:0:
99,182,33386,1,2,0:0:0:0:
113,167,33451,1,8,0:0:0:0:
125,161,33516,1,2,0:0:0:0:
138,160,33582,1,8,0:0:0:0:
150,164,33647,2,0,L|137:230,3,67.5000002574921,2|8|2|8,0:0|0:0|0:0|0:0,0:0:0:0:
38,89,33908,5,2,0:0:0:0:
56,42,33973,1,8,0:0:0:0:
103,24,34038,1,2,0:0:0:0:
152,34,34103,1,8,0:0:0:0:
183,74,34169,1,2,0:0:0:0:
228,95,34234,1,8,0:0:0:0:
277,85,34299,1,2,0:0:0:0:
303,41,34364,1,8,0:0:0:0:
346,15,34429,1,2,0:0:0:0:
393,21,34495,1,8,0:0:0:0:
418,52,34560,1,2,0:0:0:0:
421,85,34625,1,8,0:0:0:0:
414,111,34690,5,2,0:0:0:0:
461,111,34755,1,8,0:0:0:0:
494,145,34821,1,2,0:0:0:0:
492,192,34886,1,8,0:0:0:0:
450,214,34951,1,2,0:0:0:0:
404,203,35016,1,8,0:0:0:0:
358,216,35082,1,2,0:0:0:0:
338,258,35147,1,8,0:0:0:0:
349,296,35212,1,2,0:0:0:0:
375,316,35277,1,8,0:0:0:0:
401,314,35342,1,2,0:0:0:0:
415,299,35408,1,8,0:0:0:0:
416,285,35473,1,2,0:0:0:0:
408,273,35538,1,8,0:0:0:0:
395,267,35603,1,2,0:0:0:0:
381,268,35669,1,8,0:0:0:0:
370,276,35734,2,0,L|385:197,3,67.5000002574921,2|8|2|8,0:0|0:0|0:0|0:0,0:0:0:0:
239,318,35995,2,0,L|254:397,3,67.5000002574921,2|8|2|8,0:0|0:0|0:0|0:0,0:0:0:0:
109,261,36255,5,2,0:0:0:0:
97,256,36320,1,8,0:0:0:0:
86,249,36386,1,2,0:0:0:0:
79,239,36451,1,8,0:0:0:0:
76,227,36516,1,2,0:0:0:0:
76,214,36582,1,8,0:0:0:0:
81,202,36647,1,2,0:0:0:0:
89,193,36712,1,8,0:0:0:0:
99,186,36777,1,2,0:0:0:0:
112,183,36842,1,8,0:0:0:0:
124,184,36908,1,2,0:0:0:0:
136,189,36973,1,8,0:0:0:0:
145,198,37038,2,0,L|132:264,3,67.5000002574921,2|8|2|2,0:0|0:0|0:0|0:0,0:0:0:0:
238,164,37299,2,0,L|225:97,3,67.5000002574921,2|8|2|8,0:0|0:0|0:0|0:0,0:0:0:0:
68,70,37560,5,2,0:0:0:0:
81,67,37625,1,8,0:0:0:0:
91,59,37690,1,2,0:0:0:0:
99,48,37755,1,8,0:0:0:0:
101,34,37821,5,2,0:0:0:0:
128,80,37886,1,8,0:0:0:0:
177,100,37951,1,2,0:0:0:0:
229,89,38016,1,8,0:0:0:0:
264,47,38082,1,2,0:0:0:0:
315,29,38147,1,8,0:0:0:0:
367,40,38212,1,2,0:0:0:0:
403,79,38277,1,8,0:0:0:0:
407,132,38342,1,2,0:0:0:0:
385,182,38408,1,8,0:0:0:0:
340,212,38473,1,2,0:0:0:0:
286,208,38538,1,8,0:0:0:0:
242,176,38603,1,2,0:0:0:0:
187,171,38669,1,8,0:0:0:0:
143,202,38734,1,2,0:0:0:0:
130,254,38799,1,8,0:0:0:0:
147,305,38864,1,2,0:0:0:0:
188,327,38929,1,8,0:0:0:0:
228,319,38995,1,2,0:0:0:0:
249,293,39060,1,8,0:0:0:0:
248,266,39125,1,2,0:0:0:0:
237,248,39190,1,8,0:0:0:0:
225,241,39255,1,2,0:0:0:0:
211,240,39321,1,8,0:0:0:0:
198,245,39386,5,2,0:0:0:0:
215,288,39451,1,8,0:0:0:0:
258,306,39516,1,2,0:0:0:0:
305,300,39582,1,8,0:0:0:0:
334,263,39647,1,2,0:0:0:0:
330,216,39712,1,8,0:0:0:0:
298,180,39777,1,2,0:0:0:0:
293,139,39842,1,8,0:0:0:0:
307,108,39908,1,2,0:0:0:0:
330,95,39973,1,8,0:0:0:0:
350,95,40038,1,2,0:0:0:0:
362,100,40103,1,8,0:0:0:0:
371,109,40169,1,2,0:0:0:0:
373,122,40234,1,8,0:0:0:0:
370,135,40299,1,2,0:0:0:0:
360,144,40364,1,8,0:0:0:0:
346,144,40429,2,0,L|358:77,3,67.5000002574921,2|8|2|8,0:0|0:0|0:0|0:0,0:0:0:0:
454,177,40690,2,0,L|466:243,3,67.5000002574921,2|8|2|8,0:0|0:0|0:0|0:0,0:0:0:0:
364,333,40951,5,2,0:0:0:0:
310,352,41016,1,8,0:0:0:0:
255,331,41082,1,2,0:0:0:0:
241,275,41147,1,8,0:0:0:0:
268,224,41212,1,2,0:0:0:0:
270,166,41277,1,8,0:0:0:0:
235,120,41342,1,2,0:0:0:0:
177,111,41408,1,8,0:0:0:0:
131,146,41473,1,2,0:0:0:0:
124,199,41538,1,8,0:0:0:0:
147,240,41603,1,2,0:0:0:0:
185,253,41669,1,8,0:0:0:0:
218,247,41734,1,2,0:0:0:0:
235,226,41799,1,8,0:0:0:0:
238,206,41864,1,2,0:0:0:0:
234,192,41929,1,8,0:0:0:0:
225,181,41995,1,2,0:0:0:0:
213,174,42060,1,8,0:0:0:0:
199,174,42125,1,2,0:0:0:0:
187,180,42190,1,8,0:0:0:0:
178,190,42255,1,2,0:0:0:0:
174,203,42321,1,8,0:0:0:0:
177,215,42386,2,0,L|243:227,1,67.5000002574921,2|8,0:0|0:0,0:0:0:0:
413,263,42517,5,2,0:0:0:0:
426,303,42582,1,8,0:0:0:0:
416,342,42647,1,2,0:0:0:0:
387,369,42712,1,8,0:0:0:0:
350,380,42777,5,2,0:0:0:0:
326,348,42842,1,8,0:0:0:0:
329,308,42908,1,2,0:0:0:0:
355,278,42973,1,8,0:0:0:0:
395,270,43038,1,2,0:0:0:0:
433,285,43103,1,8,0:0:0:0:
448,324,43169,2,0,L|382:337,1,67.5000002574921,2|8,0:0|0:0,0:0:0:0:
347,181,43299,2,0,L|413:194,3,67.5000002574921,2|8|2|8,0:0|0:0|0:0|0:0,0:0:0:0:
454,62,43560,5,2,0:0:0:0:
420,39,43625,1,8,0:0:0:0:
380,33,43690,1,2,0:0:0:0:
341,44,43755,1,8,0:0:0:0:
315,76,43821,1,2,0:0:0:0:
282,85,43886,1,8,0:0:0:0:
255,82,43951,1,2,0:0:0:0:
238,70,44016,1,8,0:0:0:0:
233,57,44082,5,2,0:0:0:0:
262,41,44147,1,8,0:0:0:0:
294,47,44212,1,2,0:0:0:0:
315,73,44277,1,8,0:0:0:0:
312,106,44342,1,2,0:0:0:0:
285,127,44408,1,8,0:0:0:0:
270,157,44473,1,2,0:0:0:0:
272,190,44538,1,8,0:0:0:0:
295,213,44603,1,2,0:0:0:0:
322,214,44669,1,8,0:0:0:0:
338,202,44734,1,2,0:0:0:0:
343,189,44799,1,8,0:0:0:0:
338,176,44864,1,2,0:0:0:0:
326,168,44929,1,8,0:0:0:0:
312,165,44995,1,2,0:0:0:0:
299,169,45060,1,8,0:0:0:0:
291,179,45125,1,2,0:0:0:0:
290,192,45190,1,8,0:0:0:0:
293,204,45255,1,2,0:0:0:0:
303,212,45321,1,8,0:0:0:0:
316,213,45386,2,0,L|328:279,3,67.5000002574921,2|8|2|8,0:0|0:0|0:0|0:0,0:0:0:0:
411,305,45647,5,2,0:0:0:0:
394,348,45712,1,8,0:0:0:0:
356,374,45777,1,2,0:0:0:0:
310,380,45842,1,8,0:0:0:0:
265,364,45908,1,2,0:0:0:0:
237,326,45973,1,8,0:0:0:0:
231,279,46038,5,2,0:0:0:0:
213,306,46103,1,8,0:0:0:0:
182,320,46169,1,2,0:0:0:0:
149,318,46234,1,8,0:0:0:0:
120,302,46299,1,2,0:0:0:0:
102,273,46364,1,8,0:0:0:0:
97,239,46429,5,2,0:0:0:0:
117,245,46495,1,8,0:0:0:0:
131,260,46560,1,2,0:0:0:0:
140,278,46625,1,8,0:0:0:0:
144,297,46690,1,2,0:0:0:0:
143,317,46755,1,8,0:0:0:0:
136,336,46821,2,0,L|70:323,5,67.5000002574921,2|8|2|8|2|8,0:0|0:0|0:0|0:0|0:0|0:0,0:0:0:0:
47,182,47212,5,2,0:0:0:0:
57,172,47277,1,8,0:0:0:0:
70,165,47342,1,2,0:0:0:0:
84,161,47408,1,8,0:0:0:0:
98,160,47473,1,2,0:0:0:0:
112,162,47538,1,8,0:0:0:0:
125,166,47603,1,2,0:0:0:0:
137,173,47669,1,8,0:0:0:0:
147,182,47734,5,2,0:0:0:0:
161,143,47799,1,8,0:0:0:0:
196,122,47864,1,2,0:0:0:0:
236,128,47929,1,8,0:0:0:0:
263,159,47995,1,2,0:0:0:0:
303,169,48060,1,8,0:0:0:0:
342,155,48125,1,2,0:0:0:0:
362,119,48190,1,8,0:0:0:0:
357,79,48255,1,2,0:0:0:0:
372,41,48321,1,8,0:0:0:0:
411,31,48386,1,2,0:0:0:0:
449,44,48451,1,8,0:0:0:0:
470,78,48516,2,0,P|465:110|458:145,3,67.5000002574921,2|8|2|8,0:0|0:0|0:0|0:0,0:0:0:0:
501,299,48777,5,8,0:0:0:0:
443,310,48842,1,8,0:0:0:0:
384,321,48907,1,8,0:0:0:0:
326,332,48972,1,8,0:0:0:0:
267,343,49038,1,8,0:0:0:0:
209,353,49103,1,8,0:0:0:0:
150,364,49168,1,8,0:0:0:0:
91,373,49233,1,8,0:0:0:0:
34,384,49298,2,0,L|49:293,3,67.5000002574921,8|0|0|0,0:0|0:0|0:0|0:0,0:0:0:0:
385,209,49560,5,0,0:0:0:0:
380,221,49625,1,0,0:0:0:0:
375,233,49690,1,0,0:0:0:0:
370,245,49755,1,0,0:0:0:0:
365,258,49821,2,0,L|377:324,3,67.5000002574921,8|0|0|0,0:0|0:0|0:0|0:0,0:0:0:0:
292,383,50082,2,0,L|225:370,1,67.5000002574921,8|0,0:0|0:0,0:0:0:0:
222,269,50212,2,0,L|155:281,1,67.5000002574921,8|0,0:0|0:0,0:0:0:0:
29,348,50342,5,6,0:0:0:0:
24,329,50408,1,8,0:0:0:0:
38,316,50473,1,2,0:0:0:0:
58,316,50538,1,8,0:0:0:0:
70,332,50603,1,2,0:0:0:0:
72,353,50669,1,8,0:0:0:0:
61,371,50734,1,2,0:0:0:0:
41,376,50799,1,8,0:0:0:0:
22,369,50864,5,2,0:0:0:0:
62,333,50929,1,8,0:0:0:0:
71,286,50995,1,2,0:0:0:0:
52,249,51060,1,8,0:0:0:0:
25,242,51125,5,2,0:0:0:0:
31,307,51190,1,8,0:0:0:0:
92,327,51255,1,2,0:0:0:0:
146,294,51321,1,8,0:0:0:0:
208,286,51386,1,2,0:0:0:0:
252,312,51451,1,8,0:0:0:0:
255,349,51516,1,2,0:0:0:0:
241,370,51582,1,8,0:0:0:0:
228,376,51647,2,0,L|204:280,3,67.5000002574921,2|8|2|8,0:0|0:0|0:0|0:0,0:0:0:0:
421,367,51908,6,0,L|486:347,1,67.5000002574921,2|8,0:0|0:0,0:0:0:0:
444,217,52038,1,2,0:0:0:0:
399,193,52103,1,8,0:0:0:0:
356,216,52169,1,2,0:0:0:0:
350,252,52234,1,8,0:0:0:0:
367,270,52299,5,2,0:0:0:0:
407,231,52364,1,8,0:0:0:0:
393,176,52429,1,2,0:0:0:0:
342,153,52495,1,8,0:0:0:0:
292,174,52560,1,2,0:0:0:0:
237,162,52625,1,8,0:0:0:0:
204,118,52690,1,2,0:0:0:0:
208,74,52755,1,8,0:0:0:0:
227,53,52821,1,2,0:0:0:0:
256,50,52886,1,8,0:0:0:0:
274,63,52951,1,2,0:0:0:0:
278,80,53016,1,8,0:0:0:0:
272,95,53082,1,2,0:0:0:0:
263,97,53147,1,8,0:0:0:0:
258,93,53212,2,0,L|270:3,3,67.5000002574921,2|8|2|8,0:0|0:0|0:0|0:0,0:0:0:0:
72,15,53473,5,2,0:0:0:0:
26,51,53538,1,8,0:0:0:0:
31,111,53603,1,2,0:0:0:0:
85,138,53669,1,8,0:0:0:0:
143,121,53734,1,2,0:0:0:0:
195,130,53799,1,8,0:0:0:0:
217,171,53864,1,2,0:0:0:0:
210,201,53929,1,8,0:0:0:0:
195,210,53995,5,2,0:0:0:0:
208,211,54060,1,8,0:0:0:0:
221,214,54125,1,2,0:0:0:0:
232,220,54190,1,8,0:0:0:0:
239,228,54255,5,2,0:0:0:0:
205,178,54321,1,8,0:0:0:0:
215,118,54386,1,2,0:0:0:0:
265,84,54451,1,8,0:0:0:0:
326,93,54516,1,2,0:0:0:0:
359,135,54582,1,8,0:0:0:0:
354,179,54647,1,2,0:0:0:0:
334,195,54712,1,8,0:0:0:0:
319,197,54777,5,2,0:0:0:0:
316,185,54842,1,8,0:0:0:0:
306,176,54908,1,2,0:0:0:0:
296,168,54973,1,8,0:0:0:0:
282,163,55038,6,0,P|274:116|264:86,3,67.5000002574921,2|8|2|8,0:0|0:0|0:0|0:0,0:0:0:0:
484,207,55299,2,0,P|476:254|466:284,3,67.5000002574921,2|8|2|8,0:0|0:0|0:0|0:0,0:0:0:0:
422,95,55560,2,0,P|430:48|440:18,3,67.5000002574921,2|8|2|8,0:0|0:0|0:0|0:0,0:0:0:0:
365,250,55821,5,2,0:0:0:0:
358,273,55886,1,8,0:0:0:0:
337,286,55951,1,2,0:0:0:0:
313,283,56016,1,8,0:0:0:0:
293,288,56082,1,2,0:0:0:0:
279,306,56147,1,8,0:0:0:0:
280,327,56212,5,2,0:0:0:0:
250,297,56277,1,8,0:0:0:0:
211,283,56342,1,2,0:0:0:0:
168,281,56408,1,8,0:0:0:0:
119,297,56473,1,2,0:0:0:0:
81,327,56538,1,8,0:0:0:0:
64,381,56603,5,2,0:0:0:0:
126,373,56669,1,8,0:0:0:0:
159,321,56734,1,2,0:0:0:0:
134,265,56799,1,8,0:0:0:0:
76,244,56864,1,2,0:0:0:0:
51,195,56929,1,8,0:0:0:0:
70,153,56995,1,2,0:0:0:0:
96,149,57060,1,8,0:0:0:0:
107,165,57125,2,0,P|93:193|80:233,3,67.5000002574921,2|8|2|8,0:0|0:0|0:0|0:0,0:0:0:0:
266,62,57386,5,2,0:0:0:0:
230,12,57451,1,8,0:0:0:0:
169,22,57516,1,2,0:0:0:0:
146,80,57582,1,8,0:0:0:0:
180,130,57647,1,2,0:0:0:0:
241,134,57712,1,8,0:0:0:0:
285,91,57777,1,2,0:0:0:0:
338,86,57842,1,8,0:0:0:0:
374,117,57908,1,2,0:0:0:0:
374,157,57973,1,8,0:0:0:0:
347,178,58038,1,2,0:0:0:0:
320,173,58103,1,8,0:0:0:0:
312,161,58169,5,2,0:0:0:0:
348,124,58234,1,8,0:0:0:0:
400,103,58299,1,2,0:0:0:0:
457,103,58364,1,8,0:0:0:0:
505,125,58429,2,0,P|491:157|478:199,1,67.5000002574921,2|8,0:0|0:0,0:0:0:0:
341,332,58560,5,2,0:0:0:0:
373,372,58625,1,8,0:0:0:0:
424,381,58690,1,2,0:0:0:0:
473,360,58755,1,8,0:0:0:0:
485,308,58821,1,2,0:0:0:0:
460,261,58886,1,8,0:0:0:0:
411,238,58951,1,2,0:0:0:0:
357,244,59016,1,8,0:0:0:0:
320,284,59082,1,2,0:0:0:0:
273,284,59147,1,8,0:0:0:0:
236,252,59212,1,2,0:0:0:0:
234,209,59277,1,8,0:0:0:0:
254,185,59342,1,2,0:0:0:0:
279,186,59408,1,8,0:0:0:0:
291,193,59473,2,0,P|301:231|315:284,3,67.5000002574921,2|8|2|8,0:0|0:0|0:0|0:0,0:0:0:0:
39,250,59734,5,2,0:0:0:0:
20,304,59799,1,8,0:0:0:0:
52,351,59864,1,2,0:0:0:0:
108,357,59929,1,8,0:0:0:0:
151,318,59995,1,2,0:0:0:0:
155,261,60060,1,8,0:0:0:0:
127,211,60125,1,2,0:0:0:0:
76,184,60190,1,8,0:0:0:0:
59,129,60255,1,2,0:0:0:0:
76,77,60321,1,8,0:0:0:0:
117,55,60386,1,2,0:0:0:0:
160,54,60451,1,8,0:0:0:0:
191,79,60516,1,2,0:0:0:0:
197,112,60582,1,8,0:0:0:0:
184,135,60647,1,2,0:0:0:0:
166,144,60712,1,8,0:0:0:0:
153,139,60777,5,2,0:0:0:0:
159,129,60842,1,8,0:0:0:0:
158,117,60908,2,0,P|143:76|126:39,1,67.5000002574921,2|8,0:0|0:0,0:0:0:0:
306,207,61038,5,2,0:0:0:0:
279,187,61103,1,8,0:0:0:0:
286,157,61169,2,0,P|301:116|318:79,1,67.5000002574921,2|8,0:0|0:0,0:0:0:0:
476,5,61299,5,2,0:0:0:0:
478,11,61364,1,0,0:0:0:0:
480,17,61429,1,0,0:0:0:0:
482,23,61495,1,0,0:0:0:0:
484,29,61560,1,0,0:0:0:0:
355,2,61690,1,8,0:0:0:0:
410,169,61821,5,8,0:0:0:0:
415,145,61886,1,0,0:0:0:0:
421,122,61951,1,0,0:0:0:0:
427,99,62016,1,0,0:0:0:0:
408,71,62082,6,0,P|427:182|454:338,1,225.000008583069,8|0,0:0|0:0,0:0:0:0:
499,350,62342,5,0,0:0:0:0:
484,356,62408,1,0,0:0:0:0:
469,362,62473,1,0,0:0:0:0:
454,367,62538,1,0,0:0:0:0:
439,372,62603,2,0,L|336:344,1,75.0000028610231
353,266,62734,2,0,L|250:294,1,75.0000028610231
85,297,62864,6,0,B|73:280|73:280|111:183|199:257|217:279|185:329,1,225.000008583069,12|0,0:0|0:0,0:0:0:0:
144,375,63125,1,2,0:0:0:0:
129,362,63190,1,8,0:0:0:0:
125,343,63255,1,2,0:0:0:0:
134,326,63321,1,8,0:0:0:0:
153,317,63386,5,2,3:0:0:0:
169,265,63451,1,8,3:0:0:0:
145,223,63517,1,2,3:0:0:0:
112,215,63582,1,8,3:0:0:0:
91,228,63647,5,2,3:0:0:0:
144,262,63712,1,8,0:0:0:0:
207,252,63777,1,2,0:0:0:0:
240,197,63842,1,8,0:0:0:0:
288,152,63908,1,2,0:0:0:0:
345,148,63973,1,8,0:0:0:0:
386,182,64038,1,2,0:0:0:0:
383,221,64103,1,8,0:0:0:0:
369,236,64169,2,0,P|333:220|304:206,3,67.5000002574921,2|8|2|8,0:0|0:0|0:0|0:0,0:0:0:0:
254,8,64429,6,0,P|237:52|228:95,1,67.5000002574921,2|8,0:0|0:0,0:0:0:0:
117,115,64560,1,2,0:0:0:0:
75,141,64625,1,8,0:0:0:0:
30,122,64691,1,2,0:0:0:0:
21,87,64756,1,8,0:0:0:0:
35,67,64821,5,2,0:0:0:0:
89,48,64886,1,8,0:0:0:0:
133,83,64951,1,2,0:0:0:0:
139,139,65016,1,8,0:0:0:0:
180,179,65082,1,2,0:0:0:0:
237,180,65147,1,8,0:0:0:0:
275,137,65212,1,2,0:0:0:0:
269,83,65277,1,8,0:0:0:0:
295,44,65342,1,2,0:0:0:0:
334,33,65408,1,8,0:0:0:0:
365,45,65473,1,2,0:0:0:0:
378,68,65538,1,8,0:0:0:0:
375,87,65603,1,2,0:0:0:0:
365,97,65669,1,8,0:0:0:0:
358,96,65734,2,0,P|340:46|322:9,3,67.5000002574921,2|8|2|8,0:0|0:0|0:0|0:0,0:0:0:0:
502,173,65995,5,2,0:0:0:0:
512,232,66060,1,8,0:0:0:0:
476,281,66125,1,2,0:0:0:0:
415,280,66190,1,8,0:0:0:0:
371,238,66255,1,2,0:0:0:0:
316,235,66321,1,8,0:0:0:0:
285,270,66386,1,2,0:0:0:0:
289,303,66451,1,8,0:0:0:0:
304,314,66516,5,2,0:0:0:0:
299,301,66582,1,8,0:0:0:0:
288,292,66647,1,2,0:0:0:0:
274,290,66712,1,8,0:0:0:0:
260,292,66777,5,2,0:0:0:0:
247,351,66842,1,8,0:0:0:0:
193,380,66908,1,2,0:0:0:0:
141,348,66973,1,8,0:0:0:0:
139,287,67038,1,2,0:0:0:0:
100,248,67103,1,8,0:0:0:0:
52,251,67169,1,2,0:0:0:0:
34,287,67234,1,8,0:0:0:0:
47,317,67299,5,2,0:0:0:0:
56,315,67364,1,8,0:0:0:0:
63,309,67429,1,2,0:0:0:0:
69,302,67495,1,8,0:0:0:0:
72,291,67560,5,2,0:0:0:0:
26,262,67625,1,8,0:0:0:0:
15,209,67690,1,2,0:0:0:0:
39,161,67755,1,8,0:0:0:0:
87,135,67821,1,2,0:0:0:0:
139,145,67886,1,8,0:0:0:0:
173,185,67951,2,0,P|157:204|147:251,5,67.5000002574921,2|8|2|8|2|8,0:0|0:0|0:0|0:0|0:0|0:0,0:0:0:0:
61,265,68342,5,2,0:0:0:0:
66,237,68408,1,8,0:0:0:0:
49,215,68473,1,2,0:0:0:0:
25,201,68538,1,8,0:0:0:0:
12,177,68603,1,2,0:0:0:0:
17,150,68669,1,8,0:0:0:0:
37,132,68734,5,2,0:0:0:0:
28,92,68799,1,8,0:0:0:0:
52,59,68864,1,2,0:0:0:0:
96,43,68929,1,8,0:0:0:0:
145,57,68995,1,2,0:0:0:0:
167,105,69060,1,8,0:0:0:0:
144,157,69125,5,2,0:0:0:0:
181,209,69190,1,8,0:0:0:0:
245,216,69255,1,2,0:0:0:0:
283,164,69321,1,8,0:0:0:0:
339,133,69386,1,2,0:0:0:0:
391,143,69451,1,8,0:0:0:0:
411,185,69516,1,2,0:0:0:0:
391,221,69582,1,8,0:0:0:0:
376,228,69647,2,0,P|365:184|353:150,3,67.5000002574921,2|8|2|8,0:0|0:0|0:0|0:0,0:0:0:0:
417,52,69908,5,2,0:0:0:0:
378,0,69973,1,8,0:0:0:0:
312,5,70038,1,2,0:0:0:0:
281,61,70103,1,8,0:0:0:0:
297,123,70169,1,2,0:0:0:0:
271,169,70234,1,8,0:0:0:0:
224,174,70299,1,2,0:0:0:0:
198,142,70364,1,8,0:0:0:0:
199,125,70429,2,0,P|234:132|283:143,3,67.5000002574921,2|8|2|8,0:0|0:0|0:0|0:0,0:0:0:0:
150,60,70690,5,2,0:0:0:0:
157,16,70755,1,8,0:0:0:0:
194,0,70821,2,0,P|232:38|264:63,1,67.5000002574921,2|8,0:0|0:0,0:0:0:0:
130,176,70951,1,2,0:0:0:0:
116,183,71016,1,8,0:0:0:0:
101,173,71082,2,0,P|86:130|69:89,1,67.5000002574921,2|8,0:0|0:0,0:0:0:0:
0,80,71212,2,0,P|10:48|20:16,3,67.5000002574921,2|8|2|8,0:0|0:0|0:0|0:0,0:0:0:0:
3,243,71473,5,2,0:0:0:0:
0,292,71538,1,8,0:0:0:0:
35,329,71603,1,2,0:0:0:0:
84,327,71669,1,8,0:0:0:0:
106,293,71734,1,2,0:0:0:0:
95,260,71799,1,8,0:0:0:0:
70,251,71864,1,2,0:0:0:0:
55,263,71929,1,8,0:0:0:0:
55,277,71995,2,0,P|74:300|105:352,3,67.5000002574921,2|8|2|8,0:0|0:0|0:0|0:0,0:0:0:0:
242,174,72255,5,2,0:0:0:0:
209,229,72321,1,8,0:0:0:0:
232,287,72386,1,2,0:0:0:0:
290,313,72451,1,8,0:0:0:0:
346,288,72516,1,2,0:0:0:0:
365,225,72582,1,8,0:0:0:0:
420,192,72647,1,2,0:0:0:0:
481,212,72712,1,8,0:0:0:0:
512,267,72777,1,2,0:0:0:0:
491,316,72842,1,8,0:0:0:0:
450,338,72908,1,2,0:0:0:0:
410,327,72973,1,2,0:0:0:0:
392,298,73038,1,8,0:0:0:0:
400,271,73103,1,2,0:0:0:0:
416,260,73169,1,8,0:0:0:0:
430,262,73234,1,2,0:0:0:0:
433,267,73299,5,8,0:0:0:0:
405,335,73364,1,8,0:0:0:0:
333,355,73429,1,8,0:0:0:0:
260,336,73495,1,8,0:0:0:0:
226,269,73560,5,8,0:0:0:0:
512,384,73690,1,8,0:0:0:0:
356,100,73821,5,8,3:0:0:0:
344,123,73886,1,0,3:0:0:0:
337,145,73951,1,0,3:0:0:0:
331,171,74016,1,0,3:0:0:0:
329,196,74082,5,0,3:0:0:0:
99,292,74212,1,8,0:0:0:0:
220,92,74342,5,8,0:0:0:0:
215,75,74408,1,0,0:0:0:0:
209,59,74473,1,0,0:0:0:0:
201,43,74538,1,0,0:0:0:0:
189,30,74603,5,0,0:0:0:0:
313,276,74734,1,8,0:0:0:0:
68,167,74864,5,8,0:0:0:0:
77,162,74929,1,0,0:0:0:0:
87,162,74995,1,0,0:0:0:0:
96,165,75060,1,0,0:0:0:0:
100,170,75125,2,0,P|59:186|37:200,3,67.5000002574921
99,0,75386,6,0,L|298:36,1,202.500000772476,4|0,0:0|0:0,0:0:0:0:
377,81,75647,6,0,B|385:149|385:149|382:156|382:156|391:229,1,135.000000514984,2|8,0:0|0:0,0:0:0:0:
306,357,75908,1,2,0:0:0:0:
245,190,76038,1,8,0:0:0:0:
417,304,76169,1,2,0:0:0:0:
216,308,76299,1,8,0:0:0:0:
348,159,76429,6,0,B|340:217|340:217|343:224|343:224|335:292,1,135.000000514984,2|8,0:0|0:0,0:0:0:0:
230,383,76690,1,2,0:0:0:0:
142,197,76821,1,8,0:0:0:0:
317,258,76951,1,2,0:0:0:0:
119,305,77082,1,8,0:0:0:0:
266,133,77212,6,0,B|208:126|208:126|201:129|201:129|133:121,1,135.000000514984,2|8,0:0|0:0,0:0:0:0:
21,208,77473,1,2,0:0:0:0:
113,23,77603,1,8,0:0:0:0:
150,206,77734,1,2,0:0:0:0:
106,4,77864,1,8,0:0:0:0:
254,155,77995,2,0,B|300:155|300:155|362:75,1,135.000000514984,2|8,0:0|0:0,0:0:0:0:
217,0,78255,1,2,0:0:0:0:
335,148,78386,1,8,0:0:0:0:
406,0,78516,6,1,B|438:-10|463:23|463:23|473:25|473:25|496:73|471:103,1,135.000000514984,2|8,0:0|0:0,0:0:0:0:
347,281,78778,2,0,B|339:213|339:213|342:206|342:206|333:133,1,135.000000514984,2|8,0:0|0:0,0:0:0:0:
218,16,79038,1,2,0:0:0:0:
264,234,79169,6,0,B|205:226|205:226|198:229|198:229|130:221,1,135.000000514984,8|2,0:0|0:0,0:0:0:0:
0,94,79430,1,8,0:0:0:0:
62,275,79560,1,2,0:0:0:0:
133,82,79690,1,8,0:0:0:0:
1,210,79821,1,2,0:0:0:0:
150,294,79952,6,1,B|142:235|142:235|145:228|145:228|137:160,1,135.000000514984,8|2,0:0|0:0,0:3:0:0:
53,3,80212,1,8,0:0:0:0:
206,123,80342,6,0,B|265:115|265:115|272:118|272:118|340:110,1,135.000000514984,2|8,0:0|0:0,0:0:0:0:
512,176,80603,1,2,0:0:0:0:
428,33,80734,1,8,0:0:0:0:
356,227,80864,5,2,0:0:0:0:
448,39,80995,1,8,0:0:0:0:
484,253,81125,5,2,0:0:0:0:
314,116,81255,1,8,0:0:0:0:
276,308,81386,6,0,B|218:315|218:315|211:312|211:312|143:320,1,135.000000514984,2|8,0:0|0:0,0:0:0:0:
1,240,81647,1,2,0:0:0:0:
76,373,81777,1,8,0:0:0:0:
116,178,81908,1,2,0:0:0:0:
6,337,82038,1,8,0:0:0:0:
27,145,82169,1,2,0:0:0:0:
128,275,82299,6,1,B|165:288|209:254|174:255|211:222|247:234,1,135.000000514984,8|2,0:0|0:0,0:0:0:0:
410,373,82560,1,8,0:0:0:0:
244,310,82690,1,2,0:0:0:0:
404,198,82821,1,8,0:0:0:0:
232,327,82951,1,2,0:0:0:0:
385,365,83082,6,0,P|359:302|331:241,1,135.000000514984,8|2,0:0|0:0,0:0:0:0:
342,93,83342,1,8,0:0:0:0:
141,205,83473,6,1,B|136:219|166:257|166:257|176:255|176:255|209:278|238:267,1,135.000000514984,2|8,0:0|0:0,0:3:0:0:
227,60,83734,1,2,0:0:0:0:
337,191,83864,2,0,B|294:161|294:161|204:202,1,135.000000514984,8|2,0:0|0:0,0:0:0:0:
108,384,84125,1,8,0:0:0:0:
0,215,84255,1,2,0:0:0:0:
191,265,84386,1,8,0:0:0:0:
25,378,84516,5,0,0:0:0:0:
137,177,84647,1,8,0:0:0:0:
91,300,84777,1,2,0:0:0:0:
35,144,84908,1,8,0:0:0:0:
180,244,85038,6,1,B|210:237|215:195|215:195|223:189|223:189|219:136|202:136,1,135.000000514984,2|8,0:0|0:0,0:3:0:0:
26,223,85299,1,2,0:0:0:0:
108,71,85429,1,8,0:0:0:0:
197,237,85560,1,2,0:0:0:0:
100,48,85690,1,8,0:0:0:0:
274,186,85821,6,0,B|342:178|342:178|349:181|349:181|430:171,1,135.000000514984,2|0,0:0|0:0,0:0:0:0:
483,127,86082,2,0,P|469:110|430:89,1,67.5000002574921,2|0,0:0|2:0,0:0:0:0:
414,340,86212,1,8,0:0:0:0:
274,186,86342,1,2,0:0:0:0:
213,368,86473,5,8,0:0:0:0:
213,368,86538,1,0,2:0:0:0:
213,368,86603,2,0,P|193:300|161:228,1,135.000000514984,2|8,0:0|0:0,0:0:0:0:
34,167,86864,1,2,0:0:0:0:
208,122,86995,1,8,0:0:0:0:
386,290,87125,5,12,0:0:0:0:
421,271,87190,1,8,0:0:0:0:
434,233,87255,1,8,0:0:0:0:
434,192,87321,1,8,0:0:0:0:
412,157,87386,5,8,0:0:0:0:
395,145,87451,1,8,0:0:0:0:
388,125,87516,1,8,0:0:0:0:
394,105,87582,1,8,0:0:0:0:
410,94,87647,2,0,L|484:84,3,67.5000002574921,8|8|8|8,0:0|0:0|0:0|0:0,0:0:0:0:
504,159,87908,5,2,0:0:0:0:
361,15,88038,1,8,0:0:0:0:
361,15,88103,1,0,2:0:0:0:
361,15,88169,6,0,P|257:46|185:63,1,150.000005722046,2|8,0:0|0:0,0:0:0:0:
33,4,88429,1,2,0:0:0:0:
159,155,88560,5,8,0:0:0:0:
6,234,88690,1,2,0:0:0:0:
122,63,88821,1,8,0:0:0:0:
119,284,88951,2,0,P|90:214|60:145,1,150.000005722046,2|8,0:0|0:0,0:0:0:0:
88,377,89212,5,2,0:0:0:0:
211,236,89342,1,8,0:0:0:0:
26,313,89473,1,2,0:0:0:0:
213,377,89603,1,8,0:0:0:0:
213,377,89669,1,0,2:0:0:0:
213,377,89734,6,0,B|301:348|237:317|347:288,1,150.000005722046,2|8,0:0|0:0,0:0:0:0:
499,167,89995,1,2,0:0:0:0:
391,370,90125,1,8,0:0:0:0:
393,113,90255,1,2,0:0:0:0:
496,284,90386,1,8,0:0:0:0:
496,284,90451,1,0,2:0:0:0:
496,284,90516,6,0,P|381:218|281:167,1,225.000008583069,2|0,0:0|0:0,0:0:0:0:
292,181,90777,2,0,P|267:143|294:95,1,75.0000028610231,2|0,0:0|2:0,0:0:0:0:
335,56,90908,1,8,0:0:0:0:
247,266,91038,1,2,0:0:0:0:
136,52,91169,1,8,0:0:0:0:
136,52,91234,1,0,2:0:0:0:
136,52,91299,6,0,L|190:226,1,150.000005722046,2|8,0:0|0:0,0:0:0:0:
228,24,91560,1,2,0:0:0:0:
49,139,91690,5,8,0:0:0:0:
272,116,91821,1,2,0:0:0:0:
82,222,91951,1,8,0:0:0:0:
250,366,92082,2,0,P|155:337|97:320,1,150.000005722046,2|8,0:0|0:0,0:0:0:0:
327,221,92342,5,2,0:0:0:0:
437,363,92473,1,8,0:0:0:0:
474,150,92603,1,2,0:0:0:0:
345,312,92734,1,8,0:0:0:0:
496,233,92864,2,0,P|443:159|358:161,1,150.000005722046,2|8,0:0|0:0,0:0:0:0:
207,197,93125,5,2,0:0:0:0:
327,15,93255,1,8,0:0:0:0:
82,36,93386,5,6,0:0:0:0:
118,81,93451,1,8,0:0:0:0:
170,86,93516,2,0,P|197:56|248:32,2,75.0000028610231,8|0|0,0:0|0:0|0:0,0:0:0:0:
285,167,93712,5,8,0:0:0:0:
300,111,93777,1,8,0:0:0:0:
352,88,93842,1,8,0:0:0:0:
404,98,93908,5,8,0:0:0:0:
406,106,93973,1,8,0:0:0:0:
403,111,94038,1,8,0:0:0:0:
396,114,94103,1,8,0:0:0:0:
389,114,94169,5,6,0:0:0:0:
433,24,94299,1,8,0:0:0:0:
433,24,94364,1,0,2:0:0:0:
433,24,94429,6,0,P|452:94|477:189,1,150.000005722046,2|8,0:0|0:0,0:0:0:0:
488,360,94690,1,8,0:0:0:0:
363,273,94821,5,2,0:0:0:0:
499,344,94951,1,2,0:0:0:0:
360,188,95082,1,8,0:0:0:0:
338,357,95212,2,0,B|275:319|275:319|282:223,1,150.000005722046,2|10,0:0|0:0,0:0:0:0:
161,23,95473,5,2,0:0:0:0:
161,23,95538,1,0,2:0:0:0:
161,23,95603,1,8,0:0:0:0:
282,147,95734,1,2,0:0:0:0:
133,113,95864,1,8,0:0:0:0:
133,113,95929,1,0,2:0:0:0:
133,113,95995,6,0,P|224:80|289:60,1,150.000005722046,2|8,0:0|0:0,0:0:0:0:
119,318,96255,1,2,0:0:0:0:
119,318,96321,1,0,2:0:0:0:
119,318,96386,1,8,0:0:0:0:
27,111,96516,1,2,0:0:0:0:
208,245,96647,2,0,P|104:212|61:197,1,150.000005722046,8|2,0:0|0:0,0:0:0:0:
285,384,96908,5,8,0:0:0:0:
380,236,97038,1,2,0:0:0:0:
380,236,97103,1,0,2:0:0:0:
380,236,97169,1,8,0:0:0:0:
215,350,97299,5,2,0:0:0:0:
424,301,97429,1,8,0:0:0:0:
245,159,97560,2,0,P|305:273|322:308,1,150.000005722046,2|8,0:0|0:0,0:0:0:0:
510,12,97821,5,2,0:0:0:0:
355,152,97951,1,8,0:0:0:0:
512,91,98082,1,2,0:0:0:0:
272,22,98212,1,8,0:0:0:0:
272,22,98277,1,0,2:0:0:0:
272,22,98342,5,2,0:0:0:0:
370,79,98473,1,8,0:0:0:0:
168,107,98603,5,2,0:0:0:0:
379,0,98734,1,8,0:0:0:0:
69,26,98864,5,6,0:0:0:0:
54,45,98929,1,0,0:0:0:0:
54,78,98995,1,8,0:0:0:0:
83,111,99060,1,0,0:0:0:0:
136,114,99125,1,0,0:0:0:0:
184,138,99190,1,0,0:0:0:0:
197,189,99255,1,8,0:0:0:0:
169,236,99321,1,0,0:0:0:0:
174,289,99386,1,0,0:0:0:0:
210,329,99451,1,0,0:0:0:0:
263,337,99516,1,8,0:0:0:0:
308,306,99582,1,0,0:0:0:0:
317,253,99647,1,0,0:0:0:0:
355,215,99712,1,0,0:0:0:0:
408,216,99777,1,8,0:0:0:0:
447,241,99842,1,0,0:0:0:0:
455,287,99908,1,0,0:0:0:0:
437,323,99973,1,0,0:0:0:0:
398,334,100038,1,8,0:0:0:0:
368,317,100103,1,0,0:0:0:0:
359,291,100169,1,0,0:0:0:0:
370,274,100234,1,0,0:0:0:0:
383,274,100299,1,8,0:0:0:0:
388,277,100364,1,0,0:0:0:0:
394,288,100429,6,0,L|360:72,1,179.999994506836,6|0,0:0|0:0,0:0:0:0:
377,88,100690,2,0,P|347:37|263:35,1,150.000005722046,2|8,0:0|0:0,0:0:0:0:
271,205,100951,1,2,0:0:0:0:
102,47,101082,6,0,B|194:78|194:78|204:131,1,150.000005722046,8|2,0:0|0:0,0:0:0:0:
103,253,101342,1,8,0:0:0:0:
34,100,101473,1,2,0:0:0:0:
198,151,101603,1,8,0:0:0:0:
4,243,101734,1,2,0:0:0:0:
157,335,101864,6,0,P|227:313|342:281,1,150.000005722046,8|2,0:0|0:0,0:0:0:0:
482,364,102125,1,8,0:0:0:0:
482,364,102190,1,0,2:0:0:0:
482,364,102255,6,0,B|467:290|467:290|470:286|470:286|456:217,1,150.000005722046,2|8,0:0|0:0,0:0:0:0:
338,71,102516,1,2,0:0:0:0:
512,155,102647,1,8,0:0:0:0:
301,191,102777,1,2,0:0:0:0:
509,266,102908,1,8,0:0:0:0:
363,146,103039,6,0,P|382:218|398:291,1,150.000005722046,2|8,0:0|0:0,0:0:0:0:
278,206,103299,1,2,0:0:0:0:
461,100,103429,1,8,0:0:0:0:
301,191,103560,6,0,P|228:170|157:147,1,150.000005722046,2|8,0:0|0:0,0:0:0:0:
0,49,103821,1,2,0:0:0:0:
56,231,103951,1,8,0:0:0:0:
140,30,104082,6,0,B|214:15|214:15|218:18|218:18|287:4,1,150.000005722046,2|8,0:0|0:0,0:0:0:0:
437,142,104342,1,2,0:0:0:0:
235,86,104473,1,8,0:0:0:0:
385,48,104603,1,2,0:0:0:0:
327,229,104734,2,0,P|292:180|188:194,1,150.000005722046,8|2,0:0|0:0,0:0:0:0:
112,361,104995,1,8,0:0:0:0:
249,244,105125,1,2,0:0:0:0:
46,199,105255,1,8,0:0:0:0:
196,383,105386,6,0,P|227:322|253:200,1,150.000005722046,2|8,0:0|0:0,0:0:0:0:
146,59,105647,1,2,0:0:0:0:
62,215,105777,1,8,0:0:0:0:
229,75,105908,1,2,0:0:0:0:
323,253,106038,1,8,0:0:0:0:
434,105,106169,6,0,B|460:73|460:73|303:119,1,150.000005722046,2|8,0:0|0:0,0:0:0:0:
241,237,106429,1,2,0:0:0:0:
229,75,106560,2,0,P|256:56|311:52,1,75.0000028610231,8|0,0:0|2:0,0:0:0:0:
401,225,106690,1,2,0:0:0:0:
284,128,106821,1,8,0:0:0:0:
232,335,106951,6,0,P|161:313|47:281,1,150.000005722046,2|8,0:0|0:0,0:0:0:0:
0,384,107212,1,2,0:0:0:0:
104,185,107342,2,0,P|34:171|0:232,1,150.000005722046,8|2,0:0|0:0,0:0:0:0:
208,343,107603,1,8,0:0:0:0:
212,162,107734,1,2,0:0:0:0:
97,331,107864,1,8,0:0:0:0:
194,142,107995,1,2,0:0:0:0:
285,287,108125,6,0,B|329:317|329:317|415:274,1,150.000005722046,8|2,0:0|0:0,0:0:0:0:
302,95,108386,1,8,0:0:0:0:
191,273,108516,1,2,0:0:0:0:
347,200,108647,1,8,0:0:0:0:
141,72,108777,1,2,0:0:0:0:
223,195,108908,5,8,0:0:0:0:
223,195,108973,1,0,2:0:0:0:
223,195,109038,1,2,0:0:0:0:
33,120,109169,1,8,0:0:0:0:
75,274,109299,5,2,0:0:0:0:
88,274,109364,1,0,2:0:0:0:
102,270,109429,1,8,0:0:0:0:
224,108,109560,1,2,0:0:0:0:
328,264,109690,6,0,P|350:193|382:79,1,150.000005722046,8|2,0:0|0:0,0:0:0:0:
371,108,109886,1,0,2:0:0:0:
371,108,109951,1,8,0:0:0:0:
277,0,110082,1,2,0:0:0:0:
463,6,110212,1,8,0:0:0:0:
246,99,110342,1,2,0:0:0:0:
462,98,110473,6,0,B|448:167|448:167|451:171|451:171|437:245,1,150.000005722046,8|2,0:0|0:0,0:0:0:0:
500,384,110734,1,8,0:0:0:0:
276,297,110864,6,0,B|330:347|330:347|397:312,1,150.000005722046,2|8,0:0|0:0,0:0:0:0:
223,222,111125,2,0,B|198:226|181:265|181:265|179:261|179:261|167:308|193:341,1,150.000005722046,2|8,0:0|0:0,0:0:0:0:
394,128,111386,5,4,0:0:0:0:
392,157,111451,1,0,0:0:0:0:
379,183,111516,1,8,0:0:0:0:
352,198,111582,1,0,0:0:0:0:
322,200,111647,1,2,0:0:0:0:
294,188,111712,1,0,0:0:0:0:
278,162,111777,1,8,0:0:0:0:
276,132,111842,1,0,0:0:0:0:
285,103,111908,1,2,0:0:0:0:
280,73,111973,1,0,0:0:0:0:
263,48,112038,1,8,0:0:0:0:
235,37,112103,1,0,0:0:0:0:
204,41,112169,1,2,0:0:0:0:
180,59,112234,1,0,0:0:0:0:
168,86,112299,1,8,0:0:0:0:
173,115,112364,1,0,0:0:0:0:
191,138,112429,1,2,0:0:0:0:
220,146,112495,1,0,0:0:0:0:
249,144,112560,1,8,0:0:0:0:
274,128,112625,1,0,0:0:0:0:
294,105,112690,1,2,0:0:0:0:
320,91,112755,1,0,0:0:0:0:
350,92,112821,1,8,0:0:0:0:
377,104,112886,1,0,0:0:0:0:
393,129,112951,5,2,0:0:0:0:
283,258,113082,1,8,0:0:0:0:
427,381,113212,2,0,B|465:314|465:314|408:242,1,150.000005722046,2|8,0:0|0:0,0:0:0:0:
195,254,113473,5,2,0:0:0:0:
352,193,113603,1,8,0:0:0:0:
180,170,113734,1,2,0:0:0:0:
370,321,113864,1,8,0:0:0:0:
182,362,113995,2,0,P|98:326|20:298,1,150.000005722046,2|8,0:0|0:0,0:0:0:0:
264,72,114255,5,2,0:0:0:0:
92,205,114386,1,8,0:0:0:0:
92,205,114451,1,0,2:0:0:0:
92,205,114516,1,2,0:0:0:0:
290,146,114647,1,8,0:0:0:0:
125,0,114777,2,0,P|87:64|135:137,1,150.000005722046,2|8,0:0|0:0,0:0:0:0:
354,6,115038,5,2,0:0:0:0:
183,65,115169,1,8,0:0:0:0:
415,90,115299,1,2,0:0:0:0:
237,0,115429,1,8,0:0:0:0:
371,163,115560,2,0,L|548:102,1,150.000005722046,2|8,0:0|0:0,0:0:0:0:
352,270,115821,5,2,0:0:0:0:
286,86,115951,1,8,0:0:0:0:
286,86,116016,1,0,2:0:0:0:
286,86,116082,1,2,0:0:0:0:
429,231,116212,1,8,0:0:0:0:
284,330,116342,2,0,B|243:265|243:265|293:176,1,150.000005722046,2|8,0:0|0:0,0:0:0:0:
186,72,116603,5,2,0:0:0:0:
401,133,116734,1,8,0:0:0:0:
238,0,116864,1,2,0:0:0:0:
455,69,116995,1,8,0:0:0:0:
171,154,117125,2,0,L|352:105,1,150.000005722046,2|8,0:0|0:0,0:0:0:0:
89,50,117386,5,2,0:0:0:0:
287,208,117516,1,8,0:0:0:0:
287,208,117582,1,0,2:0:0:0:
287,208,117647,1,2,0:0:0:0:
179,57,117777,1,8,0:0:0:0:
99,233,117908,2,0,P|5:196|11:129,1,150.000005722046,2|8,0:0|0:0,0:0:0:0:
164,309,118169,5,2,0:0:0:0:
87,136,118299,1,8,0:0:0:0:
112,383,118429,1,2,0:0:0:0:
244,184,118560,1,8,0:0:0:0:
77,316,118690,2,0,B|147:337|147:337|148:345|148:345|240:373,1,150.000005722046,2|8,0:0|0:0,0:0:0:0:
165,172,118951,1,2,0:0:0:0:
388,290,119082,6,0,B|291:312|291:312|228:275,1,150.000005722046,8|2,0:0|0:0,0:0:0:0:
233,270,119277,1,0,2:0:0:0:
233,270,119342,1,8,0:0:0:0:
438,201,119473,6,0,P|496:231|480:315,1,150.000005722046,2|8,0:0|0:0,0:0:0:0:
359,101,119734,1,2,0:0:0:0:
388,290,119864,1,8,0:0:0:0:
498,79,119995,1,2,0:0:0:0:
329,194,120125,1,8,0:0:0:0:
391,5,120255,5,2,0:0:0:0:
391,5,120321,1,0,2:0:0:0:
391,5,120386,2,0,L|429:178,1,150.000005722046,8|2,0:0|0:0,0:0:0:0:
221,0,120647,2,0,B|257:145,1,150.000005722046,8|2,0:0|0:0,0:0:0:0:
148,174,120908,5,8,0:0:0:0:
311,39,121038,1,2,0:0:0:0:
97,80,121169,1,8,0:0:0:0:
359,101,121299,1,2,0:0:0:0:
146,190,121429,2,0,L|-44:142,1,150.000005722046,8|2,0:0|0:0,0:0:0:0:
279,151,121690,5,8,0:0:0:0:
311,291,121821,1,2,0:0:0:0:
371,205,121951,1,8,0:0:0:0:
229,239,122082,1,2,0:0:0:0:
434,280,122212,2,0,P|482:206|433:152,1,150.000005722046,8|2,0:0|0:0,0:0:0:0:
302,384,122473,5,8,0:0:0:0:
229,239,122603,1,2,0:0:0:0:
410,363,122734,1,8,0:0:0:0:
283,169,122864,1,2,0:0:0:0:
191,328,122995,2,0,L|7:357,1,150.000005722046,8|2,0:0|0:0,0:0:0:0:
30,134,123255,5,8,0:0:0:0:
229,239,123386,1,2,0:0:0:0:
142,50,123516,1,8,0:0:0:0:
114,253,123647,1,2,0:0:0:0:
48,39,123777,1,8,0:0:0:0:
283,169,123908,5,6,0:0:0:0:
290,149,123973,1,0,0:0:0:0:
284,116,124038,1,8,0:0:0:0:
254,95,124103,1,0,0:0:0:0:
211,102,124169,1,2,0:0:0:0:
188,153,124234,1,0,0:0:0:0:
212,203,124299,1,8,0:0:0:0:
265,217,124364,1,0,0:0:0:0:
314,190,124429,1,2,0:0:0:0:
370,194,124495,1,0,0:0:0:0:
411,231,124560,1,8,0:0:0:0:
414,286,124625,1,0,0:0:0:0:
377,327,124690,1,2,0:0:0:0:
321,322,124755,1,0,0:0:0:0:
288,275,124821,1,8,0:0:0:0:
305,222,124886,1,0,0:0:0:0:
358,204,124951,1,2,0:0:0:0:
403,219,125016,1,0,0:0:0:0:
439,201,125082,1,8,0:0:0:0:
450,171,125147,1,0,0:0:0:0:
469,157,125212,1,2,0:0:0:0:
484,157,125277,1,0,0:0:0:0:
495,167,125342,1,8,0:0:0:0:
499,174,125408,1,0,0:0:0:0:
497,181,125473,6,0,P|405:146|246:88,1,225.000008583069
208,18,125734,5,2,0:0:0:0:
146,0,125799,1,8,0:0:0:0:
85,18,125864,1,2,0:0:0:0:
61,76,125929,1,8,0:0:0:0:
86,135,125995,1,2,0:0:0:0:
141,166,126060,1,8,0:0:0:0:
202,149,126125,1,2,0:0:0:0:
260,173,126190,1,8,0:0:0:0:
289,229,126255,1,2,0:0:0:0:
269,290,126321,1,8,0:0:0:0:
209,312,126386,1,2,0:0:0:0:
149,290,126451,1,8,0:0:0:0:
95,271,126516,1,2,0:0:0:0:
53,290,126582,1,8,0:0:0:0:
43,326,126647,1,2,0:0:0:0:
56,352,126712,1,8,0:0:0:0:
77,358,126777,2,0,P|83:318|87:272,3,75.0000028610231,2|8|2|8,0:0|0:0|0:0|0:0,0:0:0:0:
181,194,127038,5,2,0:0:0:0:
210,171,127103,1,8,0:0:0:0:
247,165,127169,1,2,0:0:0:0:
284,168,127234,1,8,0:0:0:0:
318,181,127299,1,2,0:0:0:0:
347,204,127364,1,8,0:0:0:0:
364,237,127429,1,2,0:0:0:0:
365,274,127495,1,8,0:0:0:0:
356,310,127560,2,0,P|316:316|270:320,3,75.0000028610231,2|8|2|8,0:0|0:0|0:0|0:0,0:0:0:0:
166,202,127821,5,2,0:0:0:0:
170,265,127886,1,8,0:0:0:0:
126,311,127951,1,2,0:0:0:0:
62,306,128016,1,8,0:0:0:0:
22,255,128082,1,2,0:0:0:0:
34,192,128147,1,8,0:0:0:0:
90,163,128212,1,2,0:0:0:0:
153,169,128277,1,8,0:0:0:0:
205,133,128342,1,2,0:0:0:0:
210,68,128408,1,8,0:0:0:0:
166,21,128473,1,2,0:0:0:0:
102,18,128538,1,8,0:0:0:0:
55,60,128603,5,2,0:0:0:0:
94,100,128669,1,8,0:0:0:0:
149,96,128734,1,2,0:0:0:0:
185,53,128799,1,8,0:0:0:0:
237,33,128864,1,2,0:0:0:0:
292,38,128929,1,8,0:0:0:0:
327,82,128995,1,2,0:0:0:0:
320,137,129060,1,8,0:0:0:0:
283,179,129125,1,2,0:0:0:0:
227,185,129190,1,8,0:0:0:0:
184,221,129255,1,2,0:0:0:0:
183,277,129321,1,8,0:0:0:0:
219,319,129386,1,2,0:0:0:0:
274,328,129451,1,8,0:0:0:0:
318,294,129516,1,2,0:0:0:0:
327,237,129582,1,8,0:0:0:0:
311,183,129647,1,2,0:0:0:0:
334,131,129712,1,8,0:0:0:0:
388,120,129777,1,2,0:0:0:0:
437,148,129842,1,8,0:0:0:0:
451,199,129908,1,2,0:0:0:0:
438,245,129973,1,8,0:0:0:0:
398,266,130038,1,2,0:0:0:0:
357,262,130103,1,8,0:0:0:0:
327,237,130169,1,2,0:0:0:0:
318,204,130234,1,8,0:0:0:0:
327,175,130299,1,2,0:0:0:0:
347,158,130364,1,8,0:0:0:0:
368,153,130429,1,2,0:0:0:0:
386,155,130495,1,8,0:0:0:0:
399,162,130560,1,2,0:0:0:0:
404,171,130625,1,8,0:0:0:0:
405,182,130690,1,2,0:0:0:0:
401,192,130755,1,8,0:0:0:0:
390,196,130821,1,2,0:0:0:0:
378,194,130886,1,8,0:0:0:0:
369,186,130951,2,0,P|409:180|454:175,3,75.0000028610231,2|8|2|8,0:0|0:0|0:0|0:0,0:0:0:0:
512,94,131212,2,0,P|472:88|426:83,3,75.0000028610231,2|8|2|8,0:0|0:0|0:0|0:0,0:0:0:0:
301,7,131473,5,2,0:0:0:0:
308,4,131538,1,8,0:0:0:0:
310,12,131603,2,0,P|304:52|300:97,1,75.0000028610231,2|8,0:0|0:0,0:0:0:0:
175,83,131734,5,2,0:0:0:0:
115,63,131799,1,8,0:0:0:0:
54,82,131864,1,2,0:0:0:0:
37,143,131929,1,8,0:0:0:0:
66,200,131995,1,2,0:0:0:0:
128,212,132060,1,8,0:0:0:0:
187,190,132125,1,2,0:0:0:0:
245,215,132190,1,8,0:0:0:0:
263,275,132255,1,2,0:0:0:0:
233,332,132321,1,8,0:0:0:0:
172,350,132386,1,2,0:0:0:0:
113,325,132451,1,8,0:0:0:0:
86,267,132516,1,2,0:0:0:0:
106,205,132582,1,8,0:0:0:0:
163,177,132647,1,2,0:0:0:0:
225,187,132712,1,8,0:0:0:0:
268,233,132777,1,2,0:0:0:0:
328,251,132842,1,8,0:0:0:0:
386,224,132908,1,2,0:0:0:0:
402,162,132973,1,8,0:0:0:0:
363,111,133038,2,0,P|323:117|277:122,3,75.0000028610231,2|8|2|8,0:0|0:0|0:0|0:0,0:0:0:0:
328,251,133299,5,2,0:0:0:0:
368,270,133364,1,8,0:0:0:0:
381,313,133429,1,2,0:0:0:0:
360,354,133495,1,8,0:0:0:0:
317,369,133560,1,2,0:0:0:0:
274,355,133625,1,8,0:0:0:0:
255,315,133690,1,2,0:0:0:0:
255,271,133755,1,8,0:0:0:0:
225,237,133821,1,2,0:0:0:0:
181,229,133886,1,8,0:0:0:0:
140,248,133951,1,2,0:0:0:0:
122,290,134016,1,8,0:0:0:0:
135,334,134082,2,0,P|167:310|202:282,3,75.0000028610231,2|8|2|8,0:0|0:0|0:0|0:0,0:0:0:0:
168,110,134342,5,2,0:0:0:0:
174,106,134408,1,8,0:0:0:0:
180,103,134473,1,2,0:0:0:0:
187,101,134538,1,8,0:0:0:0:
194,99,134603,1,2,0:0:0:0:
201,98,134669,1,8,0:0:0:0:
208,97,134734,1,2,0:0:0:0:
215,97,134799,1,8,0:0:0:0:
222,98,134864,5,2,0:0:0:0:
198,157,134929,1,8,0:0:0:0:
210,221,134995,1,2,0:0:0:0:
262,257,135060,1,8,0:0:0:0:
325,254,135125,1,2,0:0:0:0:
374,214,135190,1,8,0:0:0:0:
437,209,135255,1,2,0:0:0:0:
493,241,135321,1,8,0:0:0:0:
504,304,135386,1,2,0:0:0:0:
471,359,135451,1,8,0:0:0:0:
410,380,135516,1,2,0:0:0:0:
347,364,135582,1,8,0:0:0:0:
320,307,135647,1,2,0:0:0:0:
329,245,135712,1,8,0:0:0:0:
293,193,135777,1,2,0:0:0:0:
229,187,135842,1,8,0:0:0:0:
184,234,135908,1,2,0:0:0:0:
186,298,135973,1,8,0:0:0:0:
147,349,136038,1,2,0:0:0:0:
83,354,136103,1,8,0:0:0:0:
39,307,136169,1,2,0:0:0:0:
39,248,136234,1,8,0:0:0:0:
73,204,136299,1,2,0:0:0:0:
123,193,136364,1,8,0:0:0:0:
169,207,136429,1,2,0:0:0:0:
193,246,136495,1,8,0:0:0:0:
194,288,136560,1,2,0:0:0:0:
172,319,136625,1,8,0:0:0:0:
139,326,136690,1,2,0:0:0:0:
110,316,136755,1,8,0:0:0:0:
96,294,136821,1,2,0:0:0:0:
95,272,136886,1,8,0:0:0:0:
103,256,136951,1,2,0:0:0:0:
115,249,137016,1,8,0:0:0:0:
126,250,137082,1,2,0:0:0:0:
136,255,137147,1,8,0:0:0:0:
142,265,137212,5,2,0:0:0:0:
162,217,137277,1,8,0:0:0:0:
209,196,137342,1,8,0:0:0:0:
262,199,137408,1,8,0:0:0:0:
303,231,137473,2,0,P|278:264|250:299,3,75.0000028610231,8|8|8|8,0:0|0:0|0:0|0:0,0:0:0:0:
388,213,137734,2,0,P|364:180|336:145,3,75.0000028610231,8|8|8|8,0:0|0:0|0:0|0:0,0:0:0:0:
263,367,137995,6,0,P|355:332|514:274,1,225.000008583069,6|0,0:0|0:0,0:0:0:0:
501,156,138255,5,2,0:0:0:0:
462,197,138321,1,8,0:0:0:0:
406,204,138386,1,2,0:0:0:0:
360,171,138451,1,8,0:0:0:0:
351,115,138516,1,2,0:0:0:0:
313,72,138582,1,8,0:0:0:0:
257,62,138647,1,2,0:0:0:0:
207,89,138712,1,8,0:0:0:0:
195,143,138777,1,2,0:0:0:0:
217,194,138842,1,8,0:0:0:0:
268,217,138908,1,2,0:0:0:0:
301,261,138973,1,8,0:0:0:0:
299,317,139038,1,2,0:0:0:0:
257,348,139103,1,8,0:0:0:0:
211,342,139169,1,2,0:0:0:0:
193,308,139234,1,8,0:0:0:0:
198,278,139299,2,0,P|230:302|265:330,3,75.0000028610231,2|8|2|8,0:0|0:0|0:0|0:0,0:0:0:0:
195,143,139560,5,2,0:0:0:0:
166,120,139625,1,8,0:0:0:0:
129,114,139691,1,2,0:0:0:0:
92,117,139756,1,8,0:0:0:0:
58,130,139821,1,2,0:0:0:0:
29,153,139886,1,8,0:0:0:0:
12,186,139951,1,2,0:0:0:0:
11,223,140016,1,8,0:0:0:0:
20,259,140082,2,0,P|60:265|105:269,3,75.0000028610231,2|8|2|8,0:0|0:0|0:0|0:0,0:0:0:0:
167,361,140342,5,2,0:0:0:0:
193,302,140408,1,8,0:0:0:0:
255,288,140473,1,2,0:0:0:0:
310,319,140538,1,8,0:0:0:0:
350,367,140603,1,2,0:0:0:0:
414,372,140669,1,8,0:0:0:0:
467,338,140734,1,2,0:0:0:0:
479,275,140799,1,8,0:0:0:0:
450,217,140864,1,2,0:0:0:0:
390,194,140929,1,8,0:0:0:0:
326,205,140995,1,2,0:0:0:0:
298,262,141060,1,8,0:0:0:0:
316,322,141125,5,2,0:0:0:0:
365,295,141190,1,8,0:0:0:0:
392,246,141255,1,2,0:0:0:0:
395,189,141321,1,8,0:0:0:0:
361,144,141386,1,2,0:0:0:0:
306,132,141451,1,8,0:0:0:0:
252,149,141516,1,2,0:0:0:0:
220,196,141582,1,8,0:0:0:0:
213,251,141647,1,2,0:0:0:0:
165,281,141712,1,8,0:0:0:0:
109,277,141777,1,2,0:0:0:0:
73,233,141842,1,8,0:0:0:0:
78,176,141908,1,2,0:0:0:0:
120,139,141973,1,8,0:0:0:0:
175,136,142038,1,2,0:0:0:0:
224,109,142103,1,8,0:0:0:0:
237,53,142169,1,2,0:0:0:0:
202,8,142234,1,8,0:0:0:0:
145,8,142299,1,2,0:0:0:0:
106,48,142364,1,8,0:0:0:0:
101,100,142429,1,2,0:0:0:0:
132,140,142495,1,8,0:0:0:0:
176,145,142560,1,2,0:0:0:0:
211,130,142625,1,8,0:0:0:0:
227,96,142690,1,2,0:0:0:0:
223,63,142755,1,8,0:0:0:0:
203,41,142821,1,2,0:0:0:0:
179,35,142886,1,8,0:0:0:0:
156,41,142951,1,2,0:0:0:0:
143,54,143016,1,8,0:0:0:0:
140,70,143082,1,2,0:0:0:0:
144,82,143147,1,8,0:0:0:0:
156,88,143212,1,2,0:0:0:0:
167,86,143277,1,8,0:0:0:0:
176,80,143342,1,2,0:0:0:0:
181,71,143408,1,8,0:0:0:0:
183,61,143473,2,0,P|151:35|114:9,3,75.0000028610231,2|8|2|8,0:0|0:0|0:0|0:0,0:0:0:0:
284,144,143734,2,0,P|316:119|351:90,3,75.0000028610231,2|8|2|8,0:0|0:0|0:0|0:0,0:0:0:0:
134,151,143995,5,2,0:0:0:0:
128,154,144060,1,8,0:0:0:0:
131,161,144125,2,0,P|169:164|206:170,1,75.0000028610231,2|8,0:0|0:0,0:0:0:0:
257,277,144255,5,2,0:0:0:0:
204,313,144321,1,8,0:0:0:0:
141,299,144386,1,2,0:0:0:0:
117,240,144451,1,8,0:0:0:0:
143,182,144516,1,2,0:0:0:0:
206,170,144582,1,8,0:0:0:0:
238,115,144647,1,2,0:0:0:0:
213,56,144712,1,8,0:0:0:0:
150,44,144777,1,2,0:0:0:0:
96,78,144842,1,8,0:0:0:0:
94,142,144908,1,2,0:0:0:0:
138,187,144973,1,8,0:0:0:0:
201,184,145038,1,2,0:0:0:0:
241,135,145103,1,8,0:0:0:0:
304,121,145169,1,2,0:0:0:0:
360,150,145234,1,8,0:0:0:0:
376,211,145299,1,2,0:0:0:0:
354,270,145364,1,8,0:0:0:0:
371,331,145429,1,2,0:0:0:0:
428,360,145495,1,8,0:0:0:0:
490,349,145560,2,0,P|496:309|501:263,3,75.0000028610231,2|8|2|8,0:0|0:0|0:0|0:0,0:0:0:0:
437,80,145821,5,2,0:0:0:0:
397,26,145886,1,8,0:0:0:0:
329,25,145951,1,2,0:0:0:0:
288,79,146016,1,8,0:0:0:0:
306,145,146082,1,2,0:0:0:0:
292,211,146147,1,8,0:0:0:0:
231,240,146212,1,2,0:0:0:0:
166,221,146277,1,8,0:0:0:0:
102,242,146342,1,2,0:0:0:0:
83,308,146408,1,8,0:0:0:0:
113,369,146473,1,2,0:0:0:0:
179,380,146538,1,8,0:0:0:0:
240,353,146603,5,2,0:0:0:0:
236,347,146669,1,8,0:0:0:0:
232,341,146734,1,2,0:0:0:0:
228,335,146799,1,8,0:0:0:0:
224,329,146864,1,2,0:0:0:0:
220,323,146929,1,8,0:0:0:0:
216,317,146995,1,2,0:0:0:0:
212,311,147060,1,8,0:0:0:0:
208,305,147125,1,2,0:0:0:0:
204,299,147190,1,8,0:0:0:0:
200,293,147255,1,2,0:0:0:0:
196,287,147321,1,8,0:0:0:0:
192,281,147386,5,2,0:0:0:0:
254,294,147451,1,8,0:0:0:0:
310,266,147516,1,2,0:0:0:0:
321,203,147582,1,8,0:0:0:0:
281,154,147647,1,2,0:0:0:0:
217,154,147712,1,8,0:0:0:0:
166,193,147777,1,2,0:0:0:0:
103,185,147842,1,8,0:0:0:0:
67,131,147908,1,2,0:0:0:0:
79,69,147973,1,8,0:0:0:0:
138,46,148038,1,2,0:0:0:0:
197,70,148103,1,8,0:0:0:0:
218,131,148169,1,2,0:0:0:0:
270,168,148234,1,8,0:0:0:0:
333,163,148299,1,2,0:0:0:0:
371,113,148364,1,8,0:0:0:0:
432,96,148429,1,2,0:0:0:0:
488,127,148495,1,8,0:0:0:0:
511,182,148560,1,2,0:0:0:0:
495,236,148625,1,8,0:0:0:0:
451,266,148690,1,2,0:0:0:0:
406,268,148755,1,8,0:0:0:0:
374,247,148821,1,2,0:0:0:0:
363,219,148886,1,8,0:0:0:0:
363,197,148951,5,8,0:0:0:0:
315,234,149016,1,8,0:0:0:0:
255,247,149082,1,8,0:0:0:0:
196,237,149147,1,8,0:0:0:0:
149,199,149212,1,8,0:0:0:0:
126,144,149277,1,8,0:0:0:0:
130,85,149342,1,8,0:0:0:0:
164,35,149408,1,8,0:0:0:0:
218,12,149473,2,0,P|221:50|227:87,3,75.0000028610231,2|8|2|8,0:0|0:0|0:0|0:0,0:0:0:0:
363,197,149734,5,2,0:0:0:0:
358,185,149799,1,0,0:0:0:0:
353,173,149864,1,0,0:0:0:0:
348,161,149929,1,0,0:0:0:0:
343,148,149995,2,0,P|351:104|358:61,3,75.0000028610231
491,316,150255,5,0,0:0:0:0:
235,215,150386,1,0,0:0:0:0:
430,8,150516,6,0,P|453:110|491:268,1,225.000008583069,4|0,0:0|0:0,0:0:0:0:
491,316,150777,1,2,0:0:0:0:
446,361,150842,1,8,0:0:0:0:
382,350,150908,1,2,0:0:0:0:
349,295,150973,1,8,0:0:0:0:
362,232,151038,1,2,0:0:0:0:
336,173,151103,1,8,0:0:0:0:
273,156,151169,1,2,0:0:0:0:
220,191,151234,1,8,0:0:0:0:
210,253,151299,1,2,0:0:0:0:
155,285,151364,1,8,0:0:0:0:
94,265,151429,1,2,0:0:0:0:
69,205,151495,1,8,0:0:0:0:
93,146,151560,1,2,0:0:0:0:
150,127,151625,1,8,0:0:0:0:
198,147,151690,1,2,0:0:0:0:
202,191,151755,1,8,0:0:0:0:
175,218,151821,2,0,P|124:199|97:192,3,75.0000028610231,2|8|2|8,0:0|0:0|0:0|0:0,0:0:0:0:
284,351,152082,5,2,0:0:0:0:
306,347,152147,1,8,0:0:0:0:
320,329,152212,1,2,0:0:0:0:
321,306,152277,1,8,0:0:0:0:
312,285,152342,1,2,0:0:0:0:
291,274,152408,1,8,0:0:0:0:
268,276,152473,1,2,0:0:0:0:
252,292,152538,1,8,0:0:0:0:
247,314,152603,2,0,P|260:342|276:390,3,75.0000028610231,2|8|2|8,0:0|0:0|0:0|0:0,0:0:0:0:
369,199,152864,5,2,0:0:0:0:
331,245,152929,1,8,0:0:0:0:
350,302,152995,1,2,0:0:0:0:
401,332,153060,1,8,0:0:0:0:
458,315,153125,1,2,0:0:0:0:
490,264,153190,1,8,0:0:0:0:
473,207,153255,1,2,0:0:0:0:
422,173,153321,1,8,0:0:0:0:
363,184,153386,1,2,0:0:0:0:
315,161,153451,1,8,0:0:0:0:
300,118,153516,1,2,0:0:0:0:
316,83,153582,1,8,0:0:0:0:
342,68,153647,5,2,0:0:0:0:
353,118,153712,1,8,0:0:0:0:
326,162,153777,1,2,0:0:0:0:
274,169,153842,1,8,0:0:0:0:
232,136,153908,1,2,0:0:0:0:
227,83,153973,1,8,0:0:0:0:
193,42,154038,1,2,0:0:0:0:
140,38,154103,1,8,0:0:0:0:
96,68,154169,1,2,0:0:0:0:
86,119,154234,1,8,0:0:0:0:
109,165,154299,1,2,0:0:0:0:
157,184,154364,1,8,0:0:0:0:
175,233,154429,1,2,0:0:0:0:
162,284,154495,1,8,0:0:0:0:
119,314,154560,1,2,0:0:0:0:
66,310,154625,1,8,0:0:0:0:
32,269,154690,1,2,0:0:0:0:
36,216,154755,1,8,0:0:0:0:
71,176,154821,1,2,0:0:0:0:
115,172,154886,1,8,0:0:0:0:
150,199,154951,1,2,0:0:0:0:
153,236,155016,1,8,0:0:0:0:
135,260,155082,1,2,0:0:0:0:
112,263,155147,1,8,0:0:0:0:
98,256,155212,5,2,0:0:0:0:
116,242,155277,1,8,0:0:0:0:
136,232,155342,1,2,0:0:0:0:
157,225,155408,1,8,0:0:0:0:
178,219,155473,1,2,0:0:0:0:
200,215,155538,1,8,0:0:0:0:
222,214,155603,1,2,0:0:0:0:
244,215,155669,1,8,0:0:0:0:
266,218,155734,1,2,0:0:0:0:
287,222,155799,1,8,0:0:0:0:
308,229,155864,1,2,0:0:0:0:
327,239,155929,1,8,0:0:0:0:
343,254,155995,6,0,P|326:296|313:340,3,75.0000028610231,2|8|2|8,0:0|0:0|0:0|0:0,0:0:0:0:
462,215,156255,2,0,P|444:173|422:132,3,75.0000028610231,2|8|2|8,0:0|0:0|0:0|0:0,0:0:0:0:
498,330,156516,1,2,0:0:0:0:
506,329,156582,1,8,0:0:0:0:
504,321,156647,2,0,L|412:294,1,75.0000028610231,2|8,0:0|0:0,0:0:0:0:
216,373,156777,5,0,0:0:0:0:
203,364,156842,1,0,0:0:0:0:
188,359,156908,1,0,0:0:0:0:
173,357,156973,1,8,0:0:0:0:
158,357,157038,5,2,0:0:0:0:
137,304,157103,1,8,0:0:0:0:
166,255,157169,1,2,0:0:0:0:
221,244,157234,1,8,0:0:0:0:
266,276,157299,1,2,0:0:0:0:
321,272,157364,1,8,0:0:0:0:
356,228,157429,1,2,0:0:0:0:
350,171,157495,1,8,0:0:0:0:
304,138,157560,1,2,0:0:0:0:
248,144,157625,1,8,0:0:0:0:
200,173,157690,1,2,0:0:0:0:
144,165,157755,1,8,0:0:0:0:
108,120,157821,1,2,0:0:0:0:
116,68,157886,1,8,0:0:0:0:
151,40,157951,1,2,0:0:0:0:
188,38,158016,1,8,0:0:0:0:
212,55,158082,2,0,P|198:93|178:149,3,75.0000028610231,2|8|2|8,0:0|0:0|0:0|0:0,0:0:0:0:
371,19,158342,5,2,0:0:0:0:
389,31,158407,1,8,0:0:0:0:
394,54,158472,1,2,0:0:0:0:
385,75,158537,1,8,0:0:0:0:
368,90,158602,1,2,0:0:0:0:
344,91,158668,1,8,0:0:0:0:
324,80,158733,1,2,0:0:0:0:
317,58,158798,1,8,0:0:0:0:
321,36,158863,2,0,P|362:48|398:59,3,75.0000028610231,2|8|2|8,0:0|0:0|0:0|0:0,0:0:0:0:
410,161,159125,5,2,0:0:0:0:
441,178,159190,1,8,0:0:0:0:
476,166,159255,1,2,0:0:0:0:
495,132,159321,1,8,0:0:0:0:
483,96,159386,5,2,0:0:0:0:
432,120,159451,1,8,0:0:0:0:
425,175,159516,1,2,0:0:0:0:
468,211,159582,1,8,0:0:0:0:
488,262,159647,1,2,0:0:0:0:
465,300,159712,1,8,0:0:0:0:
427,299,159777,1,2,0:0:0:0:
407,275,159842,1,8,0:0:0:0:
411,261,159908,5,2,0:0:0:0:
472,277,159973,1,8,0:0:0:0:
482,339,160038,1,2,0:0:0:0:
436,383,160103,1,8,0:0:0:0:
374,363,160169,1,2,0:0:0:0:
346,305,160234,1,8,0:0:0:0:
287,280,160299,1,2,0:0:0:0:
224,293,160364,1,8,0:0:0:0:
187,345,160429,1,2,0:0:0:0:
124,358,160495,1,8,0:0:0:0:
74,318,160560,1,2,0:0:0:0:
71,254,160625,1,8,0:0:0:0:
116,209,160690,1,2,0:0:0:0:
179,207,160755,1,8,0:0:0:0:
228,165,160821,1,2,0:0:0:0:
233,101,160886,1,8,0:0:0:0:
196,49,160951,1,2,0:0:0:0:
132,46,161016,1,8,0:0:0:0:
82,87,161082,1,2,0:0:0:0:
79,150,161147,1,8,0:0:0:0:
123,195,161212,1,2,0:0:0:0:
175,196,161277,1,8,0:0:0:0:
205,163,161342,1,2,0:0:0:0:
196,125,161408,1,8,0:0:0:0:
182,120,161473,5,2,0:0:0:0:
314,336,161603,1,8,0:0:0:0:
367,320,161668,1,8,0:0:0:0:
422,307,161734,5,8,0:0:0:0:
118,278,161864,1,8,0:0:0:0:
324,240,161995,1,8,0:0:0:0:
203,343,162125,1,8,0:0:0:0:
454,384,162255,5,8,0:0:0:0:
441,328,162321,1,8,0:0:0:0:
429,273,162386,1,8,0:0:0:0:
417,218,162451,1,8,0:0:0:0:
403,163,162516,2,0,L|500:145,3,75.0000028610231,8|0|0|0,0:0|0:0|0:0|0:0,0:0:0:0:
323,62,162777,1,0,0:0:0:0:
331,60,162842,1,0,0:0:0:0:
336,65,162908,2,0,L|322:138,1,75.0000028610231
149,189,163038,5,2,0:0:0:0:
87,171,163103,1,8,0:0:0:0:
69,108,163169,1,2,0:0:0:0:
97,51,163234,1,8,0:0:0:0:
159,40,163299,1,2,0:0:0:0:
214,71,163364,1,8,0:0:0:0:
219,134,163429,1,2,0:0:0:0:
187,190,163495,1,8,0:0:0:0:
205,250,163560,1,2,0:0:0:0:
259,282,163625,1,8,0:0:0:0:
319,267,163690,1,2,0:0:0:0:
349,211,163755,1,8,0:0:0:0:
409,188,163821,1,2,0:0:0:0:
468,210,163886,1,8,0:0:0:0:
494,267,163951,1,2,0:0:0:0:
476,328,164016,1,8,0:0:0:0:
415,350,164082,1,2,0:0:0:0:
366,330,164147,1,8,0:0:0:0:
356,286,164212,1,2,0:0:0:0:
374,253,164277,1,8,0:0:0:0:
403,246,164342,2,0,P|417:296|430:350,3,75.0000028610231,2|8|2|8,0:0|0:0|0:0|0:0,0:0:0:0:
185,298,164603,5,2,0:0:0:0:
172,316,164668,1,8,0:0:0:0:
175,339,164733,1,2,0:0:0:0:
190,355,164798,1,8,0:0:0:0:
211,364,164863,1,2,0:0:0:0:
234,357,164929,1,8,0:0:0:0:
249,339,164994,1,2,0:0:0:0:
249,317,165059,1,8,0:0:0:0:
237,298,165124,2,0,P|199:312|160:324,3,75.0000028610231,2|8|2|8,0:0|0:0|0:0|0:0,0:0:0:0:
8,174,165386,5,2,0:0:0:0:
22,115,165451,1,8,0:0:0:0:
78,95,165516,1,2,0:0:0:0:
130,125,165582,1,8,0:0:0:0:
138,184,165647,1,2,0:0:0:0:
102,232,165712,1,8,0:0:0:0:
46,253,165777,1,2,0:0:0:0:
31,311,165842,1,8,0:0:0:0:
67,359,165908,1,2,0:0:0:0:
119,364,165973,1,8,0:0:0:0:
144,327,166038,1,2,0:0:0:0:
130,292,166103,1,8,0:0:0:0:
107,286,166169,5,2,0:0:0:0:
114,337,166234,1,8,0:0:0:0:
161,359,166299,1,2,0:0:0:0:
210,340,166364,1,8,0:0:0:0:
233,293,166429,1,2,0:0:0:0:
278,263,166495,1,8,0:0:0:0:
330,264,166560,1,2,0:0:0:0:
367,300,166625,1,8,0:0:0:0:
405,335,166690,1,2,0:0:0:0:
457,336,166755,1,8,0:0:0:0:
502,307,166821,1,2,0:0:0:0:
510,255,166886,1,8,0:0:0:0:
484,209,166951,1,2,0:0:0:0:
434,192,167016,1,8,0:0:0:0:
382,204,167082,1,2,0:0:0:0:
334,182,167147,1,8,0:0:0:0:
313,133,167212,1,2,0:0:0:0:
323,81,167277,1,8,0:0:0:0:
367,53,167342,1,2,0:0:0:0:
412,55,167408,1,8,0:0:0:0:
441,78,167473,1,2,0:0:0:0:
447,107,167538,1,8,0:0:0:0:
441,128,167603,1,2,0:0:0:0:
429,137,167669,1,8,0:0:0:0:
421,141,167734,5,2,0:0:0:0:
402,127,167799,1,8,0:0:0:0:
382,115,167864,1,2,0:0:0:0:
362,103,167929,1,8,0:0:0:0:
340,94,167995,1,2,0:0:0:0:
318,87,168060,1,8,0:0:0:0:
296,81,168125,1,2,0:0:0:0:
273,77,168190,1,8,0:0:0:0:
250,74,168255,1,2,0:0:0:0:
227,74,168321,1,8,0:0:0:0:
204,78,168386,2,0,P|188:111|171:157,1,75.0000028610231,2|8,0:0|0:0,0:0:0:0:
89,92,168516,6,0,P|75:56|59:23,3,75.0000028610231,2|8|2|8,0:0|0:0|0:0|0:0,0:0:0:0:
12,162,168777,2,0,P|47:175|80:191,3,75.0000028610231,2|8|2|8,0:0|0:0|0:0|0:0,0:0:0:0:
54,313,169038,1,2,0:0:0:0:
48,308,169103,1,8,0:0:0:0:
48,302,169169,2,0,L|147:276,1,75.0000028610231,2|8,0:0|0:0,0:0:0:0:
303,215,169299,5,2,0:0:0:0:
340,265,169364,1,8,0:0:0:0:
326,326,169429,1,2,0:0:0:0:
266,349,169495,1,8,0:0:0:0:
209,320,169560,1,2,0:0:0:0:
199,257,169625,1,8,0:0:0:0:
236,206,169690,1,2,0:0:0:0:
298,200,169755,1,8,0:0:0:0:
356,224,169821,1,2,0:0:0:0:
417,209,169886,1,8,0:0:0:0:
452,157,169951,1,2,0:0:0:0:
439,95,170016,1,8,0:0:0:0:
386,58,170082,1,2,0:0:0:0:
324,70,170147,1,8,0:0:0:0:
284,119,170212,1,2,0:0:0:0:
221,127,170277,1,8,0:0:0:0:
170,89,170342,1,2,0:0:0:0:
171,35,170408,1,8,0:0:0:0:
203,3,170473,1,2,0:0:0:0:
240,6,170538,1,8,0:0:0:0:
253,23,170603,2,0,P|241:60|225:118,3,75.0000028610231,2|8|2|8,0:0|0:0|0:0|0:0,0:0:0:0:
455,20,170864,5,2,0:0:0:0:
493,75,170929,1,8,0:0:0:0:
478,141,170995,1,2,0:0:0:0:
416,168,171060,1,8,0:0:0:0:
352,145,171125,1,2,0:0:0:0:
289,169,171190,1,8,0:0:0:0:
258,229,171255,1,2,0:0:0:0:
275,295,171321,1,8,0:0:0:0:
332,330,171386,1,2,0:0:0:0:
391,320,171451,1,8,0:0:0:0:
416,274,171516,1,2,0:0:0:0:
396,241,171582,1,8,0:0:0:0:
373,238,171647,5,2,0:0:0:0:
353,294,171712,1,8,0:0:0:0:
387,342,171777,1,2,0:0:0:0:
446,348,171842,1,8,0:0:0:0:
485,302,171908,1,2,0:0:0:0:
471,243,171973,1,8,0:0:0:0:
418,215,172038,1,2,0:0:0:0:
359,226,172103,1,8,0:0:0:0:
318,270,172169,1,2,0:0:0:0:
265,271,172234,1,8,0:0:0:0:
231,241,172299,1,2,0:0:0:0:
229,203,172364,1,8,0:0:0:0:
249,181,172429,5,2,0:0:0:0:
296,211,172495,1,8,0:0:0:0:
301,266,172560,1,2,0:0:0:0:
261,305,172625,1,8,0:0:0:0:
204,302,172690,1,2,0:0:0:0:
167,259,172755,1,8,0:0:0:0:
176,202,172821,1,2,0:0:0:0:
220,167,172886,1,8,0:0:0:0:
229,111,172951,1,2,0:0:0:0:
207,59,173016,1,8,0:0:0:0:
153,38,173082,1,2,0:0:0:0:
101,60,173147,1,8,0:0:0:0:
82,113,173212,1,2,0:0:0:0:
99,154,173277,1,8,0:0:0:0:
133,168,173342,1,2,0:0:0:0:
162,161,173408,1,8,0:0:0:0:
172,141,173473,2,0,P|156:97|140:59,3,75.0000028610231,2|8|2|8,0:0|0:0|0:0|0:0,0:0:0:0:
0,228,173734,5,8,0:0:0:0:
58,239,173799,1,8,0:0:0:0:
117,250,173864,1,8,0:0:0:0:
175,261,173929,1,8,0:0:0:0:
234,272,173995,1,8,0:0:0:0:
292,282,174060,1,8,0:0:0:0:
351,293,174125,1,8,0:0:0:0:
410,302,174190,1,8,0:0:0:0:
467,313,174255,2,0,L|481:389,3,75.0000028610231,8|0|2|8,0:0|0:0|0:0|0:0,0:0:0:0:
358,205,174516,5,8,0:0:0:0:
322,211,174582,1,8,0:0:0:0:
287,217,174647,1,8,0:0:0:0:
253,224,174712,1,8,0:0:0:0:
218,230,174777,1,8,0:0:0:0:
182,236,174842,1,8,0:0:0:0:
147,241,174908,1,8,0:0:0:0:
111,246,174973,1,8,0:0:0:0:
74,252,175038,2,0,L|51:351,3,75.0000028610231,8|8|8|8,0:0|0:0|0:0|0:0,0:0:0:0:
222,368,175299,5,0,0:0:0:0:
229,369,175364,1,0,0:0:0:0:
236,370,175429,1,0,0:0:0:0:
243,371,175495,1,0,0:0:0:0:
251,372,175560,6,0,P|226:251|208:143,1,202.500000772476,4|0,0:0|0:0,0:0:0:0:
190,36,175821,6,0,B|195:-5|195:-5|273:138,1,150.000005722046,2|8,0:0|0:0,0:0:0:0:
258,242,176082,1,2,0:0:0:0:
267,232,176212,1,8,0:0:0:0:
419,131,176342,5,2,0:0:0:0:
247,90,176473,1,8,0:0:0:0:
444,277,176603,6,0,B|429:203|429:203|432:199|432:199|418:130,1,150.000005722046,2|8,0:0|0:0,0:0:0:0:
498,0,176865,1,2,0:0:0:0:
501,12,176995,1,8,0:0:0:0:
347,187,177125,5,2,0:0:0:0:
512,141,177256,1,8,0:0:0:0:
330,33,177387,2,0,B|231:4|231:4|171:53,1,150.000005722046,2|8,0:0|0:0,0:0:0:0:
102,193,177648,1,2,0:0:0:0:
116,189,177778,1,8,0:0:0:0:
89,67,177908,5,2,0:0:0:0:
215,220,178038,1,8,0:0:0:0:
17,111,178169,5,2,0:0:0:0:
104,94,178300,1,8,0:0:0:0:
88,298,178430,5,2,0:0:0:0:
246,93,178560,1,8,0:0:0:0:
278,351,178690,6,0,P|379:313|347:189,1,225.000008583069,2|0,0:0|0:0,0:0:0:0:
303,264,178951,6,0,P|391:295|473:328,1,150.000005722046,2|8,0:0|0:0,0:0:0:0:
512,232,179212,1,2,0:0:0:0:
500,243,179342,1,8,0:0:0:0:
367,123,179473,5,2,0:0:0:0:
510,24,179603,1,8,0:0:0:0:
452,177,179733,2,0,B|418:143|418:143|282:187,1,150.000005722046,2|8,0:0|0:0,0:0:0:0:
209,299,179995,1,2,0:0:0:0:
212,284,180126,1,8,0:0:0:0:
107,384,180256,5,2,0:0:0:0:
305,319,180387,1,8,0:0:0:0:
174,147,180517,2,0,P|139:233|112:324,1,150.000005722046,2|8,0:0|0:0,0:0:0:0:
53,162,180778,1,2,0:0:0:0:
56,173,180908,1,8,0:0:0:0:
0,289,181039,5,2,0:0:0:0:
194,165,181169,1,8,0:0:0:0:
33,44,181299,5,2,0:0:0:0:
119,78,181430,1,8,0:0:0:0:
209,299,181561,5,2,0:0:0:0:
257,16,181690,1,8,0:0:0:0:
429,159,181821,6,0,P|379:251|277:229,1,225.000008583069,2|0,0:0|0:0,0:0:0:0:
345,177,182082,6,0,L|288:346,1,150.000005722046,2|8,0:0|0:0,0:0:0:0:
396,384,182343,1,2,0:0:0:0:
382,379,182474,1,8,0:0:0:0:
445,187,182604,5,2,0:0:0:0:
288,348,182734,1,8,0:0:0:0:
184,168,182865,2,0,B|258:155|258:155|267:161|267:161|355:147,1,150.000005722046,2|8,0:0|0:0,0:0:0:0:
450,23,183126,1,2,0:0:0:0:
440,19,183256,1,8,0:0:0:0:
264,81,183387,5,0,0:0:0:0:
497,119,183517,1,0,0:0:0:0:
362,4,183648,2,0,P|342:81|326:186,1,150.000005722046,2|8,0:0|0:0,0:0:0:0:
418,287,183908,1,2,0:0:0:0:
423,299,184038,1,8,0:0:0:0:
209,224,184169,5,2,0:0:0:0:
502,138,184300,1,8,0:0:0:0:
327,78,184430,5,2,0:0:0:0:
304,162,184560,1,8,0:0:0:0:
487,221,184690,5,2,0:0:0:0:
460,3,184821,1,8,0:0:0:0:
315,249,184951,6,0,P|222:199|244:97,1,225.000008583069,2|0,0:0|0:0,0:0:0:0:
304,162,185213,6,0,L|99:198,1,150.000005722046,2|8,0:0|0:0,0:0:0:0:
49,149,185474,1,2,0:0:0:0:
52,167,185604,1,8,0:0:0:0:
159,289,185734,5,2,0:0:0:0:
124,87,185865,1,8,0:0:0:0:
17,242,185995,2,0,P|113:278|181:293,1,150.000005722046,2|8,0:0|0:0,0:0:0:0:
304,162,186255,1,2,0:0:0:0:
301,180,186385,1,8,0:0:0:0:
369,340,186516,5,2,0:0:0:0:
204,166,186647,1,8,0:0:0:0:
415,77,186777,2,0,B|449:111|449:111|405:247,1,150.000005722046,2|8,0:0|0:0,0:0:0:0:
212,269,187038,5,8,0:0:0:0:
232,309,187103,1,8,0:0:0:0:
271,332,187169,1,8,0:0:0:0:
315,339,187234,1,8,0:0:0:0:
357,324,187299,1,8,0:0:0:0:
240,111,187429,5,8,0:0:0:0:
240,111,187495,1,8,0:0:0:0:
240,111,187560,2,0,L|258:14,3,75.0000028610231
233,273,187821,6,0,P|112:248|4:230,1,225.000008583069,8|0,0:0|0:0,0:0:0:0:
22,150,188082,6,0,P|151:205|119:326,1,262.500002503395,2|0,0:0|0:0,0:0:0:0:
59,369,188342,6,0,L|256:339,1,175.00000166893,2|8,0:0|0:0,0:0:0:0:
306,247,188603,1,2,0:0:0:0:
315,257,188734,1,8,0:0:0:0:
395,328,188864,5,2,0:0:0:0:
226,214,188995,1,8,0:0:0:0:
456,86,189125,2,0,B|440:164|440:164|430:171|430:171|413:255,1,175.00000166893,2|8,0:0|0:0,0:0:0:0:
326,93,189386,1,2,0:0:0:0:
323,81,189516,1,8,0:0:0:0:
424,2,189647,5,2,0:0:0:0:
335,179,189777,1,8,0:0:0:0:
240,40,189908,2,0,B|153:11|153:11|88:85,1,175.00000166893,2|8,0:0|0:0,0:0:0:0:
0,155,190169,1,2,0:0:0:0:
14,159,190299,1,8,0:0:0:0:
0,0,190429,5,2,0:0:0:0:
146,145,190560,1,8,0:0:0:0:
3,167,190690,5,2,0:0:0:0:
20,80,190821,1,8,0:0:0:0:
239,121,190951,5,2,0:0:0:0:
27,236,191081,1,8,0:0:0:0:
167,384,191212,6,0,P|212:286|94:219,1,262.500002503395,2|0,0:0|0:0,0:0:0:0:
112,298,191473,6,0,P|200:329|288:361,1,175.00000166893,2|8,0:0|0:0,0:0:0:0:
443,308,191734,1,2,0:0:0:0:
431,319,191864,1,8,0:0:0:0:
292,183,191995,5,2,0:0:0:0:
361,368,192125,1,8,0:0:0:0:
501,254,192255,2,0,B|467:217|467:217|331:264,1,175.00000166893,2|8,0:0|0:0,0:0:0:0:
206,205,192516,1,2,0:0:0:0:
191,202,192647,1,8,0:0:0:0:
383,46,192777,5,2,0:0:0:0:
184,116,192908,1,8,0:0:0:0:
246,0,193038,2,0,P|281:86|308:177,1,175.00000166893,2|8,0:0|0:0,0:0:0:0:
276,294,193299,1,2,0:0:0:0:
273,283,193429,1,8,0:0:0:0:
387,161,193560,5,2,0:0:0:0:
191,202,193690,1,8,0:0:0:0:
383,46,193821,5,2,0:0:0:0:
469,80,193951,1,8,0:0:0:0:
273,283,194082,5,2,0:0:0:0:
321,0,194212,1,8,0:0:0:0:
77,80,194342,6,0,P|123:108|226:-2,1,225.000008583069,2|0,0:0|0:0,0:0:0:0:
90,0,194603,6,0,L|147:169,1,150.000005722046,2|8,0:0|0:0,0:0:0:0:
64,262,194864,1,2,0:0:0:0:
59,276,194995,1,8,0:0:0:0:
162,329,195125,5,2,0:0:0:0:
30,178,195255,1,8,0:0:0:0:
209,224,195386,2,0,B|283:211|283:211|292:217|292:217|380:203,1,150.000005722046,2|8,0:0|0:0,0:0:0:0:
272,317,195647,1,2,0:0:0:0:
264,314,195777,1,8,0:0:0:0:
317,123,195908,5,2,0:0:0:0:
487,221,196038,1,8,0:0:0:0:
460,3,196169,2,0,P|440:80|424:185,1,150.000005722046,2|8,0:0|0:0,0:0:0:0:
418,287,196429,1,2,0:0:0:0:
423,299,196560,1,8,0:0:0:0:
209,224,196690,5,2,0:0:0:0:
512,147,196821,1,8,0:0:0:0:
327,78,196951,5,2,0:0:0:0:
304,162,197082,1,8,0:0:0:0:
487,221,197212,5,2,0:0:0:0:
460,3,197342,1,8,0:0:0:0:
226,85,197473,6,0,B|186:136|127:92|127:92|128:84|128:84|63:38|-6:93,1,225.000008583069,2|0,0:0|0:0,0:0:0:0:
155,4,197734,6,0,L|119:209,1,150.000005722046,2|8,0:0|0:0,0:0:0:0:
33,227,197995,1,2,0:0:0:0:
36,245,198125,1,8,0:0:0:0:
172,359,198255,5,2,0:0:0:0:
49,149,198386,1,8,0:0:0:0:
49,323,198516,2,0,P|145:287|213:272,1,150.000005722046,2|8,0:0|0:0,0:0:0:0:
241,181,198777,1,2,0:0:0:0:
257,187,198908,1,8,0:0:0:0:
436,297,199038,5,8,0:0:0:0:
395,363,199125,1,8,0:0:0:0:
319,353,199212,1,8,0:0:0:0:
294,283,199299,2,0,L|416:264,2,100.000003814697,0|8|8,0:0|0:0|0:0,0:0:0:0:
473,178,199560,2,0,L|351:159,2,100.000003814697,0|8|8,0:0|0:0|0:0,0:0:0:0:
305,18,199821,5,0,0:0:0:0:
333,71,199908,1,8,0:0:0:0:
390,81,199995,1,8,0:0:0:0:
441,46,200082,5,8,0:0:0:0:
426,50,200147,1,8,0:0:0:0:
411,54,200212,1,8,0:0:0:0:
396,58,200277,1,8,0:0:0:0:
368,89,200342,5,8,0:0:0:0:
21,25,200603,6,0,P|121:43|254:80,1,225.000008583069
305,18,200864,1,2,0:0:0:0:
346,66,200929,1,8,0:0:0:0:
336,129,200995,1,2,0:0:0:0:
281,161,201060,1,8,0:0:0:0:
218,152,201125,1,2,0:0:0:0:
161,181,201190,1,8,0:0:0:0:
138,240,201255,1,2,0:0:0:0:
172,294,201321,1,8,0:0:0:0:
232,313,201386,1,2,0:0:0:0:
289,285,201451,1,8,0:0:0:0:
321,230,201516,1,2,0:0:0:0:
381,208,201582,1,8,0:0:0:0:
441,226,201647,1,2,0:0:0:0:
468,279,201712,1,8,0:0:0:0:
458,330,201777,1,2,0:0:0:0:
417,349,201842,1,8,0:0:0:0:
383,330,201908,2,0,L|406:235,3,75.0000028610231,2|8|2|8,0:0|0:0|0:0|0:0,0:0:0:0:
241,384,202169,5,2,0:0:0:0:
263,380,202234,1,8,0:0:0:0:
277,362,202299,1,2,0:0:0:0:
278,339,202364,1,8,0:0:0:0:
269,318,202429,1,2,0:0:0:0:
248,307,202495,1,8,0:0:0:0:
225,309,202560,1,2,0:0:0:0:
209,325,202625,1,8,0:0:0:0:
204,347,202690,2,0,P|241:340|283:328,3,75.0000028610231,2|8|2|8,0:0|0:0|0:0|0:0,0:0:0:0:
7,192,202951,5,2,0:0:0:0:
57,161,203016,1,8,0:0:0:0:
114,181,203082,1,2,0:0:0:0:
134,236,203147,1,8,0:0:0:0:
113,293,203212,1,2,0:0:0:0:
127,351,203277,1,8,0:0:0:0:
177,384,203342,1,2,0:0:0:0:
235,367,203408,1,8,0:0:0:0:
259,312,203473,1,2,0:0:0:0:
241,262,203538,1,8,0:0:0:0:
199,244,203603,1,2,0:0:0:0:
163,257,203669,1,8,0:0:0:0:
152,284,203734,5,2,0:0:0:0:
191,318,203799,1,8,0:0:0:0:
243,312,203864,1,2,0:0:0:0:
266,265,203929,1,8,0:0:0:0:
250,214,203995,1,2,0:0:0:0:
202,193,204060,1,8,0:0:0:0:
171,150,204125,1,2,0:0:0:0:
175,97,204190,1,8,0:0:0:0:
208,56,204255,1,2,0:0:0:0:
260,46,204321,1,8,0:0:0:0:
308,65,204386,1,2,0:0:0:0:
328,113,204451,1,8,0:0:0:0:
362,151,204516,1,2,0:0:0:0:
414,160,204582,1,8,0:0:0:0:
461,138,204647,1,2,0:0:0:0:
482,90,204712,1,8,0:0:0:0:
474,38,204777,1,2,0:0:0:0:
436,1,204842,1,8,0:0:0:0:
382,1,204908,1,2,0:0:0:0:
343,24,204973,1,8,0:0:0:0:
334,60,205038,1,2,0:0:0:0:
342,88,205103,1,8,0:0:0:0:
358,103,205169,1,2,0:0:0:0:
372,106,205234,1,8,0:0:0:0:
378,102,205299,5,2,0:0:0:0:
361,86,205364,1,8,0:0:0:0:
344,71,205429,1,2,0:0:0:0:
324,59,205495,1,8,0:0:0:0:
303,49,205560,1,2,0:0:0:0:
282,41,205625,1,8,0:0:0:0:
260,34,205690,1,2,0:0:0:0:
237,30,205755,1,8,0:0:0:0:
214,29,205821,1,2,0:0:0:0:
191,29,205886,1,8,0:0:0:0:
168,32,205951,1,2,0:0:0:0:
146,39,206016,1,8,0:0:0:0:
126,50,206082,6,0,L|146:133,3,75.0000028610231,2|8|2|8,0:0|0:0|0:0|0:0,0:0:0:0:
217,212,206342,2,0,L|237:129,3,75.0000028610231,2|8|2|8,0:0|0:0|0:0|0:0,0:0:0:0:
69,186,206603,1,2,0:0:0:0:
61,187,206669,1,8,0:0:0:0:
60,196,206734,2,0,L|80:279,1,75.0000028610231,2|8,0:0|0:0,0:0:0:0:
211,360,206864,5,0,0:0:0:0:
227,357,206929,1,8,0:0:0:0:
241,361,206995,1,0,0:0:0:0:
255,366,207060,1,8,0:0:0:0:
268,373,207125,5,2,0:0:0:0:
314,337,207190,1,8,0:0:0:0:
312,281,207256,1,2,0:0:0:0:
270,244,207321,1,8,0:0:0:0:
215,249,207386,1,2,0:0:0:0:
167,219,207451,1,8,0:0:0:0:
157,163,207516,1,2,0:0:0:0:
187,114,207582,1,8,0:0:0:0:
240,98,207647,1,2,0:0:0:0:
288,125,207712,1,8,0:0:0:0:
313,175,207777,1,2,0:0:0:0:
362,201,207842,1,8,0:0:0:0:
417,186,207908,1,2,0:0:0:0:
443,140,207973,1,8,0:0:0:0:
432,96,208038,1,2,0:0:0:0:
400,75,208103,1,8,0:0:0:0:
369,78,208169,2,0,P|362:117|351:176,3,75.0000028610231,2|8|2|8,0:0|0:0|0:0|0:0,0:0:0:0:
191,92,208429,5,2,0:0:0:0:
173,80,208494,1,8,0:0:0:0:
168,57,208559,1,2,0:0:0:0:
177,36,208624,1,8,0:0:0:0:
194,21,208689,1,2,0:0:0:0:
218,20,208755,1,8,0:0:0:0:
238,31,208820,1,2,0:0:0:0:
245,53,208885,1,8,0:0:0:0:
241,75,208951,2,0,P|200:63|164:52,3,75.0000028610231,2|8|2|8,0:0|0:0|0:0|0:0,0:0:0:0:
44,161,209212,5,2,0:0:0:0:
78,151,209277,1,8,0:0:0:0:
109,173,209342,1,2,0:0:0:0:
117,209,209408,1,8,0:0:0:0:
95,240,209473,5,2,0:0:0:0:
78,186,209538,1,8,0:0:0:0:
116,145,209603,1,2,0:0:0:0:
172,149,209669,1,8,0:0:0:0:
201,196,209734,1,2,0:0:0:0:
244,206,209799,1,8,0:0:0:0:
276,187,209864,1,2,0:0:0:0:
284,158,209929,1,8,0:0:0:0:
277,144,209995,5,2,0:0:0:0:
226,181,210060,1,8,0:0:0:0:
235,243,210125,1,2,0:0:0:0:
286,279,210190,1,8,0:0:0:0:
348,267,210255,1,2,0:0:0:0:
374,208,210321,1,8,0:0:0:0:
433,186,210386,1,2,0:0:0:0:
492,207,210451,1,8,0:0:0:0:
510,267,210516,1,2,0:0:0:0:
486,327,210582,1,8,0:0:0:0:
423,338,210647,1,2,0:0:0:0:
372,299,210712,1,8,0:0:0:0:
371,235,210777,1,2,0:0:0:0:
418,192,210842,1,8,0:0:0:0:
435,129,210908,1,2,0:0:0:0:
411,70,210973,1,8,0:0:0:0:
348,57,211038,1,2,0:0:0:0:
295,92,211103,1,8,0:0:0:0:
252,140,211169,1,2,0:0:0:0:
188,140,211234,1,8,0:0:0:0:
139,98,211299,2,0,P|156:61|181:10,3,75.0000028610231,2|8|2|8,0:0|0:0|0:0|0:0,0:0:0:0:
6,211,211560,5,8,0:0:0:0:
64,200,211625,1,8,0:0:0:0:
123,189,211690,1,8,0:0:0:0:
181,178,211755,1,8,0:0:0:0:
240,167,211821,1,8,0:0:0:0:
298,157,211886,1,8,0:0:0:0:
357,146,211951,1,8,0:0:0:0:
416,137,212016,1,8,0:0:0:0:
473,126,212081,2,0,L|487:50,3,75.0000028610231,8|0|0|0,0:0|0:0|0:0|0:0,0:0:0:0:
317,0,212342,5,8,0:0:0:0:
323,36,212408,1,8,0:0:0:0:
329,71,212473,1,8,0:0:0:0:
336,105,212538,1,8,0:0:0:0:
342,140,212603,1,8,0:0:0:0:
348,176,212668,1,8,0:0:0:0:
353,211,212734,1,8,0:0:0:0:
358,247,212799,1,8,0:0:0:0:
364,284,212864,5,12,0:0:0:0:
486,52,212995,1,8,0:0:0:0:
272,239,213125,6,0,P|365:226|410:383,1,225.000008583069
345,362,213386,1,2,0:0:0:0:
281,365,213451,1,8,0:0:0:0:
241,314,213516,1,2,0:0:0:0:
248,249,213582,1,8,0:0:0:0:
299,211,213647,1,2,0:0:0:0:
329,155,213712,1,8,0:0:0:0:
319,92,213777,1,2,0:0:0:0:
264,58,213842,1,8,0:0:0:0:
200,71,213908,1,2,0:0:0:0:
175,129,213973,1,8,0:0:0:0:
125,168,214038,1,2,0:0:0:0:
61,164,214103,1,8,0:0:0:0:
21,113,214169,1,2,0:0:0:0:
27,53,214234,1,8,0:0:0:0:
68,20,214299,1,2,0:0:0:0:
112,24,214364,1,8,0:0:0:0:
131,51,214429,2,0,P|121:83|106:145,3,75.0000028610231,2|8|2|8,0:0|0:0|0:0|0:0,0:0:0:0:
30,262,214690,5,2,0:0:0:0:
41,279,214755,1,8,0:0:0:0:
64,285,214820,1,2,0:0:0:0:
84,276,214885,1,8,0:0:0:0:
100,259,214950,1,2,0:0:0:0:
101,236,215016,1,8,0:0:0:0:
89,215,215081,1,2,0:0:0:0:
69,208,215146,1,8,0:0:0:0:
46,213,215212,2,0,P|55:261|60:295,3,75.0000028610231,2|8|2|8,0:0|0:0|0:0|0:0,0:0:0:0:
190,359,215473,5,2,0:0:0:0:
244,384,215538,1,8,0:0:0:0:
298,359,215603,1,2,0:0:0:0:
315,300,215669,1,8,0:0:0:0:
285,248,215734,1,2,0:0:0:0:
226,235,215799,1,8,0:0:0:0:
195,183,215864,1,2,0:0:0:0:
207,124,215929,1,8,0:0:0:0:
254,86,215995,1,2,0:0:0:0:
306,86,216060,1,8,0:0:0:0:
339,115,216125,1,2,0:0:0:0:
342,152,216190,1,8,0:0:0:0:
326,177,216255,5,2,0:0:0:0:
273,167,216321,1,8,0:0:0:0:
243,123,216386,1,2,0:0:0:0:
253,71,216451,1,8,0:0:0:0:
294,38,216516,1,2,0:0:0:0:
347,38,216582,1,8,0:0:0:0:
388,69,216647,1,2,0:0:0:0:
400,119,216712,1,8,0:0:0:0:
382,168,216777,1,2,0:0:0:0:
340,199,216842,1,8,0:0:0:0:
333,251,216908,1,2,0:0:0:0:
359,296,216973,1,8,0:0:0:0:
407,316,217038,1,2,0:0:0:0:
454,294,217103,1,8,0:0:0:0:
471,243,217169,1,2,0:0:0:0:
452,194,217234,1,8,0:0:0:0:
406,167,217299,1,2,0:0:0:0:
354,175,217364,1,8,0:0:0:0:
320,214,217429,1,2,0:0:0:0:
274,220,217495,1,8,0:0:0:0:
239,205,217560,1,2,0:0:0:0:
226,177,217625,1,8,0:0:0:0:
227,154,217690,1,2,0:0:0:0:
236,142,217755,1,8,0:0:0:0:
254,135,217821,5,2,0:0:0:0:
268,152,217886,1,8,0:0:0:0:
279,171,217951,1,2,0:0:0:0:
287,191,218016,1,8,0:0:0:0:
294,212,218082,1,2,0:0:0:0:
298,233,218147,1,8,0:0:0:0:
300,255,218212,1,2,0:0:0:0:
298,277,218277,1,8,0:0:0:0:
293,298,218342,1,2,0:0:0:0:
286,319,218408,1,8,0:0:0:0:
275,338,218473,2,0,L|157:359,1,75.0000028610231,2|8,0:0|0:0,0:0:0:0:
338,265,218603,6,0,L|411:278,3,75.0000028610231,2|8|2|8,0:0|0:0|0:0|0:0,0:0:0:0:
278,193,218864,2,0,L|204:179,3,75.0000028610231,2|8|2|8,0:0|0:0|0:0|0:0,0:0:0:0:
82,277,219125,1,2,0:0:0:0:
81,285,219190,1,8,0:0:0:0:
89,288,219255,2,0,L|167:263,1,75.0000028610231,2|8,0:0|0:0,0:0:0:0:
155,21,219386,5,2,0:0:0:0:
92,33,219451,1,8,0:0:0:0:
61,88,219516,1,2,0:0:0:0:
82,148,219582,1,8,0:0:0:0:
139,175,219647,1,2,0:0:0:0:
198,153,219712,1,8,0:0:0:0:
234,100,219777,1,2,0:0:0:0:
293,78,219842,1,8,0:0:0:0:
354,95,219908,1,2,0:0:0:0:
377,154,219973,1,8,0:0:0:0:
359,215,220038,1,2,0:0:0:0:
302,244,220103,1,8,0:0:0:0:
282,305,220169,1,2,0:0:0:0:
308,362,220234,1,8,0:0:0:0:
367,383,220299,1,2,0:0:0:0:
425,358,220364,1,8,0:0:0:0:
441,295,220429,1,2,0:0:0:0:
416,247,220495,1,8,0:0:0:0:
371,240,220560,1,2,0:0:0:0:
339,260,220625,1,8,0:0:0:0:
330,288,220690,2,0,P|346:326|359:368,3,75.0000028610231,2|8|2|8,0:0|0:0|0:0|0:0,0:0:0:0:
150,373,220951,5,2,0:0:0:0:
107,317,221016,1,8,0:0:0:0:
119,250,221082,1,2,0:0:0:0:
173,211,221147,1,8,0:0:0:0:
239,218,221212,1,2,0:0:0:0:
301,193,221277,1,8,0:0:0:0:
330,132,221342,1,2,0:0:0:0:
313,66,221408,1,8,0:0:0:0:
257,28,221473,1,2,0:0:0:0:
198,41,221538,1,8,0:0:0:0:
177,89,221603,1,2,0:0:0:0:
191,132,221669,1,8,0:0:0:0:
224,150,221734,5,2,0:0:0:0:
255,99,221799,1,8,0:0:0:0:
230,44,221864,1,2,0:0:0:0:
171,32,221929,1,8,0:0:0:0:
121,67,221995,1,2,0:0:0:0:
114,126,222060,1,8,0:0:0:0:
142,178,222125,1,2,0:0:0:0:
198,196,222190,1,8,0:0:0:0:
228,247,222255,1,2,0:0:0:0:
219,299,222321,1,8,0:0:0:0:
183,326,222386,1,2,0:0:0:0:
145,322,222451,1,8,0:0:0:0:
130,296,222516,5,8,0:0:0:0:
150,264,222582,1,8,0:0:0:0:
184,250,222647,1,8,0:0:0:0:
221,252,222712,1,8,0:0:0:0:
246,279,222777,1,8,0:0:0:0:
266,326,222842,1,8,0:0:0:0:
324,342,222908,1,8,0:0:0:0:
386,316,222973,1,8,0:0:0:0:
386,241,223038,2,0,L|299:264,1,75.0000028610231,8|0,0:0|0:0,0:0:0:0:
202,353,223169,1,8,0:0:0:0:
202,353,223234,1,8,0:0:0:0:
202,353,223299,6,0,L|120:338,3,75.0000028610231,8|8|8|8,0:0|0:0|0:0|0:0,0:0:0:0:
38,138,223560,5,8,0:0:0:0:
44,167,223625,1,8,0:0:0:0:
51,196,223690,1,8,0:0:0:0:
58,225,223755,1,8,0:0:0:0:
65,254,223821,2,0,L|162:232,3,75.0000028610231,8|8|8|8,0:0|0:0|0:0|0:0,0:0:0:0:
200,112,224082,5,8,0:0:0:0:
202,97,224147,1,8,0:0:0:0:
204,82,224212,1,8,0:0:0:0:
206,67,224277,1,8,0:0:0:0:
209,52,224342,2,0,L|118:37,3,75.0000028610231,8|8|8|8,0:0|0:0|0:0|0:0,0:0:0:0:
278,209,224603,5,8,0:0:0:0:
264,205,224669,1,0,0:0:0:0:
250,201,224734,2,0,L|228:282,1,75.0000028610231
115,163,224864,5,8,0:0:0:0:
101,167,224930,1,0,0:0:0:0:
87,171,224995,2,0,L|65:90,1,75.0000028610231
218,23,225125,5,8,0:0:0:0:
254,29,225191,1,8,0:0:0:0:
289,35,225256,1,8,0:0:0:0:
323,42,225321,1,8,0:0:0:0:
358,48,225386,1,8,0:0:0:0:
394,54,225451,1,8,0:0:0:0:
429,59,225517,1,8,0:0:0:0:
465,64,225582,1,8,0:0:0:0:
501,70,225647,6,0,L|430:303,1,225.000008583069,4|0,0:0|0:0,0:0:0:0:
357,352,225908,5,2,0:0:0:0:
321,299,225973,1,8,0:0:0:0:
260,280,226038,1,2,0:0:0:0:
198,294,226103,1,8,0:0:0:0:
157,344,226169,1,2,0:0:0:0:
95,358,226234,1,8,0:0:0:0:
38,329,226299,1,2,0:0:0:0:
17,268,226364,1,8,0:0:0:0:
40,209,226429,1,2,0:0:0:0:
99,184,226495,1,8,0:0:0:0:
162,190,226560,1,2,0:0:0:0:
216,158,226625,1,8,0:0:0:0:
220,102,226690,1,2,0:0:0:0:
192,65,226756,1,8,0:0:0:0:
154,65,226821,1,2,0:0:0:0:
130,82,226886,1,8,0:0:0:0:
130,104,226951,2,0,P|170:110|216:114,3,75.0000028610231,2|8|2|8,0:0|0:0|0:0|0:0,0:0:0:0:
171,203,227212,5,2,0:0:0:0:
200,226,227277,1,8,0:0:0:0:
237,232,227343,1,2,0:0:0:0:
274,229,227408,1,8,0:0:0:0:
308,216,227473,1,2,0:0:0:0:
337,193,227538,1,8,0:0:0:0:
354,160,227603,1,2,0:0:0:0:
355,123,227669,1,8,0:0:0:0:
346,87,227734,2,0,P|306:81|260:77,3,75.0000028610231,2|8|2|8,0:0|0:0|0:0|0:0,0:0:0:0:
166,182,227995,5,2,0:0:0:0:
170,119,228060,1,8,0:0:0:0:
126,73,228125,1,2,0:0:0:0:
62,78,228190,1,8,0:0:0:0:
22,129,228256,1,2,0:0:0:0:
34,192,228321,1,8,0:0:0:0:
90,221,228386,1,2,0:0:0:0:
153,215,228451,1,8,0:0:0:0:
205,251,228516,1,2,0:0:0:0:
210,316,228582,1,8,0:0:0:0:
166,363,228647,1,2,0:0:0:0:
102,366,228712,1,8,0:0:0:0:
55,324,228777,5,2,0:0:0:0:
94,284,228843,1,8,0:0:0:0:
149,288,228908,1,2,0:0:0:0:
185,331,228973,1,8,0:0:0:0:
237,351,229038,1,2,0:0:0:0:
292,346,229103,1,8,0:0:0:0:
327,302,229169,1,2,0:0:0:0:
320,247,229234,1,8,0:0:0:0:
283,205,229299,1,2,0:0:0:0:
227,199,229364,1,8,0:0:0:0:
184,163,229429,1,2,0:0:0:0:
183,107,229495,1,8,0:0:0:0:
219,65,229560,1,2,0:0:0:0:
274,56,229625,1,8,0:0:0:0:
318,90,229690,1,2,0:0:0:0:
327,147,229755,1,8,0:0:0:0:
311,201,229821,1,2,0:0:0:0:
334,253,229886,1,8,0:0:0:0:
388,264,229951,1,2,0:0:0:0:
437,236,230016,1,8,0:0:0:0:
451,185,230082,1,2,0:0:0:0:
438,139,230147,1,8,0:0:0:0:
398,118,230212,1,2,0:0:0:0:
357,122,230277,1,8,0:0:0:0:
327,147,230343,1,2,0:0:0:0:
318,180,230408,1,8,0:0:0:0:
327,209,230473,1,2,0:0:0:0:
347,226,230538,1,8,0:0:0:0:
368,231,230603,1,2,0:0:0:0:
386,229,230669,1,8,0:0:0:0:
399,222,230734,1,2,0:0:0:0:
404,213,230799,1,8,0:0:0:0:
405,202,230864,1,2,0:0:0:0:
401,192,230929,1,8,0:0:0:0:
390,188,230995,1,2,0:0:0:0:
378,190,231060,1,8,0:0:0:0:
369,198,231125,2,0,P|409:204|454:209,3,75.0000028610231,2|8|2|8,0:0|0:0|0:0|0:0,0:0:0:0:
512,290,231386,2,0,P|472:296|426:301,3,75.0000028610231,2|8|2|8,0:0|0:0|0:0|0:0,0:0:0:0:
301,377,231647,5,2,0:0:0:0:
308,380,231712,1,8,0:0:0:0:
310,372,231777,2,0,P|304:332|300:287,1,75.0000028610231,2|8,0:0|0:0,0:0:0:0:
175,301,231908,5,2,0:0:0:0:
115,321,231973,1,8,0:0:0:0:
54,302,232038,1,2,0:0:0:0:
37,241,232103,1,8,0:0:0:0:
66,184,232169,1,2,0:0:0:0:
128,172,232234,1,8,0:0:0:0:
187,194,232299,1,2,0:0:0:0:
245,169,232364,1,8,0:0:0:0:
263,109,232429,1,2,0:0:0:0:
233,52,232495,1,8,0:0:0:0:
172,34,232560,1,2,0:0:0:0:
113,59,232625,1,8,0:0:0:0:
86,117,232690,1,2,0:0:0:0:
106,179,232756,1,8,0:0:0:0:
163,207,232821,1,2,0:0:0:0:
225,197,232886,1,8,0:0:0:0:
268,151,232951,1,2,0:0:0:0:
322,138,233016,1,8,0:0:0:0:
365,152,233082,1,2,0:0:0:0:
381,185,233147,1,8,0:0:0:0:
376,214,233212,2,0,P|336:208|290:203,3,75.0000028610231,2|8|2|8,0:0|0:0|0:0|0:0,0:0:0:0:
455,266,233473,5,2,0:0:0:0:
495,285,233538,1,8,0:0:0:0:
508,328,233603,1,2,0:0:0:0:
487,369,233669,1,8,0:0:0:0:
444,384,233734,1,2,0:0:0:0:
401,370,233799,1,8,0:0:0:0:
382,330,233864,1,2,0:0:0:0:
382,286,233929,1,8,0:0:0:0:
352,252,233995,1,2,0:0:0:0:
308,244,234060,1,8,0:0:0:0:
267,263,234125,1,2,0:0:0:0:
249,305,234190,1,8,0:0:0:0:
262,349,234256,2,0,P|294:325|329:297,3,75.0000028610231,2|8|2|8,0:0|0:0|0:0|0:0,0:0:0:0:
171,281,234516,5,2,0:0:0:0:
165,285,234582,1,8,0:0:0:0:
159,288,234647,1,2,0:0:0:0:
152,290,234712,1,8,0:0:0:0:
145,292,234777,1,2,0:0:0:0:
138,293,234843,1,8,0:0:0:0:
131,294,234908,1,2,0:0:0:0:
124,294,234973,1,8,0:0:0:0:
117,293,235038,5,2,0:0:0:0:
80,240,235103,1,8,0:0:0:0:
90,176,235169,1,2,0:0:0:0:
145,145,235234,1,8,0:0:0:0:
208,151,235299,1,2,0:0:0:0:
237,207,235364,1,8,0:0:0:0:
299,218,235429,1,2,0:0:0:0:
352,181,235495,1,8,0:0:0:0:
357,117,235560,1,2,0:0:0:0:
403,73,235625,1,8,0:0:0:0:
466,78,235690,1,2,0:0:0:0:
502,130,235756,1,8,0:0:0:0:
484,191,235821,1,2,0:0:0:0:
424,214,235886,1,8,0:0:0:0:
363,193,235951,1,2,0:0:0:0:
349,130,236016,1,8,0:0:0:0:
294,95,236082,1,2,0:0:0:0:
230,100,236147,1,8,0:0:0:0:
191,150,236212,1,2,0:0:0:0:
202,212,236277,1,8,0:0:0:0:
252,251,236342,2,0,P|257:211|262:166,3,75.0000028610231,2|8|2|8,0:0|0:0|0:0|0:0,0:0:0:0:
32,384,236603,5,8,0:0:0:0:
90,373,236668,1,8,0:0:0:0:
149,362,236733,1,8,0:0:0:0:
207,351,236798,1,8,0:0:0:0:
266,340,236864,1,8,0:0:0:0:
324,330,236929,1,8,0:0:0:0:
383,319,236994,1,8,0:0:0:0:
442,310,237059,1,8,0:0:0:0:
499,299,237124,2,0,L|513:223,3,75.0000028610231,2|0|0|0,0:0|0:0|0:0|0:0,0:0:0:0:
403,120,237386,5,8,0:0:0:0:
398,132,237451,1,8,0:0:0:0:
393,144,237516,1,8,0:0:0:0:
388,156,237581,1,8,0:0:0:0:
383,169,237647,2,0,P|391:213|398:256,3,75.0000028610231,8|8|8|8,0:0|0:0|0:0|0:0,0:0:0:0:
221,210,237908,5,8,0:0:0:0:
473,95,238038,1,8,0:0:0:0:
300,0,238169,6,0,P|265:92|207:251,1,225.000008583069,8|0,0:0|0:0,0:0:0:0:
221,343,238429,5,2,0:0:0:0:
168,364,238495,1,8,0:0:0:0:
112,353,238560,1,2,0:0:0:0:
83,304,238625,1,8,0:0:0:0:
93,248,238690,1,2,0:0:0:0:
140,217,238756,1,8,0:0:0:0:
154,162,238821,1,2,0:0:0:0:
132,110,238886,1,8,0:0:0:0:
76,100,238951,1,2,0:0:0:0:
35,139,239016,1,8,0:0:0:0:
36,195,239082,1,2,0:0:0:0:
78,231,239147,1,8,0:0:0:0:
133,224,239212,1,2,0:0:0:0:
160,183,239277,1,8,0:0:0:0:
200,162,239343,1,2,0:0:0:0:
236,167,239408,1,8,0:0:0:0:
251,192,239473,2,0,P|227:224|199:259,3,75.0000028610231,2|8|2|8,0:0|0:0|0:0|0:0,0:0:0:0:
326,347,239734,5,2,0:0:0:0:
355,370,239799,1,8,0:0:0:0:
392,376,239865,1,2,0:0:0:0:
429,373,239930,1,8,0:0:0:0:
463,360,239995,1,2,0:0:0:0:
492,337,240060,1,8,0:0:0:0:
509,304,240125,1,2,0:0:0:0:
510,267,240191,1,8,0:0:0:0:
501,231,240256,2,0,P|461:225|416:221,3,75.0000028610231,2|8|2|8,0:0|0:0|0:0|0:0,0:0:0:0:
314,72,240516,5,2,0:0:0:0:
255,98,240582,1,8,0:0:0:0:
241,160,240647,1,2,0:0:0:0:
272,215,240712,1,8,0:0:0:0:
320,255,240777,1,2,0:0:0:0:
325,319,240842,1,8,0:0:0:0:
291,372,240908,1,2,0:0:0:0:
228,384,240973,1,8,0:0:0:0:
170,355,241038,1,2,0:0:0:0:
147,295,241103,1,8,0:0:0:0:
158,231,241169,1,2,0:0:0:0:
214,201,241234,1,8,0:0:0:0:
277,206,241299,5,2,0:0:0:0:
267,261,241364,1,8,0:0:0:0:
221,293,241429,1,2,0:0:0:0:
164,288,241495,1,8,0:0:0:0:
129,243,241560,1,2,0:0:0:0:
136,187,241625,1,8,0:0:0:0:
175,146,241690,1,2,0:0:0:0:
175,89,241755,1,8,0:0:0:0:
133,51,241821,1,2,0:0:0:0:
77,60,241886,1,8,0:0:0:0:
55,111,241951,1,2,0:0:0:0:
73,163,242016,1,8,0:0:0:0:
125,184,242082,1,2,0:0:0:0:
174,158,242147,1,8,0:0:0:0:
196,106,242212,1,2,0:0:0:0:
248,87,242277,1,8,0:0:0:0:
303,101,242343,1,2,0:0:0:0:
328,150,242408,1,8,0:0:0:0:
308,202,242473,1,2,0:0:0:0:
260,230,242538,1,8,0:0:0:0:
208,221,242603,1,2,0:0:0:0:
178,181,242669,1,8,0:0:0:0:
184,137,242734,1,2,0:0:0:0:
208,107,242799,1,8,0:0:0:0:
245,100,242864,1,2,0:0:0:0:
275,113,242929,1,8,0:0:0:0:
292,138,242995,1,2,0:0:0:0:
291,163,243060,1,8,0:0:0:0:
279,183,243125,1,2,0:0:0:0:
263,192,243190,1,8,0:0:0:0:
247,191,243256,1,2,0:0:0:0:
237,184,243321,1,8,0:0:0:0:
234,171,243386,1,2,0:0:0:0:
239,161,243451,1,8,0:0:0:0:
247,154,243516,1,2,0:0:0:0:
257,151,243582,1,8,0:0:0:0:
267,152,243647,2,0,P|283:189|299:232,3,75.0000028610231,2|8|2|8,0:0|0:0|0:0|0:0,0:0:0:0:
370,310,243908,2,0,P|375:269|383:224,3,75.0000028610231,2|8|2|8,0:0|0:0|0:0|0:0,0:0:0:0:
197,343,244169,5,2,0:0:0:0:
191,340,244234,1,8,0:0:0:0:
194,333,244299,2,0,P|232:330|269:324,1,75.0000028610231,2|8,0:0|0:0,0:0:0:0:
181,137,244429,5,2,0:0:0:0:
128,101,244495,1,8,0:0:0:0:
65,115,244560,1,2,0:0:0:0:
41,174,244625,1,8,0:0:0:0:
67,232,244690,1,2,0:0:0:0:
130,244,244756,1,8,0:0:0:0:
162,299,244821,1,2,0:0:0:0:
141,359,244886,1,8,0:0:0:0:
80,376,244951,1,2,0:0:0:0:
25,342,245016,1,8,0:0:0:0:
23,277,245082,1,2,0:0:0:0:
67,232,245147,1,8,0:0:0:0:
130,244,245212,1,2,0:0:0:0:
169,293,245277,1,8,0:0:0:0:
232,301,245342,1,2,0:0:0:0:
280,260,245408,1,8,0:0:0:0:
286,196,245473,1,2,0:0:0:0:
254,140,245538,1,8,0:0:0:0:
264,77,245603,1,2,0:0:0:0:
325,56,245669,1,8,0:0:0:0:
382,83,245734,2,0,P|388:123|393:169,3,75.0000028610231,2|8|2|8,0:0|0:0|0:0|0:0,0:0:0:0:
437,304,245995,5,2,0:0:0:0:
397,358,246060,1,8,0:0:0:0:
329,359,246125,1,2,0:0:0:0:
288,305,246190,1,8,0:0:0:0:
306,239,246256,1,2,0:0:0:0:
292,173,246321,1,8,0:0:0:0:
231,144,246386,1,2,0:0:0:0:
166,163,246451,1,8,0:0:0:0:
102,142,246516,1,2,0:0:0:0:
83,76,246582,1,8,0:0:0:0:
113,15,246647,1,2,0:0:0:0:
179,4,246712,1,8,0:0:0:0:
240,31,246777,5,2,0:0:0:0:
236,37,246843,1,8,0:0:0:0:
232,43,246908,1,2,0:0:0:0:
228,49,246973,1,8,0:0:0:0:
224,55,247038,1,2,0:0:0:0:
220,61,247103,1,8,0:0:0:0:
216,67,247169,1,2,0:0:0:0:
212,73,247234,1,8,0:0:0:0:
208,79,247299,1,2,0:0:0:0:
204,85,247364,1,8,0:0:0:0:
200,91,247429,1,2,0:0:0:0:
196,97,247495,1,8,0:0:0:0:
192,103,247560,5,2,0:0:0:0:
254,90,247625,1,8,0:0:0:0:
310,118,247690,1,2,0:0:0:0:
321,181,247756,1,8,0:0:0:0:
281,230,247821,1,2,0:0:0:0:
262,290,247886,1,8,0:0:0:0:
289,347,247951,1,2,0:0:0:0:
350,363,248016,1,8,0:0:0:0:
410,340,248082,5,8,0:0:0:0:
386,285,248147,1,8,0:0:0:0:
332,258,248212,1,8,0:0:0:0:
272,253,248277,1,8,0:0:0:0:
217,277,248342,1,8,0:0:0:0:
182,326,248408,1,8,0:0:0:0:
126,349,248473,1,8,0:0:0:0:
66,344,248538,1,8,0:0:0:0:
21,304,248603,1,8,0:0:0:0:
3,245,248669,1,8,0:0:0:0:
25,189,248734,1,8,0:0:0:0:
77,160,248799,1,8,0:0:0:0:
136,166,248864,1,8,0:0:0:0:
193,149,248929,1,8,0:0:0:0:
216,93,248995,1,8,0:0:0:0:
200,35,249060,1,8,0:0:0:0:
147,5,249125,2,0,P|141:45|136:91,3,75.0000028610231,8|0|0|0,0:0|0:0|0:0|0:0,0:0:0:0:
266,154,249386,5,8,0:0:0:0:
281,156,249451,1,8,0:0:0:0:
296,158,249516,1,8,0:0:0:0:
311,160,249581,1,8,0:0:0:0:
326,163,249647,2,0,L|341:72,3,75.0000028610231,8|8|8|8,0:0|0:0|0:0|0:0,0:0:0:0:
429,241,249908,5,8,0:0:0:0:
343,349,250038,1,8,0:0:0:0:
285,365,250103,1,8,0:0:0:0:
233,351,250169,1,8,0:0:0:0:
210,312,250234,1,8,0:0:0:0:
182,286,250299,1,8,0:0:0:0:
152,278,250364,1,8,0:0:0:0:
132,284,250429,2,0,L|147:375,3,67.5000002574921,8|8|8|8,0:0|0:0|0:0|0:0,0:0:0:0:
30,328,250690,6,0,L|268:281,1,202.500000772476
296,349,250951,6,0,B|334:282|334:282|283:216,1,150.000005722046,2|8,0:0|0:0,0:0:0:0:
191,175,251212,1,2,0:0:0:0:
192,187,251342,1,8,0:0:0:0:
280,74,251473,5,2,0:0:0:0:
103,122,251603,1,8,0:0:0:0:
218,21,251734,2,0,P|328:56|405:75,1,150.000005722046,2|8,0:0|0:0,0:0:0:0:
441,157,251995,1,2,0:0:0:0:
438,145,252125,1,8,0:0:0:0:
468,35,252255,5,2,0:0:0:0:
343,172,252386,1,8,0:0:0:0:
489,276,252516,2,0,B|474:192|474:192|479:184|479:184|465:101,1,150.000005722046,2|8,0:0|0:0,0:0:0:0:
370,268,252777,1,2,0:0:0:0:
385,271,252908,1,8,0:0:0:0:
482,365,253038,5,2,0:0:0:0:
343,172,253169,1,8,0:0:0:0:
217,316,253299,5,2,0:0:0:0:
306,338,253429,1,8,0:0:0:0:
469,129,253560,5,2,0:0:0:0:
238,233,253690,1,8,0:0:0:0:
264,6,253821,6,0,P|381:22|361:145,1,225.000008583069,2|0,0:0|0:0,0:0:0:0:
469,33,254082,6,0,P|334:67|263:84,1,150.000005722046,2|8,0:0|0:0,0:0:0:0:
256,145,254342,1,2,0:0:0:0:
244,140,254473,1,8,0:0:0:0:
101,0,254603,5,2,0:0:0:0:
323,69,254734,1,8,0:0:0:0:
156,196,254864,2,0,B|126:122|126:122|184:39,1,150.000005722046,2|8,0:0|0:0,0:0:0:0:
238,233,255125,1,2,0:0:0:0:
235,247,255255,1,8,0:0:0:0:
140,364,255386,5,2,0:0:0:0:
244,140,255516,1,8,0:0:0:0:
48,218,255647,2,0,B|50:256|50:256|179:282,1,150.000005722046,2|8,0:0|0:0,0:0:0:0:
218,384,255908,1,2,0:0:0:0:
233,376,256038,1,8,0:0:0:0:
371,219,256169,5,2,0:0:0:0:
140,364,256299,1,8,0:0:0:0:
307,340,256429,5,2,0:0:0:0:
159,278,256560,1,8,0:0:0:0:
297,92,256690,5,2,0:0:0:0:
309,96,256755,1,0,2:0:0:0:
311,112,256821,1,8,0:0:0:0:
447,297,256951,6,0,P|401:213|274:204,1,225.000008583069,2|0,0:0|0:0,0:0:0:0:
348,270,257212,6,0,P|377:181|408:111,1,150.000005722046,2|8,0:0|0:0,0:0:0:0:
485,66,257473,1,2,0:0:0:0:
482,52,257603,1,8,0:0:0:0:
299,106,257734,5,2,0:0:0:0:
512,163,257864,1,8,0:0:0:0:
343,21,257995,2,0,B|277:-5|277:-5|202:55,1,150.000005722046,2|8,0:0|0:0,0:0:0:0:
44,143,258255,1,2,0:0:0:0:
34,140,258386,1,8,0:0:0:0:
206,154,258516,5,2,0:0:0:0:
72,9,258647,1,8,0:0:0:0:
98,224,258777,2,0,P|122:154|155:67,1,150.000005722046,2|8,0:0|0:0,0:0:0:0:
0,42,259038,1,2,0:0:0:0:
5,54,259169,1,8,0:0:0:0:
206,154,259299,5,2,0:0:0:0:
0,283,259429,1,8,0:0:0:0:
174,275,259560,5,2,0:0:0:0:
98,224,259690,1,8,0:0:0:0:
71,363,259821,5,2,0:0:0:0:
168,105,259951,1,8,0:0:0:0:
0,283,260082,6,0,P|89:260|162:387,1,225.000008583069,2|0,0:0|0:0,0:0:0:0:
71,363,260342,6,0,P|158:323|250:299,1,150.000005722046,2|8,0:0|0:0,0:0:0:0:
361,304,260603,1,2,0:0:0:0:
375,309,260734,1,8,0:0:0:0:
441,371,260864,5,2,0:0:0:0:
279,257,260995,1,8,0:0:0:0:
450,161,261125,2,0,B|492:196|492:196|452:304,1,150.000005722046,2|8,0:0|0:0,0:0:0:0:
357,161,261386,1,2,0:0:0:0:
354,148,261516,1,8,0:0:0:0:
476,37,261647,5,2,0:0:0:0:
375,236,261777,1,8,0:0:0:0:
265,64,261908,5,0,0:0:0:0:
216,28,261973,1,8,0:0:0:0:
159,48,262038,1,8,0:0:0:0:
145,106,262103,1,8,0:0:0:0:
169,132,262169,5,0,0:0:0:0:
146,187,262234,1,8,0:0:0:0:
86,195,262299,1,8,0:0:0:0:
48,148,262364,1,8,0:0:0:0:
64,129,262429,5,8,0:0:0:0:
78,133,262495,1,8,0:0:0:0:
92,137,262560,1,8,0:0:0:0:
106,141,262625,1,8,0:0:0:0:
120,145,262690,1,8,0:0:0:0:
134,149,262755,1,8,0:0:0:0:
148,153,262821,2,0,P|159:193|176:240,1,75.0000028610231,8|8,0:0|0:0,0:0:0:0:
286,276,262951,5,8,0:0:0:0:
3,363,263082,1,8,0:0:0:0:
99,302,263212,6,0,B|122:295|122:295|243:323|243:323|251:331|251:331|289:328|289:328|420:361,1,300.000011444092,2|2,0:0|0:0,0:0:0:0:
500,181,263603,1,8,0:0:0:0:
286,276,263734,1,2,0:0:0:0:
472,287,263864,1,8,0:0:0:0:
435,29,263995,6,0,P|366:73|396:156,1,150.000005722046,2|8,0:0|0:0,0:0:0:0:
286,276,264255,2,0,P|267:180|197:133,1,150.000005722046,2|8,0:0|0:0,0:0:0:0:
391,232,264516,1,2,0:0:0:0:
147,174,264647,1,8,0:0:0:0:
250,4,264777,5,2,0:0:0:0:
263,0,264842,1,0,2:0:0:0:
264,12,264908,1,8,0:0:0:0:
31,102,265038,1,2,0:0:0:0:
115,1,265169,2,0,B|135:73|135:73|131:76|131:76|156:166,1,150.000005722046,8|2,0:0|0:0,0:0:0:0:
198,345,265429,1,8,0:0:0:0:
32,224,265560,5,2,0:0:0:0:
289,296,265690,1,8,0:0:0:0:
111,296,265821,5,2,0:0:0:0:
228,235,265951,1,8,0:0:0:0:
31,102,266082,5,2,0:0:0:0:
131,383,266212,1,8,0:0:0:0:
359,219,266342,6,0,B|432:219|436:303|436:303|383:332|361:401,1,225.000008583069,2|0,0:0|0:0,0:0:0:0:
376,382,266603,1,2,0:0:0:0:
289,296,266734,1,8,0:0:0:0:
478,157,266864,2,0,P|387:148|302:137,1,150.000005722046,2|8,0:0|0:0,0:0:0:0:
105,92,267125,6,0,B|83:87|72:72|72:72|66:73|66:73|17:-7|154:-48|229:40|197:170,1,300.000011444092,2|2,0:0|0:0,0:0:0:0:
296,0,267516,1,8,0:0:0:0:
416,210,267647,2,0,B|398:140|398:140|401:126|401:126|379:44,1,150.000005722046,2|8,0:0|0:0,0:0:0:0:
71,219,267908,6,0,B|35:244|35:244|7:256|7:256|124:224|124:224|130:226|130:226|284:183,1,300.000011444092,2|2,0:0|0:0,0:0:0:0:
56,328,268299,1,8,0:0:0:0:
226,126,268429,1,2,0:0:0:0:
175,301,268560,1,8,0:0:0:0:
0,169,268690,5,2,0:0:0:0:
278,273,268821,1,8,0:0:0:0:
127,12,268951,5,2,0:0:0:0:
92,40,269016,1,8,0:0:0:0:
97,85,269082,1,2,0:0:0:0:
133,110,269147,1,8,0:0:0:0:
179,90,269212,5,2,0:0:0:0:
238,91,269277,1,8,0:0:0:0:
278,134,269342,1,2,0:0:0:0:
271,194,269408,1,8,0:0:0:0:
221,227,269473,6,0,B|178:209|183:160|183:160|178:149|178:149|255:68|366:132|371:212,1,300.000011444092,2|2,0:0|0:0,0:0:0:0:
210,15,269864,1,8,0:0:0:0:
347,279,269995,1,2,0:0:0:0:
87,175,270125,1,8,0:0:0:0:
472,70,270255,6,0,B|461:143|461:143|456:141|456:141|443:247,1,150.000005722046,2|8,0:0|0:0,0:0:0:0:
236,341,270516,2,0,B|242:298|242:298|375:273,1,150.000005722046,2|8,0:0|0:0,0:0:0:0:
510,337,270777,2,0,B|458:388|458:388|363:354,1,150.000005722046,2|8,0:0|0:0,0:0:0:0:
252,114,271038,5,2,0:0:0:0:
347,279,271169,1,8,0:0:0:0:
472,70,271299,1,2,0:0:0:0:
235,210,271429,2,0,B|146:168|146:168|76:168,1,150.000005722046,8|2,0:0|0:0,0:0:0:0:
349,133,271690,1,8,0:0:0:0:
109,28,271821,5,2,0:0:0:0:
197,307,271951,1,8,0:0:0:0:
252,114,272082,5,2,0:0:0:0:
95,168,272212,1,8,0:0:0:0:
234,5,272342,5,2,0:0:0:0:
88,259,272473,1,8,0:0:0:0:
37,93,272603,6,0,B|83:51|158:80|171:141|171:141|167:147|167:147|206:222|279:192,1,300.000011444092,2|2,0:0|0:0,0:0:0:0:
4,180,272995,1,8,0:0:0:0:
252,114,273125,1,2,0:0:0:0:
88,259,273255,1,8,0:0:0:0:
266,368,273386,5,2,0:0:0:0:
95,168,273516,1,8,0:0:0:0:
122,333,273647,2,0,P|217:302|294:277,1,150.000005722046,2|8,0:0|0:0,0:0:0:0:
511,244,273908,2,0,B|464:252|464:252|440:287|440:287|366:303,1,150.000005722046,2|8,0:0|0:0,0:0:0:0:
252,114,274169,5,2,0:0:0:0:
346,377,274299,1,8,0:0:0:0:
506,135,274429,5,2,0:0:0:0:
454,148,274495,1,8,0:0:0:0:
403,161,274560,1,10,0:0:0:0:
352,175,274625,1,8,0:0:0:0:
343,192,274690,5,8,0:0:0:0:
306,184,274755,1,8,0:0:0:0:
268,176,274821,1,8,0:0:0:0:
231,168,274886,1,8,0:0:0:0:
217,131,274951,5,0,0:0:0:0:
77,178,275082,1,0,0:0:0:0:
262,22,275212,1,0,0:0:0:0:
346,90,275342,1,0,0:0:0:0:
132,69,275473,1,0,0:0:0:0:
125,64,275538,1,0,0:0:0:0:
124,57,275603,1,0,0:0:0:0:
128,49,275669,1,0,0:0:0:0:
136,47,275734,6,0,P|159:133|202:292,1,225.000008583069
173,357,276038,5,8,0:0:0:0:
268,382,276159,1,8,0:0:0:0:
339,291,276291,5,8,0:0:0:0:
427,261,276423,1,8,0:0:0:0:
489,369,276564,6,0,P|509:293|502:218,1,120
480,157,276852,5,8,0:0:0:0:
427,241,276979,1,8,0:0:0:0:
254,250,277124,5,8,0:0:0:0:
303,191,277270,1,8,0:0:0:0:
372,371,277417,6,0,P|319:314|260:340,1,150
186,384,277746,5,8,0:0:0:0:
153,346,277878,1,8,0:0:0:0:
167,237,278056,5,8,0:0:0:0:
175,209,278198,1,8,0:0:0:0:
104,121,278349,6,0,P|150:81|190:48,1,112.500004291535
270,35,278745,6,0,L|304:43,1,25.0000009536744,8|0,0:0|0:0,0:0:0:0:
365,14,278918,1,8,0:0:0:0:
457,136,279084,5,8,0:0:0:0:
463,149,279244,1,0,0:0:0:0:
335,240,279462,6,1,B|378:229|382:187|382:187|380:199|380:199|396:300|297:320|297:320|292:331|292:331|243:288|250:220|250:220|242:210|242:210|246:147|182:82|182:82|187:86|187:86|250:74|228:166|309:169,1,687.5,4|0,0:0|0:0,0:0:0:0:
307,93,280599,6,1,B|257:196|257:196|258:205|258:205|197:327|197:327|199:315|199:315|181:218|181:218|172:221|172:221|149:201|129:180|129:180|77:280,1,550,4|0,0:0|0:0,0:0:0:0:
126,336,281713,22,1,B|95:346|95:346|92:349|92:349|56:360|56:360|61:360|61:360|108:361|149:404|190:344|190:344|198:343|198:343|259:321|259:321|261:326|261:326|309:373|366:331,1,412.500015735627,4|0,0:0|0:0,0:0:0:0:
337,257,282836,6,1,B|312:213|258:207|258:207|346:183|388:258|388:258|389:250|389:250|424:328|516:310|516:310|468:295|452:247|452:247|497:222,1,550,4|0,0:0|0:0,0:0:0:0:
384,111,283961,6,1,B|398:93|354:47|290:55|237:150|340:188|340:188|346:186|346:186|425:214|402:288|402:288|404:288|404:288|379:331|300:343|267:272|267:272|271:267|271:267|239:164|154:201|132:221|105:272|113:321|176:351|205:303,1,862.500032901765,4|0,0:0|0:0,0:0:0:0:
219,240,286211,1,0,0:0:0:0:
136,99,286461,1,0,0:0:0:0:
300,102,286711,5,8,0:0:0:0:
384,111,286836,1,8,0:0:0:0:
422,183,286961,1,8,0:0:0:0:
389,251,287086,1,8,0:0:0:0:
326,283,287211,2,0,P|306:258|284:229,1,50.0000019073487,8|8,0:0|0:0,0:0:0:0:
279,69,287461,5,8,0:0:0:0:
199,58,287586,1,8,0:0:0:0:
136,99,287711,1,8,0:0:0:0:
123,167,287836,1,8,0:0:0:0:
78,214,287961,1,8,0:0:0:0:
18,204,288086,2,0,P|12:155|40:115,1,100.000003814697,8|0,0:0|0:0,0:0:0:0:
139,0,288461,6,0,B|94:-12|68:12|68:12|164:23|230:111|230:111|227:118|227:118|313:22|460:94|465:197|465:197|471:206|471:206|380:173|308:232|308:232|314:224|314:224|320:40|508:7,1,1100,4|0,0:0|0:0,0:0:0:0:
457,328,292961,6,0,B|421:369|381:359|381:359|346:261|299:225|299:225|298:216|298:216|228:159|122:178|122:178|189:246|131:351|131:351|136:362|136:362|131:351|131:351|67:352|-13:288|31:185,1,881.250033617021,4|0,0:0|0:0,0:0:0:0:
61,90,295211,6,8,L|57:66,1,18.7500007152558
1,8,295398,1,8,0:0:0:0:
185,106,295586,6,8,L|189:82,1,18.7500007152558
249,49,295773,1,8,0:0:0:0:
379,97,295961,6,8,L|360:91,1,18.7500007152558
352,64,296148,1,8,0:0:0:0:
498,43,296336,6,8,L|487:63,1,18.7500007152558
491,36,296523,1,8,0:0:0:0:
433,169,296711,5,8,0:0:0:0:
495,214,296898,1,8,0:0:0:0:
501,139,297086,2,0,L|444:288,1,150
305,357,297461,6,0,B|349:372|338:334|396:351|396:351|375:279|272:255|195:326|195:326|194:336|194:336|139:371|46:354|32:308|32:308|21:303|21:303|21:230|105:189|172:221|172:221|171:212|171:212|247:139|211:24|118:1|61:60|61:60|110:80|127:127,1,1150,4|0,0:0|0:0,0:0:0:0:
286,78,301961,6,0,B|349:61|349:61|353:62|353:62|448:41|448:41|458:43|458:43|391:4|391:4|396:10|396:10|420:123|420:123|416:131|416:131|454:288|454:288|390:268|390:268|385:269|385:269|319:254|319:254|312:254|312:254|361:204,1,750.000028610231,4|0,0:0|0:0,0:0:0:0:
57,368,304211,6,0,L|169:352,1,112.500004291535,4|0,0:0|0:0,0:0:0:0:
267,377,304586,6,8,L|252:347,1,18.7500007152558
271,277,304773,1,8,0:0:0:0:
133,237,304961,2,8,L|147:270,1,18.7500007152558
152,36,305336,6,8,L|124:28,1,18.7500007152558
99,51,305523,1,8,0:0:0:0:
215,142,305711,6,8,L|187:150,1,18.7500007152558
202,136,305898,1,8,0:0:0:0:
294,20,306086,6,0,P|363:44|435:97,1,150
488,165,306461,6,0,B|547:87|459:27|459:27|458:20|458:20|458:27|458:27|383:66|410:156|410:156|393:167|393:167|455:281|396:370|396:370|369:312|320:315|328:336|271:327|246:258|246:258|334:181|419:209|517:283|497:358,1,1100,4|0,0:0|0:0,0:0:0:0:
101,309,310961,6,0,B|81:335|86:421|244:396|253:287|208:172|99:228|99:228|103:230|103:230|55:234|-59:118|78:3|78:3|53:60|94:116|125:78|152:156|128:200,1,862.500032901765,4|0,0:0|0:0,0:0:0:0:
117,183,313211,5,8,0:0:0:0:
68,202,313304,1,8,0:0:0:0:
49,251,313398,1,8,0:0:0:0:
66,300,313492,1,8,0:0:0:0:
111,326,313586,1,8,0:0:0:0:
192,105,313773,5,8,0:0:0:0:
197,103,313867,1,8,0:0:0:0:
199,97,313961,1,8,0:0:0:0:
178,57,314054,1,8,0:0:0:0:
134,45,314148,1,8,0:0:0:0:
91,61,314242,1,8,0:0:0:0:
74,102,314336,1,8,0:0:0:0:
279,153,314523,5,8,0:0:0:0:
281,156,314617,1,8,0:0:0:0:
285,158,314711,1,8,0:0:0:0:
314,135,314804,1,8,0:0:0:0:
308,97,314898,1,8,0:0:0:0:
431,24,315086,5,8,0:0:0:0:
421,48,315179,1,8,0:0:0:0:
429,73,315273,1,8,0:0:0:0:
449,88,315367,1,8,0:0:0:0:
475,77,315461,6,0,B|473:28|414:10|414:10|421:14|421:14|494:118|499:248|499:248|504:259|504:259|430:221|390:302|390:302|398:305|398:305|355:373|281:348|281:348|289:265|190:231|190:231|178:237|178:237|146:232|86:253|70:312|70:312|159:310|183:367,1,1100,4|0,0:0|0:0,0:0:0:0:
199,92,319961,6,0,B|184:47|222:14|222:14|150:-1|109:14|109:14|106:19|106:19|66:40|52:109|52:109|134:137|205:197|205:197|207:189|207:189|269:137|351:143|351:143|310:119|318:62,1,750.000028610231,4|0,0:0|0:0,0:0:0:0:
486,16,322211,5,4,0:0:0:0:
479,18,322398,1,0,0:0:0:0:
487,50,322586,1,0,0:0:0:0:
419,82,322773,1,0,0:0:0:0:
483,173,322961,1,0,0:0:0:0:
309,226,323148,1,0,0:0:0:0:
443,342,323336,5,8,0:0:0:0:
341,130,323523,1,8,0:0:0:0:
115,297,323711,1,8,0:0:0:0:
337,26,323898,1,8,0:0:0:0:
283,380,324086,1,8,0:0:0:0:
69,10,324273,1,8,0:0:0:0:
495,233,324461,6,0,B|455:210|381:247|424:274|391:331|295:302,1,200,4|2,0:0|0:0,0:0:0:0:
256,212,325023,1,0,0:0:0:0:
136,152,325211,1,10,0:0:0:0:
60,280,325398,1,0,0:0:0:0:
237,128,325586,6,0,P|299:133|322:267,1,200,2|2,0:0|0:0,0:0:0:0:
139,340,326148,1,0,0:0:0:0:
256,212,326336,1,10,0:0:0:0:
327,380,326523,1,0,0:0:0:0:
121,326,326711,6,0,P|133:220|146:121,1,200,2|2,0:0|0:0,0:0:0:0:
233,7,327273,1,0,0:0:0:0:
310,115,327461,1,10,0:0:0:0:
429,1,327648,1,0,0:0:0:0:
398,154,327836,6,3,B|400:190|429:214|454:210|461:206|471:203|532:210|566:262|529:318|478:341|423:332|390:279|395:238|453:205|460:199|466:194|479:147|450:122,1,400,2|10,0:0|0:0,0:1:0:0:
325,23,328773,1,0,0:0:0:0:
203,177,328961,6,1,B|183:236|127:211|163:117|196:169|240:137|208:55,1,200,2|2,0:0|0:0,0:0:0:0:
80,7,329523,1,0,0:0:0:0:
95,170,329711,1,10,0:0:0:0:
63,0,329898,1,0,0:0:0:0:
16,189,330086,6,1,B|14:214|47:240|47:240|43:241|43:241|85:265|152:253|176:201,1,200,2|2,0:0|0:0,0:0:0:0:
201,54,330648,1,0,0:0:0:0:
95,170,330836,1,10,0:0:0:0:
271,234,331023,6,0,P|274:203|278:177,1,50,0|0,0:0|2:0,0:0:0:0:
312,46,331211,5,0,2:0:0:0:
343,90,331304,1,0,2:0:0:0:
388,109,331398,1,0,2:0:0:0:
433,106,331492,1,0,2:0:0:0:
464,81,331586,5,2,0:0:0:0:
358,191,331773,2,0,B|365:245|365:245|368:249|368:249|375:302,1,100,0|10,0:0|0:0,0:0:0:0:
454,379,332148,1,0,0:0:0:0:
262,252,332336,6,1,B|207:233|147:279|196:278|144:323|76:304,1,200,2|2,0:0|0:0,0:0:0:0:
0,140,332898,1,0,0:0:0:0:
0,140,332992,1,0,0:0:0:0:
0,140,333086,1,10,0:0:0:0:
115,233,333273,1,0,0:0:0:0:
135,35,333461,6,1,B|128:63|101:99|101:99|148:42|223:18,1,200,2|2,0:0|0:0,0:0:0:0:
349,2,334023,1,0,0:0:0:0:
264,111,334211,1,10,0:0:0:0:
393,210,334398,1,0,0:0:0:0:
460,54,334586,6,1,B|439:104|465:149|465:149|431:110|371:122,1,200,2|2,0:0|0:0,0:0:0:0:
275,286,335148,1,0,0:0:0:0:
393,210,335336,1,10,0:0:0:0:
218,152,335523,1,0,0:0:0:0:
425,321,335711,6,0,B|418:267|418:267|415:263|415:263|408:210,1,100,2|0,0:0|0:0,0:0:0:0:
285,98,336086,1,2,0:0:0:0:
463,137,336273,1,0,0:0:0:0:
212,286,336461,5,10,0:0:0:0:
270,108,336648,1,0,0:0:0:0:
52,199,336836,2,2,B|92:204|92:204|96:207|96:207|150:214,1,100,2|0,0:0|0:0,0:1:0:0:
298,374,337211,5,2,0:0:0:0:
367,329,337398,1,0,0:0:0:0:
393,228,337586,1,10,0:0:0:0:
321,106,337773,1,0,0:0:0:0:
112,53,337961,6,1,B|79:68|74:88|74:88|123:159|216:98,1,200,2|2,0:0|0:0,0:0:0:0:
280,5,338523,1,0,0:0:0:0:
337,122,338711,1,10,0:0:0:0:
448,26,338898,1,0,0:0:0:0:
412,175,339086,6,1,B|379:223|329:232|329:232|270:211|258:151,1,200,2|2,0:0|0:0,0:0:0:0:
454,7,339648,1,0,0:0:0:0:
337,122,339836,1,10,0:0:0:0:
512,204,340023,1,0,0:0:0:0:
404,352,340211,6,1,B|418:311|399:276|399:276|383:314|334:328,1,150.000000000023,2|0,0:0|0:0,0:0:0:0:
69,241,340586,1,12,0:0:0:0:
54,235,340961,5,2,0:0:0:0:
165,207,341148,1,0,0:0:0:0:
195,55,341336,2,0,P|164:58|138:62,1,50,10|0,0:0|2:0,0:0:0:0:
42,147,341523,5,8,0:0:0:0:
42,147,341617,1,8,0:0:0:0:
42,147,341711,1,8,0:0:0:0:
119,308,341898,5,8,0:0:0:0:
162,332,341992,1,8,0:0:0:0:
207,333,342086,1,8,0:0:0:0:
243,317,342179,1,8,0:0:0:0:
260,286,342273,1,8,0:0:0:0:
261,255,342367,1,8,0:0:0:0:
251,231,342461,6,0,P|215:282|327:356,1,200,0|2,0:0|0:0,0:0:0:0:
152,223,343023,1,0,0:0:0:0:
445,56,343211,2,0,B|470:49|503:55|503:55|472:65|416:104,1,150.000005722046,2|0,0:0|0:0,0:0:0:0:
72,127,343586,6,0,B|14:109|27:48|27:48|108:16|163:70|143:73|141:86|204:106|245:66,1,300.000011444092,2|2,0:0|0:0,0:0:0:0:
362,233,344148,1,0,0:0:0:0:
205,0,344336,1,10,0:0:0:0:
423,99,344523,1,0,0:0:0:0:
272,379,344711,6,0,B|271:345|240:328|240:328|228:235|293:186|293:186|263:230|298:240|254:266,1,300.000011444092,0|2,0:0|0:0,0:0:0:0:
118,364,345273,1,0,0:0:0:0:
433,320,345461,2,0,B|465:295|465:295|346:320,1,150.000005722046,10|0,0:0|0:0,0:0:0:0:
0,228,345836,6,0,B|23:192|0:160|0:160|75:160|108:258|91:288|91:288|58:298|25:349,1,300.000011444092,2|2,0:0|0:0,0:0:0:0:
190,384,346398,2,0,P|194:334|159:284,1,75.0000028610231
213,79,346586,5,2,0:0:0:0:
188,144,346711,1,0,0:0:0:0:
118,126,346836,1,0,0:0:0:0:
131,48,346961,6,0,B|220:74|220:74|226:72|226:72|336:97|336:97|280:95|261:154,1,300.000011444092,2|2,0:0|0:0,0:0:0:0:
263,0,347523,1,0,0:0:0:0:
418,215,347711,2,0,B|391:225|345:212|336:172|336:172|355:195|396:194,1,150.000005722046,10|0,0:0|0:0,0:0:0:0:
496,14,348086,6,0,B|555:13|494:62|460:53|468:-13|338:30|331:104,1,225.000008583069,2|0,0:0|0:0,0:0:0:0:
348,88,348461,1,2,0:0:0:0:
487,170,348648,1,0,0:0:0:0:
226,301,348836,2,0,B|249:288|252:271|252:271|318:245|356:310,1,150.000005722046,10|0,0:0|0:0,0:0:0:0:
64,39,349211,6,0,B|42:19|10:14|10:14|75:92|142:237,1,300.000011444092,2|2,0:0|0:0,0:0:0:0:
238,90,349773,2,0,P|196:114|173:154,1,75.0000028610231
116,299,349961,5,2,0:0:0:0:
49,322,350086,1,0,0:0:0:0:
19,257,350211,1,0,0:0:0:0:
129,313,350336,6,0,B|183:359|232:294|226:283|219:276|264:231|314:249|314:249|304:292|336:324,1,300.000011444092,2|2,0:0|0:0,0:0:0:0:
457,288,350898,2,0,P|427:267|390:266,1,75.0000028610231
334,72,351086,5,2,0:0:0:0:
332,144,351211,1,0,0:0:0:0:
400,174,351336,1,0,0:0:0:0:
471,105,351461,6,0,B|499:80|499:80|167:148,1,300.000011444092,2|2,0:0|0:0,0:0:0:0:
486,183,352023,1,0,0:0:0:0:
375,337,352211,2,0,B|360:271|360:271|362:262|362:262|335:163,1,150.000005722046,10|0,0:0|0:0,0:0:0:0:
16,59,352586,6,0,B|5:101|38:131|38:131|115:84|228:146|209:234,1,300.000011444092,2|2,0:0|0:0,0:0:0:0:
97,26,353148,1,0,0:0:0:0:
130,257,353336,2,0,B|96:267|75:302|75:302|84:264|52:221,1,150.000005722046,10|0,0:0|0:0,0:0:0:0:
311,378,353711,6,0,B|307:358|290:342|290:342|353:261|474:283|474:283|427:300|429:350,1,300.000011444092,2|2,0:0|0:0,0:0:0:0:
187,368,354273,1,0,0:0:0:0:
508,359,354461,1,10,0:0:0:0:
274,240,354648,1,0,0:0:0:0:
421,74,354836,6,0,B|439:42|424:17|424:17|375:72|383:164|513:271|488:123|447:154,1,300.000011444092,2|2,0:0|0:0,0:0:0:0:
274,240,355398,1,0,0:0:0:0:
190,74,355586,2,0,B|180:51|154:41|154:41|211:19|245:102,1,150.000005722046,10|0,0:0|0:0,0:0:0:0:
189,358,355961,6,0,B|131:339|152:279|157:279|161:281|135:202|44:204|44:204|82:211|91:247,1,300.000011444092,2|2,0:0|0:0,0:0:0:0:
0,353,356523,1,0,0:0:0:0:
272,172,356711,2,0,B|305:161|287:130|202:143|219:244|255:267,1,150.000005722046,2|0,0:0|0:0,0:0:0:0:
488,298,357086,6,0,B|456:275|422:289|422:289|385:341|292:347|292:347|346:331|313:308|379:307,1,300.000011444092,2|2,0:0|0:0,0:0:0:0:
481,383,357648,1,0,0:0:0:0:
356,217,357836,1,10,0:0:0:0:
495,48,358023,2,0,L|464:166,1,75.0000028610231
206,365,358211,5,8,0:0:0:0:
53,209,358398,1,8,0:0:0:0:
40,205,358492,1,8,0:0:0:0:
32,211,358586,1,8,0:0:0:0:
36,269,358679,1,8,0:0:0:0:
82,307,358773,1,8,0:0:0:0:
142,309,358867,1,8,0:0:0:0:
186,269,358961,1,8,0:0:0:0:
68,384,359148,2,8,P|42:368|-27:358,1,75.0000028610231
275,228,359336,5,8,0:0:0:0:
126,29,359523,1,8,0:0:0:0:
123,18,359617,1,8,0:0:0:0:
133,11,359711,1,8,0:0:0:0:
166,40,359804,1,8,0:0:0:0:
177,83,359898,1,0,0:0:0:0:
158,123,359992,1,0,0:0:0:0:
116,140,360086,2,0,P|100:91|133:64,1,75.0000028610231
0,44,360273,2,0,P|34:5|74:20,1,75.0000028610231
469,142,360461,5,4,0:0:0:0:
512,355,361586,6,0,L|395:377,1,100,2|0,0:0|0:0,0:0:0:0:
320,250,361961,2,0,L|217:228,1,85.0000016212464
111,360,362336,1,0,0:0:0:0:
105,369,362461,1,0,0:0:0:0:
97,362,362586,1,0,0:0:0:0:
28,256,362711,6,0,P|79:197|70:126,1,141.666669368744,2|0,0:0|0:0,0:0:0:0:
48,31,363086,6,0,P|115:59|165:78,1,100
208,160,363461,2,0,P|257:139|293:125,1,85.0000016212464
393,0,363836,5,2,0:0:0:0:
479,225,364023,1,0,0:0:0:0:
286,127,364211,1,0,0:0:0:0:
512,78,364398,1,0,0:0:0:0:
263,0,364586,1,2,0:0:0:0:
252,4,364711,1,0,0:0:0:0:
257,14,364836,1,0,0:0:0:0:
198,128,364961,6,0,B|165:87|109:102|109:102|72:154|-21:160|-21:160|33:144|0:121|66:120,1,340.000006484985,2|0,0:0|0:0,0:0:0:0:
322,221,366086,6,0,P|266:234|252:351,1,170.000003242493,10|0,0:0|0:0,0:0:0:0:
354,372,366836,1,0,0:0:0:0:
356,384,366961,1,0,0:0:0:0:
363,379,367086,1,0,0:0:0:0:
465,318,367211,6,0,P|444:242|432:220,1,85.0000016212464,2|0,0:0|0:0,0:0:0:0:
373,183,367461,5,0,0:0:0:0:
367,176,367586,2,0,L|358:240,1,56.6666677474976
256,319,367836,1,0,0:0:0:0:
203,180,367961,1,8,0:0:0:0:
192,196,368211,5,0,0:0:0:0:
0,256,368336,2,0,P|7:230|30:213,1,56.6666677474976
101,248,368586,1,0,0:0:0:0:
16,353,368711,5,0,0:0:0:0:
19,360,368773,1,0,0:0:0:0:
21,368,368836,1,0,0:0:0:0:
117,235,368961,5,8,0:0:0:0:
203,327,369086,1,8,0:0:0:0:
292,256,369211,1,8,0:0:0:0:
372,337,369336,1,8,0:0:0:0:
294,355,369461,6,0,P|315:273|337:190,2,170.000003242493,4|0|0,0:0|0:0|0:0,0:0:0:0:
405,167,370586,6,0,P|385:132|318:120,1,100,12|0,0:0|0:0,0:0:0:0:
177,207,370961,2,0,P|214:210|257:180,1,85.0000016212464
179,45,371336,1,0,0:0:0:0:
55,224,371711,6,0,B|46:233|29:258|29:258|42:197|34:148,1,141.666669368744,2|0,0:0|0:0,0:0:0:0:
64,93,372086,2,0,P|117:79|171:66,1,100
262,118,372461,2,0,P|301:132|349:142,1,85.0000016212464
476,123,372836,5,8,0:0:0:0:
257,229,373023,1,0,0:0:0:0:
436,282,373211,2,0,L|349:319,1,85.0000016212464
246,339,373586,5,0,0:0:0:0:
238,348,373711,1,0,0:0:0:0:
246,353,373836,1,0,0:0:0:0:
190,259,373961,6,0,P|162:178|127:101,2,170.000003242493,10|0|0,0:0|0:0|0:0,0:0:0:0:
162,24,375086,6,0,L|260:51,1,100,10|0,0:0|0:0,0:0:0:0:
366,144,375461,2,0,L|283:162,1,85.0000016212464
190,259,375836,1,0,0:0:0:0:
359,265,376211,6,0,P|392:295|380:344,1,85.0000016212464,2|0,0:0|0:0,0:0:0:0:
324,365,376461,5,8,0:0:0:0:
327,376,376586,2,0,L|268:364,1,56.6666677474976,8|8,0:0|0:0,0:0:0:0:
180,384,376836,5,8,0:0:0:0:
111,340,376961,2,0,L|47:367,1,56.6666677474976,8|0,0:0|0:0,0:0:0:0:
14,280,377211,6,0,P|-1:244|7:207,2,56.6666677474976,8|8|8,0:0|0:0|0:0,0:0:0:0:
92,217,377586,5,8,0:0:0:0:
161,269,377711,1,8,0:0:0:0:
191,156,377836,5,8,0:0:0:0:
228,139,377961,1,8,0:0:0:0:
288,185,378086,1,8,0:0:0:0:
376,143,378211,1,0,0:0:0:0:
474,203,378336,1,0,0:0:0:0:
365,130,378461,54,1,B|315:108|343:41|394:34|447:55|474:113|415:161|383:165|366:225|403:266|448:271,1,340.000006484985,0|0,0:0|0:0,0:0:0:0:
490,353,379586,6,0,P|438:383|390:363,1,100,10|0,0:0|0:0,0:0:0:0:
330,223,379961,2,0,P|281:236|264:277,1,85.0000016212464
324,367,380336,1,0,0:0:0:0:
330,361,380461,1,0,0:0:0:0:
319,360,380586,1,0,0:0:0:0:
222,320,380711,6,0,P|196:263|121:264,1,141.666669368744,2|0,0:0|0:0,0:0:0:0:
59,309,381086,2,0,P|50:260|38:209,1,100
0,126,381461,2,0,P|9:60|19:24,1,85.0000016212464
163,0,381836,5,10,0:0:0:0:
314,163,382023,1,0,0:0:0:0:
82,113,382211,2,0,P|118:86|162:95,1,85.0000016212464
198,222,382586,1,0,0:0:0:0:
192,228,382711,1,0,0:0:0:0:
191,217,382836,1,0,0:0:0:0:
292,178,382961,6,0,P|284:228|279:285,1,85.0000016212464
245,343,383211,2,0,P|307:333|390:371,1,141.666669368744
448,330,383586,1,8,0:0:0:0:
459,319,383711,2,0,P|456:284|450:244,1,56.6666677474976,8|0,0:0|0:0,0:0:0:0:
501,189,383898,1,0,0:0:0:0:
491,172,383961,2,0,P|456:169|416:163,1,56.6666677474976,8|0,0:0|0:0,0:0:0:0:
325,97,384211,5,8,0:0:0:0:
315,91,384273,1,8,0:0:0:0:
295,87,384336,1,8,0:0:0:0:
271,101,384398,1,0,0:0:0:0:
267,137,384461,5,0,0:0:0:0:
338,237,384586,1,0,0:0:0:0:
208,208,384711,1,0,0:0:0:0:
345,221,384836,5,0,0:0:0:0:
249,312,384961,1,8,0:0:0:0:
240,301,385023,1,8,0:0:0:0:
230,289,385086,1,8,0:0:0:0:
344,333,385211,6,0,P|378:316|408:303,1,56.6666677474976,8|0,0:0|0:0,0:0:0:0:
492,336,385461,1,0,0:0:0:0:
426,229,385586,5,8,0:0:0:0:
512,142,385711,1,8,0:0:0:0:
508,155,385773,1,8,0:0:0:0:
504,170,385836,1,8,0:0:0:0:
357,62,385961,5,8,0:0:0:0:
484,26,386086,1,8,0:0:0:0:
484,26,386148,1,8,0:0:0:0:
484,26,386211,1,8,0:0:0:0:
406,129,386336,5,0,0:0:0:0:
281,74,386461,2,0,L|253:71,2,28.3333338737488,8|8|8,0:0|0:0|0:0,0:0:0:0:
319,150,386711,5,8,0:0:0:0:
260,232,386836,1,8,0:0:0:0:
256,329,386961,1,0,0:0:0:0:
308,384,387086,2,0,P|362:375|388:322,1,113.333335494995
483,244,387453,6,0,P|370:256|158:306,1,311.666672611237
174,377,388203,1,0,0:0:0:0:
0,153,388578,6,0,L|22:270,1,100,10|0,0:0|0:0,0:0:0:0:
83,362,388953,2,0,L|105:259,1,85.0000016212464
194,163,389328,1,0,0:0:0:0:
203,169,389453,1,0,0:0:0:0:
196,177,389578,1,0,0:0:0:0:
108,155,389703,6,0,B|87:90|162:66|150:25,1,141.666669368744,2|0,0:0|0:0,0:0:0:0:
54,54,390078,6,0,P|121:82|171:101,1,100
252,121,390453,2,0,P|301:100|337:86,1,85.0000016212464
512,0,390828,5,10,0:0:0:0:
389,200,391015,1,0,0:0:0:0:
430,58,391203,2,0,L|465:146,1,85.0000016212464
502,270,391578,1,0,0:0:0:0:
498,259,391703,1,0,0:0:0:0:
488,264,391828,1,0,0:0:0:0:
431,335,391953,6,0,P|375:359|333:263,2,170.000003242493,2|0|0,0:0|0:0|0:0,0:0:0:0:
320,193,393078,6,0,P|264:206|242:254,1,100,10|0,0:0|0:0,0:0:0:0:
213,330,393453,2,0,P|185:364|132:368,1,85.0000016212464
56,317,393828,1,0,0:0:0:0:
58,329,393953,1,0,0:0:0:0:
65,324,394078,1,0,0:0:0:0:
157,272,394203,6,0,P|136:196|124:174,1,85.0000016212464,2|0,0:0|0:0,0:0:0:0:
195,145,394453,5,0,0:0:0:0:
189,138,394578,2,0,L|180:202,1,56.6666677474976
28,71,394828,1,0,0:0:0:0:
47,204,394953,1,8,0:0:0:0:
50,217,395203,1,0,0:0:0:0:
144,67,395328,6,0,P|118:60|101:37,1,56.6666677474976
84,132,395578,1,0,0:0:0:0:
208,2,395703,5,0,0:0:0:0:
211,9,395765,1,0,0:0:0:0:
212,16,395828,2,0,P|239:20|274:29,1,56.6666677474976
333,141,396078,5,8,0:0:0:0:
447,57,396203,1,8,0:0:0:0:
498,109,396328,1,8,0:0:0:0:
380,0,396453,6,0,P|397:63|428:187,2,170.000003242493,4|0|0,0:0|0:0|0:0,0:0:0:0:
511,207,397578,6,0,P|491:242|424:254,1,100,10|0,0:0|0:0,0:0:0:0:
301,301,397953,2,0,P|338:298|381:328,1,85.0000016212464
466,348,398328,1,0,0:0:0:0:
264,153,398703,6,0,B|238:119|238:119|253:227,1,141.666669368744,2|0,0:0|0:0,0:0:0:0:
261,230,399078,2,0,P|208:216|154:203,1,100
142,350,399453,2,0,P|181:336|229:326,1,85.0000016212464
1,163,399828,5,10,0:0:0:0:
63,384,400015,1,0,0:0:0:0:
261,230,400203,1,0,0:0:0:0:
1,312,400390,1,0,0:0:0:0:
104,69,400578,5,0,0:0:0:0:
112,78,400703,1,0,0:0:0:0:
104,83,400828,1,0,0:0:0:0:
28,51,400953,6,0,P|77:66|189:114,2,170.000003242493,2|0|0,0:0|0:0|0:0,0:0:0:0:
269,41,402078,6,0,L|296:139,1,100,10|0,0:0|0:0,0:0:0:0:
401,2,402453,2,0,L|383:85,1,85.0000016212464
479,37,402828,1,2,0:0:0:0:
372,208,403203,6,0,P|402:241|451:229,1,85.0000016212464
500,185,403453,5,0,0:0:0:0:
503,174,403578,2,0,L|444:186,1,56.6666677474976
338,321,403828,5,0,0:0:0:0:
407,365,403953,2,0,L|471:338,1,56.6666677474976,8|0,0:0|0:0,0:0:0:0:
283,238,404203,6,0,P|247:223|210:231,2,56.6666677474976,8|8|8,0:0|0:0|0:0,0:0:0:0:
222,350,404578,5,8,0:0:0:0:
160,294,404703,2,0,L|134:388,1,85.0000016212464,8|0,0:0|0:0,0:0:0:0:
59,384,404953,5,8,0:0:0:0:
45,373,405078,1,8,0:0:0:0:
55,298,405203,1,8,0:0:0:0:
8,223,405328,1,8,0:0:0:0:
22,95,405453,6,0,B|115:122|70:136|190:178,2,170.000003242493,4|0|0,0:0|0:0|0:0,0:0:0:0:
203,1,406578,6,0,P|219:59|267:79,1,100,10|0,0:0|0:0,0:0:0:0:
264,164,406953,2,0,P|315:177|352:149,1,85.0000016212464,0|0,0:3|0:3,0:3:0:0:
396,55,407328,1,0,0:0:0:0:
402,49,407453,1,0,0:0:0:0:
391,48,407578,1,0,0:0:0:0:
468,113,407703,6,0,B|495:205|495:205|466:224|463:264,1,141.666669368744
411,171,408078,2,0,P|460:180|511:192,1,100
481,327,408453,2,0,P|415:336|379:346,1,85.0000016212464
126,194,408828,5,10,0:0:0:0:
268,384,409015,1,0,0:0:0:0:
98,338,409203,2,0,P|134:311|178:320,1,85.0000016212464
263,232,409578,1,0,0:0:0:0:
257,238,409703,1,0,0:0:0:0:
256,227,409828,1,0,0:0:0:0:
313,299,409953,6,0,L|282:122,1,170.000003242493,2|0,0:0|0:0,0:0:0:0:
276,121,410703,1,2,0:0:0:0:
99,4,411078,6,0,P|47:27|23:89,1,100,10|0,0:0|0:0,0:0:0:0:
126,179,411453,2,0,P|109:135|118:94,1,85.0000016212464
199,83,411828,1,0,0:0:0:0:
34,212,412203,5,0,0:0:0:0:
32,228,412296,1,0,0:0:0:0:
30,244,412390,1,0,0:0:0:0:
28,261,412484,1,0,0:0:0:0:
98,285,412578,5,8,0:0:0:0:
96,301,412671,1,8,0:0:0:0:
94,317,412765,1,8,0:0:0:0:
92,334,412859,1,8,0:0:0:0:
27,359,412953,5,8,0:0:0:0:
39,355,413046,1,8,0:0:0:0:
51,351,413140,1,8,0:0:0:0:
63,347,413234,1,8,0:0:0:0:
127,384,413328,5,8,0:0:0:0:
139,380,413421,1,8,0:0:0:0:
151,376,413515,1,8,0:0:0:0:
163,372,413609,1,8,0:0:0:0:
210,313,413703,5,8,0:0:0:0:
217,316,413796,1,8,0:0:0:0:
224,319,413890,1,8,0:0:0:0:
231,322,413984,1,8,0:0:0:0:
296,356,414078,6,0,L|259:343,1,21.2500004053116,8|0,0:0|0:0,0:0:0:0:
462,171,414453,38,1,B|504:110|504:110|513:106|513:106|460:117|460:117|421:110|421:110|416:113|416:113|344:124|344:124|335:120|335:120|255:137,1,340.000006484985,4|0,0:0|0:0,0:0:0:0:
160,219,415578,6,0,P|129:181|89:160,1,85.0000016212464,10|0,0:0|0:0,0:0:0:0:
65,39,415953,2,0,P|102:47|153:71,1,85.0000016212464
26,200,416328,1,0,0:0:0:0:
12,195,416453,1,0,0:0:0:0:
21,191,416578,1,0,0:0:0:0:
64,274,416703,6,0,P|152:250|227:233,1,166.666666666667
300,296,417078,2,0,P|314:246|381:228,1,100
461,280,417453,2,0,P|482:242|453:192,1,85.0000016212464
263,2,417828,5,10,0:0:0:0:
508,107,418015,1,0,0:0:0:0:
331,83,418203,2,0,P|393:59|434:44,1,85.0000016212464
237,102,418578,1,0,0:0:0:0:
224,99,418703,1,0,0:0:0:0:
235,96,418828,1,0,0:0:0:0:
268,4,418953,6,0,P|186:25|103:47,2,170.000003242493,10|0|0,0:0|0:0|0:0,0:0:0:0:
113,133,420078,6,0,P|126:189|174:211,1,100,10|0,0:0|0:0,0:0:0:0:
294,245,420453,2,0,P|266:279|213:283,1,85.0000016212464
252,125,420828,1,2,0:0:0:0:
333,337,421203,5,8,0:0:0:0:
473,381,421390,6,0,L|479:330,1,42.5000008106232
475,225,421578,1,8,0:0:0:0:
444,239,421671,1,8,0:0:0:0:
405,240,421765,1,8,0:0:0:0:
364,226,421859,1,8,0:0:0:0:
336,188,421953,1,8,0:0:0:0:
304,63,422140,5,8,0:0:0:0:
265,44,422234,1,8,0:0:0:0:
222,45,422328,2,0,L|216:96,1,42.5000008106232,8|0,0:0|0:0,0:0:0:0:
114,144,422515,5,8,0:0:0:0:
80,151,422609,1,8,0:0:0:0:
46,144,422703,2,0,L|40:93,1,42.5000008106232,8|0,0:0|0:0,0:0:0:0:
80,0,422890,5,8,0:0:0:0:
110,35,422984,1,8,0:0:0:0:
152,41,423078,1,8,0:0:0:0:
187,27,423171,1,8,0:0:0:0:
221,27,423265,1,0,0:0:0:0:
249,34,423359,1,0,0:0:0:0:
267,51,423453,2,0,P|246:133|224:216,2,170.000003242493,4|0|0,0:0|0:0|0:0,0:0:0:0:
393,32,424578,6,0,L|510:10,1,100,10|0,0:0|0:0,0:0:0:0:
411,150,424953,2,0,L|308:128,1,85.0000016212464
249,34,425328,1,2,0:0:0:0:
43,147,425703,6,0,B|34:156|9:173|9:173|70:160|119:168,1,141.666669368744,2|0,0:0|0:0,0:0:0:0:
172,124,426078,2,0,P|186:177|199:231,1,100
273,306,426453,2,0,L|295:203,1,85.0000016212464,2|0,0:0|0:0,0:0:0:0:
260,123,426828,22,1,B|307:95|363:139|320:138|370:178|426:156,2,170.000003242493,10|0|1,0:0|0:0|0:0,0:0:0:0:
175,210,427953,2,1,B|179:230|196:246|196:246|133:327|12:305|12:305|67:282|73:229,1,340.000006484985,2|0,0:0|0:0,0:0:0:0:
8,145,429078,6,0,P|48:152|103:113,1,100,10|0,0:0|0:0,0:0:0:0:
165,0,429453,2,0,L|196:108,1,100,10|0,0:0|0:0,0:0:0:0:
302,190,429828,2,0,L|333:82,1,100,10|0,0:0|0:0,0:0:0:0:
462,9,430203,5,8,0:0:0:0:
438,1,430390,1,0,0:0:0:0:
440,24,430578,1,0,0:0:0:0:
339,90,430765,1,0,0:0:0:0:
478,162,430953,1,0,0:0:0:0:
265,250,431140,1,0,0:0:0:0:
503,344,431328,1,8,0:0:0:0:
329,81,431515,1,8,0:0:0:0:
142,338,431703,1,8,0:0:0:0:
49,60,431890,1,8,0:0:0:0:
387,233,432078,1,8,0:0:0:0:
7,300,432265,1,8,0:0:0:0:
274,18,432453,6,0,B|337:5|337:5|343:-2|343:-2|247:112|247:112|239:117|239:117|185:182|185:182|142:141|82:154,1,425.000016212464,4|0,0:0|0:0,0:0:0:0:
155,58,433578,6,0,B|177:52|193:26|193:26|306:74|311:159|311:159|303:165|303:165|312:252|384:295|384:295|398:260|439:247,1,481.666675853729,4|0,0:0|0:0,0:0:0:0:
435,174,434703,6,0,B|449:151|476:140|476:140|480:128|480:128|378:95|253:227|268:314|317:361,1,425.000016212464,4|0,0:0|0:0,0:0:0:0:
404,357,435828,6,0,B|414:248|296:163|162:220|162:220|190:259|186:313,1,425.000016212464,4|0,0:0|0:0,0:0:0:0:
223,378,436953,6,0,P|261:192|302:30,1,354.99998916626,4|0,0:0|0:0,0:0:0:0:
381,78,441453,38,1,B|449:106|472:190|472:190|369:118|296:155|296:155|337:161|363:190,1,400,4|0,0:0|0:0,0:0:0:0:
178,119,442578,2,0,P|210:217|22:261,1,350,2|0,0:0|0:0,0:0:0:0:
110,199,443328,5,0,0:0:0:0:
57,63,443703,2,1,B|19:80|-19:134|-19:134|-20:142|-20:142|-10:63|-12:-8|-12:-8|-7:-2|-7:-2|78:-5|125:54|125:54|129:45|129:45|199:24|244:62,1,550,10|0,0:0|0:0,0:0:0:0:
333,24,444828,2,0,P|320:152|279:375,1,350,2|0,0:0|0:0,0:0:0:0:
512,210,445578,5,0,0:0:0:0:
407,371,445953,2,0,B|499:375|506:264|390:187|234:243|213:287|213:287|139:199|228:114,1,550,2|0,0:0|0:0,0:0:0:0:
262,76,447078,2,0,B|178:31|121:98|121:98|81:26|6:48|6:48|39:61|56:86,1,350,2|0,0:0|0:0,0:0:0:0:
38,203,447828,5,0,0:0:0:0:
246,332,448203,2,0,B|152:280|158:142|238:108|283:93|283:93|328:122|376:109,1,400,10|0,0:0|0:0,0:0:0:0:
479,135,449140,1,0,0:0:0:0:
475,120,449234,1,0,0:0:0:0:
471,105,449328,1,0,0:0:0:0:
414,230,449703,1,0,0:0:0:0:
192,37,450078,1,0,0:0:0:0:
252,92,450265,1,0,0:0:0:0:
301,158,450453,6,1,B|268:168|268:168|265:171|265:171|227:183|227:183|232:183|232:183|281:184|325:229|368:166|368:166|441:142|441:142|386:124|373:82,1,400,4|0,0:0|0:0,0:0:0:0:
467,26,451578,2,0,P|425:134|372:277,1,262.500010013581,2|0,0:0|0:0,0:0:0:0:
462,384,452328,5,0,0:0:0:0:
299,241,452703,2,1,B|322:211|286:167|222:148|159:236|262:278|262:278|262:285|262:285|284:281|327:336|258:410|201:347,1,400,10|0,0:0|0:0,0:0:0:0:
35,171,453828,2,0,P|115:142|375:72,1,350,2|0,0:0|0:0,0:0:0:0:
393,74,454578,5,0,0:0:0:0:
182,229,454953,2,1,B|162:171|99:152|99:152|94:152|94:152|159:151|187:140|230:96|230:96|228:91|228:91|243:132|219:174|219:174|213:173|213:173|189:249|239:295|239:295|240:303|240:303|243:267|252:248,1,550,4|0,0:0|0:0,0:0:0:0:
310,215,456078,2,0,P|366:206|493:358,1,262.500010013581,2|0,0:0|0:0,0:0:0:0:
484,361,456828,1,0,0:0:0:0:
299,356,457015,1,0,0:0:0:0:
410,247,457203,1,8,0:0:0:0:
115,365,457578,5,8,0:0:0:0:
188,305,457703,1,8,0:0:0:0:
184,220,457828,1,8,0:0:0:0:
134,163,457953,1,8,0:0:0:0:
69,157,458078,2,8,L|65:188,2,25.0000009536744
34,19,458328,5,8,0:0:0:0:
67,43,458421,1,8,0:0:0:0:
107,51,458515,2,8,L|138:47,1,18.7500007152558
223,18,458703,5,8,0:0:0:0:
269,89,458828,1,8,0:0:0:0:
343,92,458953,1,8,0:0:0:0:
388,46,459078,2,0,P|340:38|289:109,1,125.000004768372,2|0,0:0|0:0,0:0:0:0:
502,181,459453,6,0,B|537:222|533:296|403:365|347:280|347:280|356:194|275:186,1,400,4|0,0:0|0:0,0:0:0:0:
487,384,460578,6,0,P|437:223|366:25,1,350,2|0,0:0|0:0,0:0:0:0:
375,45,461328,1,0,0:0:0:0:
0,241,461703,6,0,B|81:361|216:247|178:236|158:213|285:110|377:242|377:242|322:268|311:350,1,550,10|0,0:0|0:0,0:0:0:0:
225,373,462828,6,0,B|281:209|193:109|103:136|88:221,1,350,2|0,0:0|0:0,0:0:0:0:
101,213,463578,1,0,0:0:0:0:
442,92,463953,6,0,B|504:10|427:-75|233:16|293:149|293:149|304:141|304:141|409:178|372:295,1,550,4|0,0:0|0:0,0:0:0:0:
479,174,465078,6,0,L|66:82,1,412.500015735627,2|0,0:0|0:0,0:0:0:0:
24,23,466203,5,8,0:0:0:0:
228,198,466390,1,0,0:0:0:0:
53,164,466578,5,8,0:0:0:0:
153,102,466765,1,8,0:0:0:0:
221,278,466953,5,8,0:0:0:0:
154,237,467140,1,8,0:0:0:0:
254,80,467328,5,8,0:0:0:0:
273,155,467515,1,8,0:0:0:0:
158,16,467703,5,0,0:0:0:0:
148,21,467890,1,0,0:0:0:0:
80,0,468078,2,0,L|160:16,1,59.9999981689454
236,0,468265,2,0,L|316:16,1,59.9999981689454
488,118,468453,6,0,B|522:65|522:65|171:149,1,400,4|0,0:0|0:0,0:0:0:0:
72,228,469578,6,0,B|-20:224|-25:333|86:404|257:357|167:265,1,350,2|0,0:0|0:0,0:0:0:0:
170,280,470328,1,0,0:0:0:0:
396,370,470703,6,0,B|368:221|368:221|258:206|258:206|222:53|222:53|365:74,1,550,10|0,0:0|0:0,0:0:0:0:
126,218,471828,6,0,B|144:181|144:181|479:126,1,350,2|0,0:0|0:0,0:0:0:0:
457,139,472578,1,0,0:0:0:0:
68,110,472953,6,0,B|77:24|152:-7|152:-7|95:95|11:396,1,550,4|0,0:0|0:0,0:0:0:0:
24,374,474078,1,2,0:0:0:0:
24,374,474828,1,0,0:0:0:0:
0,161,475015,1,0,0:0:0:0:
435,337,475203,5,8,0:0:0:0:
426,346,475578,1,0,0:0:0:0:
484,258,475765,1,0,0:0:0:0:
319,329,475953,1,0,0:0:0:0:
501,380,476140,1,0,0:0:0:0:
368,167,476328,1,0,0:0:0:0:
198,366,476515,1,0,0:0:0:0:
489,191,476703,1,8,0:0:0:0:
136,71,476890,1,8,0:0:0:0:
393,380,477078,1,8,0:0:0:0:
511,0,477265,1,8,0:0:0:0:
64,151,477461,6,0,P|117:162|202:219,1,125,8|0,0:0|0:0,0:0:0:0:
83,356,479808,5,2,0:0:0:0:
95,347,479874,1,0,0:0:0:0:
108,341,479939,1,0,0:0:0:0:
122,337,480004,1,0,0:0:0:0:
151,296,480069,5,0,0:0:0:0:
171,304,480134,1,0,0:0:0:0:
193,309,480200,1,0,0:0:0:0:
215,310,480265,1,0,0:0:0:0:
257,345,480330,5,0,0:0:0:0:
289,327,480395,1,0,0:0:0:0:
326,327,480461,1,0,0:0:0:0:
358,344,480526,1,0,0:0:0:0:
376,376,480591,5,8,0:0:0:0:
472,123,482156,5,0,0:0:0:0:
470,134,482221,1,0,0:0:0:0:
468,145,482287,1,0,0:0:0:0:
466,156,482352,1,0,0:0:0:0:
464,167,482417,5,8,0:0:0:0:
430,197,482482,1,8,0:0:0:0:
385,200,482547,1,8,0:0:0:0:
345,178,482613,1,8,0:0:0:0:
328,136,482678,1,8,0:0:0:0:
290,112,482743,1,8,0:0:0:0:
245,105,482808,1,8,0:0:0:0:
201,119,482874,1,8,0:0:0:0:
174,155,482939,2,0,P|190:189|248:204,3,62.5
191,287,483200,2,0,P|228:290|270:247,3,68.5000019336701
323,330,483461,2,0,P|344:299|328:241,3,75.0000028610231
469,125,483721,6,0,P|389:166|304:60,1,225.000008583069,2|0,0:0|0:0,0:0:0:0:
328,3,483982,6,0,P|363:113|382:190,1,150.000005722046,2|8,0:0|0:0,0:0:0:0:
238,279,484243,1,2,0:0:0:0:
253,256,484374,1,8,0:0:0:0:
103,95,484504,5,2,0:0:0:0:
257,143,484634,1,8,0:0:0:0:
94,304,484765,2,0,B|65:205|65:205|114:145,1,150.000005722046,2|8,0:0|0:0,0:0:0:0:
231,269,485026,1,2,0:0:0:0:
212,258,485156,1,8,0:0:0:0:
397,184,485287,5,2,0:0:0:0:
319,359,485417,1,8,0:0:0:0:
481,199,485547,2,0,B|470:128|470:128|381:93,1,150.000005722046,2|8,0:0|0:0,0:0:0:0:
242,155,485808,1,2,0:0:0:0:
256,134,485939,1,8,0:0:0:0:
82,56,486069,5,2,0:0:0:0:
140,240,486200,1,8,0:0:0:0:
230,28,486330,5,2,0:0:0:0:
151,13,486461,1,8,0:0:0:0:
246,296,486591,5,2,0:0:0:0:
251,23,486721,1,8,0:0:0:0:
238,322,486852,6,0,P|153:287|71:375,1,225.000008583069,2|0,0:0|0:0,0:0:0:0:
165,384,487113,2,0,B|150:310|150:310|153:306|153:306|139:237,1,150.000005722046,2|8,0:0|0:0,0:0:0:0:
199,89,487374,1,2,0:0:0:0:
177,106,487504,1,8,0:0:0:0:
411,169,487634,5,2,0:0:0:0:
267,23,487765,1,8,0:0:0:0:
246,250,487895,2,0,B|251:291|251:291|329:148,1,150.000005722046,2|8,0:0|0:0,0:0:0:0:
199,89,488156,1,2,0:0:0:0:
177,106,488287,1,8,0:0:0:0:
272,259,488417,5,2,0:0:0:0:
81,197,488547,1,8,0:0:0:0:
315,95,488678,2,0,P|339:207|361:283,1,150.000005722046,2|8,0:0|0:0,0:0:0:0:
482,377,488939,1,2,0:0:0:0:
455,363,489069,1,8,0:0:0:0:
272,259,489200,5,8,0:0:0:0:
271,289,489265,1,8,0:0:0:0:
257,316,489330,1,8,0:0:0:0:
235,336,489395,1,8,0:0:0:0:
206,347,489461,2,0,P|183:330|161:312,1,50
48,172,489591,5,8,0:0:0:0:
76,143,489656,1,8,0:0:0:0:
109,134,489721,1,8,0:0:0:0:
139,138,489787,1,8,0:0:0:0:
161,149,489852,1,8,0:0:0:0:
173,164,489917,1,8,0:0:0:0:
178,177,489982,6,0,P|281:161|296:31,1,225.000008583069,2|0,0:0|0:0,0:0:0:0:
223,0,490243,6,0,B|237:69|237:69|234:73|234:73|249:147,1,150.000005722046,2|8,0:0|0:0,0:0:0:0:
167,322,490504,1,2,0:0:0:0:
185,306,490634,1,8,0:0:0:0:
392,378,490765,5,2,0:0:0:0:
273,198,490895,1,8,0:0:0:0:
226,376,491026,2,0,B|296:384|296:384|353:306,1,150.000005722046,2|8,0:0|0:0,0:0:0:0:
273,198,491287,1,0,0:0:0:0:
268,221,491417,1,0,0:0:0:0:
478,252,491547,5,2,0:0:0:0:
323,115,491678,1,8,0:0:0:0:
494,24,491808,2,0,P|469:136|447:212,1,150.000005722046,2|8,0:0|0:0,0:0:0:0:
337,265,492069,1,2,0:0:0:0:
360,259,492200,1,8,0:0:0:0:
188,125,492330,5,2,0:0:0:0:
240,293,492461,1,8,0:0:0:0:
323,115,492591,5,2,0:0:0:0:
255,181,492721,1,8,0:0:0:0:
474,252,492852,5,2,0:0:0:0:
383,29,492982,1,8,0:0:0:0:
464,162,493113,6,0,P|444:242|301:249,1,225.000008583069,2|0,0:0|0:0,0:0:0:0:
255,181,493374,2,0,B|226:82|226:82|275:22,1,150.000005722046,2|8,0:0|0:0,0:0:0:0:
383,29,493634,2,0,P|428:23|467:22,3,75.0000028610231
323,139,493895,5,8,0:0:0:0:
287,110,493961,1,8,0:0:0:0:
242,105,494026,1,8,0:0:0:0:
200,122,494091,1,8,0:0:0:0:
179,161,494156,1,8,0:0:0:0:
143,188,494221,1,8,0:0:0:0:
97,188,494287,1,8,0:0:0:0:
60,161,494352,1,8,0:0:0:0:
53,116,494417,2,0,P|98:110|137:109,3,75.0000028610231
8,267,494678,5,8,0:0:0:0:
59,261,494743,1,8,0:0:0:0:
105,284,494808,1,8,0:0:0:0:
119,334,494874,1,8,0:0:0:0:
102,383,494939,2,0,P|65:355|37:328,3,75.0000028610231
188,286,495200,6,0,P|233:280|272:279,1,75.0000028610231,8|0,0:0|0:0,0:0:0:0:
368,364,495330,2,0,P|323:358|284:357,1,75.0000028610231,8|0,0:0|0:0,0:0:0:0:
353,204,495461,2,0,P|347:249|346:288,3,75.0000028610231
254,169,495721,5,8,0:0:0:0:
222,119,495787,1,8,0:0:0:0:
245,67,495852,1,8,0:0:0:0:
298,47,495917,1,8,0:0:0:0:
350,70,495982,1,8,0:0:0:0:
380,117,496047,1,8,0:0:0:0:
436,126,496113,1,8,0:0:0:0:
484,94,496178,1,8,0:0:0:0:
495,38,496243,6,0,P|375:85|261:135,1,225.000008583069
281,208,496504,1,2,0:0:0:0:
229,247,496569,1,8,0:0:0:0:
169,227,496634,1,2,0:0:0:0:
147,165,496700,1,8,0:0:0:0:
167,105,496765,1,2,0:0:0:0:
146,44,496830,1,8,0:0:0:0:
87,18,496895,1,2,0:0:0:0:
27,43,496961,1,8,0:0:0:0:
10,104,497026,1,2,0:0:0:0:
35,162,497091,1,8,0:0:0:0:
92,189,497156,1,2,0:0:0:0:
135,235,497221,1,8,0:0:0:0:
132,299,497287,1,2,0:0:0:0:
89,340,497352,1,8,0:0:0:0:
37,331,497417,1,2,0:0:0:0:
15,291,497482,1,8,0:0:0:0:
30,256,497547,2,0,L|143:237,3,75.0000028610231,2|8|2|8,0:0|0:0|0:0|0:0,0:0:0:0:
229,340,497808,5,2,0:0:0:0:
234,361,497873,1,8,0:0:0:0:
254,373,497938,1,2,0:0:0:0:
276,373,498003,1,8,0:0:0:0:
296,362,498068,1,2,0:0:0:0:
306,340,498134,1,8,0:0:0:0:
302,316,498200,1,2,0:0:0:0:
285,303,498265,1,8,0:0:0:0:
263,299,498330,2,0,P|268:334|283:386,3,75.0000028610231,2|8|2|8,0:0|0:0|0:0|0:0,0:0:0:0:
288,84,498591,5,2,0:0:0:0:
323,35,498656,1,8,0:0:0:0:
382,22,498721,1,2,0:0:0:0:
438,41,498787,1,8,0:0:0:0:
479,84,498852,1,2,0:0:0:0:
490,142,498917,1,8,0:0:0:0:
464,196,498982,1,2,0:0:0:0:
410,224,499048,1,8,0:0:0:0:
352,207,499113,1,2,0:0:0:0:
334,157,499178,1,8,0:0:0:0:
355,117,499243,1,2,0:0:0:0:
392,109,499308,1,8,0:0:0:0:
417,124,499374,5,2,0:0:0:0:
414,176,499439,1,8,0:0:0:0:
376,212,499504,1,2,0:0:0:0:
323,213,499569,1,8,0:0:0:0:
286,176,499634,1,2,0:0:0:0:
235,158,499700,1,8,0:0:0:0:
185,175,499765,1,2,0:0:0:0:
158,220,499830,1,8,0:0:0:0:
165,271,499895,1,2,0:0:0:0:
142,319,499961,1,8,0:0:0:0:
94,340,500026,1,2,0:0:0:0:
44,321,500091,1,8,0:0:0:0:
17,275,500156,1,2,0:0:0:0:
26,223,500221,1,8,0:0:0:0:
66,189,500287,1,2,0:0:0:0:
112,164,500352,1,8,0:0:0:0:
137,118,500417,1,2,0:0:0:0:
130,66,500482,1,8,0:0:0:0:
94,27,500547,1,2,0:0:0:0:
48,26,500613,1,8,0:0:0:0:
18,48,500678,1,2,0:0:0:0:
12,77,500743,1,8,0:0:0:0:
19,98,500808,1,2,0:0:0:0:
29,108,500874,1,8,0:0:0:0:
48,112,500939,5,2,0:0:0:0:
65,97,501004,1,8,0:0:0:0:
83,85,501069,1,2,0:0:0:0:
103,75,501134,1,8,0:0:0:0:
125,69,501200,1,2,0:0:0:0:
147,66,501265,1,8,0:0:0:0:
169,63,501330,1,2,0:0:0:0:
191,62,501395,1,8,0:0:0:0:
213,63,501461,1,2,0:0:0:0:
235,66,501526,1,8,0:0:0:0:
256,71,501591,1,2,0:0:0:0:
276,79,501656,1,8,0:0:0:0:
295,90,501721,6,0,L|276:187,3,75.0000028610231,2|8|2|8,0:0|0:0|0:0|0:0,0:0:0:0:
403,73,501982,2,0,L|384:-24,3,75.0000028610231,2|8|2|8,0:0|0:0|0:0|0:0,0:0:0:0:
510,148,502243,1,2,0:0:0:0:
512,143,502308,1,8,0:0:0:0:
507,141,502374,2,0,L|421:188,1,75.0000028610231,2|8,0:0|0:0,0:0:0:0:
343,320,502504,5,0,0:0:0:0:
329,329,502569,1,0,0:0:0:0:
322,341,502635,1,0,0:0:0:0:
316,355,502700,1,8,0:0:0:0:
311,369,502765,5,2,0:0:0:0:
253,376,502830,1,8,0:0:0:0:
215,335,502896,1,2,0:0:0:0:
219,279,502961,1,8,0:0:0:0:
261,244,503026,1,2,0:0:0:0:
274,189,503091,1,8,0:0:0:0:
241,142,503156,1,2,0:0:0:0:
186,129,503222,1,8,0:0:0:0:
137,155,503287,1,2,0:0:0:0:
122,208,503352,1,8,0:0:0:0:
140,261,503417,1,2,0:0:0:0:
123,314,503482,1,8,0:0:0:0:
74,342,503548,1,2,0:0:0:0:
23,328,503613,1,8,0:0:0:0:
0,289,503678,1,2,0:0:0:0:
7,252,503743,1,8,0:0:0:0:
31,232,503809,2,0,P|75:248|125:270,3,75.0000028610231,2|8|2|8,0:0|0:0|0:0|0:0,0:0:0:0:
77,76,504069,5,2,0:0:0:0:
72,54,504134,1,8,0:0:0:0:
52,41,504199,1,2,0:0:0:0:
29,43,504264,1,8,0:0:0:0:
9,53,504330,1,2,0:0:0:0:
0,77,504395,1,8,0:0:0:0:
3,99,504461,1,2,0:0:0:0:
22,112,504525,1,8,0:0:0:0:
48,115,504590,2,0,P|61:74|68:39,3,75.0000028610231,2|8|2|8,0:0|0:0|0:0|0:0,0:0:0:0:
220,70,504852,5,2,0:0:0:0:
231,105,504917,1,8,0:0:0:0:
222,141,504982,1,2,0:0:0:0:
190,160,505047,1,8,0:0:0:0:
152,154,505113,5,2,0:0:0:0:
180,105,505178,1,8,0:0:0:0:
235,98,505243,1,2,0:0:0:0:
280,130,505308,1,8,0:0:0:0:
336,120,505374,1,2,0:0:0:0:
362,83,505439,1,8,0:0:0:0:
355,46,505504,1,2,0:0:0:0:
334,24,505569,1,8,0:0:0:0:
319,22,505634,5,2,0:0:0:0:
283,75,505700,1,8,0:0:0:0:
307,133,505765,1,2,0:0:0:0:
362,163,505830,1,8,0:0:0:0:
425,157,505895,1,2,0:0:0:0:
483,183,505961,1,8,0:0:0:0:
507,241,506026,1,2,0:0:0:0:
491,302,506091,1,8,0:0:0:0:
436,335,506156,1,2,0:0:0:0:
373,323,506221,1,8,0:0:0:0:
331,273,506287,1,2,0:0:0:0:
269,258,506352,1,8,0:0:0:0:
210,282,506417,1,2,0:0:0:0:
193,343,506482,1,8,0:0:0:0:
139,376,506547,1,2,0:0:0:0:
74,369,506613,1,8,0:0:0:0:
38,316,506678,1,2,0:0:0:0:
44,252,506743,1,8,0:0:0:0:
86,204,506808,1,2,0:0:0:0:
149,190,506874,1,8,0:0:0:0:
201,159,506939,1,2,0:0:0:0:
220,102,507004,1,8,0:0:0:0:
197,46,507069,1,2,0:0:0:0:
149,23,507134,1,8,0:0:0:0:
96,27,507200,1,2,0:0:0:0:
64,59,507265,1,8,0:0:0:0:
60,103,507330,1,2,0:0:0:0:
80,134,507395,1,8,0:0:0:0:
115,146,507460,1,2,0:0:0:0:
144,139,507526,1,8,0:0:0:0:
160,114,507591,1,2,0:0:0:0:
158,91,507656,1,8,0:0:0:0:
141,75,507721,1,2,0:0:0:0:
125,75,507787,1,8,0:0:0:0:
113,85,507852,1,2,0:0:0:0:
110,91,507917,1,8,0:0:0:0:
109,98,507982,6,0,L|144:208,3,75.0000028610231,2|8|2|8,0:0|0:0|0:0|0:0,0:0:0:0:
206,243,508243,2,0,L|171:353,3,75.0000028610231,2|8|2|8,0:0|0:0|0:0|0:0,0:0:0:0:
26,239,508504,1,2,0:0:0:0:
23,231,508569,1,8,0:0:0:0:
30,229,508634,2,0,L|131:269,1,75.0000028610231,2|8,0:0|0:0,0:0:0:0:
272,344,508765,5,2,0:0:0:0:
329,371,508830,1,8,0:0:0:0:
387,346,508895,1,2,0:0:0:0:
401,284,508960,1,8,0:0:0:0:
358,235,509026,1,2,0:0:0:0:
348,172,509091,1,8,0:0:0:0:
381,117,509156,1,2,0:0:0:0:
442,102,509221,1,8,0:0:0:0:
499,132,509287,1,2,0:0:0:0:
510,194,509352,1,8,0:0:0:0:
477,248,509417,1,2,0:0:0:0:
414,260,509482,1,8,0:0:0:0:
361,223,509547,1,2,0:0:0:0:
354,158,509613,1,8,0:0:0:0:
309,112,509678,1,2,0:0:0:0:
245,105,509743,1,8,0:0:0:0:
198,148,509808,1,2,0:0:0:0:
144,149,509874,1,8,0:0:0:0:
109,120,509939,1,2,0:0:0:0:
105,82,510004,1,8,0:0:0:0:
121,57,510069,2,0,L|222:83,3,75.0000028610231,2|8|2|8,0:0|0:0|0:0|0:0,0:0:0:0:
22,175,510330,5,2,0:0:0:0:
4,187,510395,1,8,0:0:0:0:
0,210,510460,1,2,0:0:0:0:
7,230,510525,1,8,0:0:0:0:
24,245,510591,1,2,0:0:0:0:
49,247,510656,1,8,0:0:0:0:
70,235,510721,1,2,0:0:0:0:
76,215,510786,1,8,0:0:0:0:
73,193,510851,2,0,P|37:202|-11:220,3,75.0000028610231,2|8|2|8,0:0|0:0|0:0|0:0,0:0:0:0:
264,276,511113,5,2,0:0:0:0:
264,335,511178,1,8,0:0:0:0:
213,366,511243,1,2,0:0:0:0:
155,349,511308,1,8,0:0:0:0:
138,290,511374,1,2,0:0:0:0:
166,237,511439,1,8,0:0:0:0:
222,216,511504,1,2,0:0:0:0:
279,232,511569,1,8,0:0:0:0:
321,274,511634,1,2,0:0:0:0:
373,279,511700,1,8,0:0:0:0:
408,251,511765,1,2,0:0:0:0:
418,215,511830,1,8,0:0:0:0:
408,186,511895,5,2,0:0:0:0:
357,200,511960,1,8,0:0:0:0:
340,250,512026,1,2,0:0:0:0:
359,298,512091,1,8,0:0:0:0:
404,323,512156,1,2,0:0:0:0:
455,313,512221,1,8,0:0:0:0:
479,265,512287,1,2,0:0:0:0:
476,212,512352,1,8,0:0:0:0:
438,175,512417,1,2,0:0:0:0:
385,171,512482,1,8,0:0:0:0:
342,202,512547,1,2,0:0:0:0:
311,245,512613,1,8,0:0:0:0:
260,257,512678,1,2,0:0:0:0:
211,237,512743,1,8,0:0:0:0:
189,189,512808,1,2,0:0:0:0:
202,137,512874,1,8,0:0:0:0:
189,86,512939,1,2,0:0:0:0:
149,52,513004,1,8,0:0:0:0:
96,53,513069,1,2,0:0:0:0:
59,79,513134,1,8,0:0:0:0:
51,116,513200,1,2,0:0:0:0:
61,144,513265,1,8,0:0:0:0:
78,157,513330,1,2,0:0:0:0:
92,157,513395,1,8,0:0:0:0:
97,152,513460,5,2,0:0:0:0:
101,129,513526,1,8,0:0:0:0:
110,108,513591,1,2,0:0:0:0:
122,89,513656,1,8,0:0:0:0:
138,73,513721,1,2,0:0:0:0:
156,59,513787,1,8,0:0:0:0:
176,49,513852,1,2,0:0:0:0:
197,41,513917,1,8,0:0:0:0:
219,36,513982,1,2,0:0:0:0:
241,34,514047,1,8,0:0:0:0:
263,35,514113,1,2,0:0:0:0:
284,39,514178,1,8,0:0:0:0:
304,48,514243,6,0,P|280:82|260:132,3,75.0000028610231,2|8|2|8,0:0|0:0|0:0|0:0,0:0:0:0:
360,236,514504,2,0,P|324:222|276:212,3,75.0000028610231,2|8|2|8,0:0|0:0|0:0|0:0,0:0:0:0:
447,125,514765,1,2,0:0:0:0:
442,118,514830,1,8,0:0:0:0:
435,114,514895,2,0,P|381:128|352:146,1,75.0000028610231,2|8,0:0|0:0,0:0:0:0:
33,98,515026,5,2,0:0:0:0:
45,35,515091,1,8,0:0:0:0:
100,4,515156,1,2,0:0:0:0:
160,25,515222,1,8,0:0:0:0:
187,82,515287,1,2,0:0:0:0:
165,141,515352,1,8,0:0:0:0:
112,177,515417,1,2,0:0:0:0:
90,236,515482,1,8,0:0:0:0:
107,297,515548,1,2,0:0:0:0:
166,320,515613,1,8,0:0:0:0:
227,302,515678,1,2,0:0:0:0:
256,245,515743,1,8,0:0:0:0:
317,225,515808,1,2,0:0:0:0:
374,251,515874,1,8,0:0:0:0:
395,310,515939,1,2,0:0:0:0:
370,368,516004,1,8,0:0:0:0:
307,384,516069,1,2,0:0:0:0:
259,359,516135,1,8,0:0:0:0:
252,314,516200,1,2,0:0:0:0:
272,282,516265,1,8,0:0:0:0:
300,273,516330,2,0,P|338:289|380:312,3,75.0000028610231,2|8|2|8,0:0|0:0|0:0|0:0,0:0:0:0:
466,114,516591,5,2,0:0:0:0:
427,59,516656,1,8,0:0:0:0:
360,50,516721,1,2,0:0:0:0:
305,91,516787,1,8,0:0:0:0:
288,156,516852,1,2,0:0:0:0:
230,190,516917,1,8,0:0:0:0:
164,173,516982,1,2,0:0:0:0:
132,113,517047,1,8,0:0:0:0:
153,48,517113,1,2,0:0:0:0:
208,26,517178,1,8,0:0:0:0:
254,49,517243,1,2,0:0:0:0:
262,93,517308,1,8,0:0:0:0:
241,125,517374,5,2,0:0:0:0:
205,77,517439,1,8,0:0:0:0:
224,20,517504,1,2,0:0:0:0:
280,0,517569,1,8,0:0:0:0:
336,18,517634,1,2,0:0:0:0:
365,70,517700,1,8,0:0:0:0:
351,128,517765,1,2,0:0:0:0:
373,183,517830,1,8,0:0:0:0:
427,206,517895,1,2,0:0:0:0:
477,191,517960,1,8,0:0:0:0:
494,149,518026,1,2,0:0:0:0:
479,114,518091,1,8,0:0:0:0:
451,101,518156,5,2,0:0:0:0:
405,133,518221,1,8,0:0:0:0:
407,189,518287,1,2,0:0:0:0:
448,227,518352,1,8,0:0:0:0:
485,268,518417,1,2,0:0:0:0:
482,324,518482,1,8,0:0:0:0:
442,363,518547,1,2,0:0:0:0:
385,362,518613,1,8,0:0:0:0:
344,323,518678,1,2,0:0:0:0:
301,308,518743,1,8,0:0:0:0:
265,320,518808,1,2,0:0:0:0:
253,348,518874,1,8,0:0:0:0:
256,370,518939,2,0,L|345:351,3,75.0000028610231,2|8|2|8,0:0|0:0|0:0|0:0,0:0:0:0:
8,294,519200,5,8,0:0:0:0:
66,284,519265,1,8,0:0:0:0:
125,274,519330,1,8,0:0:0:0:
183,265,519395,1,8,0:0:0:0:
242,255,519461,1,8,0:0:0:0:
300,244,519526,1,8,0:0:0:0:
360,235,519591,1,8,0:0:0:0:
418,223,519656,1,8,0:0:0:0:
475,214,519721,2,0,L|503:295,3,75.0000028610231,8|0|0|0,0:0|0:0|0:0|0:0,0:0:0:0:
308,134,519982,6,0,L|336:53,3,75.0000028610231,2|0|0|0,0:0|0:0|0:0|0:0,0:0:0:0:
419,94,520243,2,0,L|447:13,3,75.0000028610231,2|0|0|0,0:0|0:0|0:0|0:0,0:0:0:0:
228,77,520504,5,8,0:0:0:0:
190,82,520569,1,8,0:0:0:0:
152,87,520634,1,8,0:0:0:0:
114,91,520700,1,8,0:0:0:0:
76,96,520765,2,0,L|53:2,3,75.0000028610231,8|8|8|8,0:0|0:0|0:0|0:0,0:0:0:0:
181,192,521026,5,0,0:0:0:0:
280,0,521156,1,0,0:0:0:0:
29,188,521287,6,0,P|137:222|256:268,1,225.000008583069,4|0,0:0|0:0,0:0:0:0:
344,345,521547,5,2,0:0:0:0:
315,287,521613,1,8,0:0:0:0:
332,225,521678,1,2,0:0:0:0:
390,200,521743,1,8,0:0:0:0:
429,150,521808,1,2,0:0:0:0:
425,85,521874,1,8,0:0:0:0:
373,48,521939,1,2,0:0:0:0:
309,56,522004,1,8,0:0:0:0:
276,110,522069,1,2,0:0:0:0:
280,173,522134,1,8,0:0:0:0:
236,220,522200,1,2,0:0:0:0:
172,220,522265,1,8,0:0:0:0:
141,172,522330,1,2,0:0:0:0:
145,127,522395,1,8,0:0:0:0:
174,104,522460,1,2,0:0:0:0:
204,100,522526,1,8,0:0:0:0:
225,105,522591,2,0,P|231:145|235:191,3,75.0000028610231,2|8|2|8,0:0|0:0|0:0|0:0,0:0:0:0:
178,316,522852,5,2,0:0:0:0:
209,295,522917,1,8,0:0:0:0:
244,284,522982,1,2,0:0:0:0:
281,281,523047,1,8,0:0:0:0:
318,284,523113,1,2,0:0:0:0:
353,294,523178,1,8,0:0:0:0:
385,312,523243,1,2,0:0:0:0:
409,340,523308,1,8,0:0:0:0:
423,375,523374,2,0,P|386:371|349:366,3,75.0000028610231,2|8|2|8,0:0|0:0|0:0|0:0,0:0:0:0:
455,275,523634,5,2,0:0:0:0:
488,220,523700,1,8,0:0:0:0:
479,156,523765,1,2,0:0:0:0:
427,118,523830,1,8,0:0:0:0:
363,119,523895,1,2,0:0:0:0:
320,166,523960,1,8,0:0:0:0:
315,230,524026,1,2,0:0:0:0:
265,270,524091,1,8,0:0:0:0:
201,266,524156,1,2,0:0:0:0:
168,211,524221,1,8,0:0:0:0:
178,147,524287,1,2,0:0:0:0:
234,117,524352,1,8,0:0:0:0:
296,129,524417,5,2,0:0:0:0:
281,183,524482,1,8,0:0:0:0:
229,205,524547,1,2,0:0:0:0:
173,191,524613,1,8,0:0:0:0:
144,142,524678,1,2,0:0:0:0:
91,122,524743,1,8,0:0:0:0:
36,136,524808,1,2,0:0:0:0:
12,187,524874,1,8,0:0:0:0:
28,240,524939,1,2,0:0:0:0:
76,267,525004,1,8,0:0:0:0:
131,257,525069,1,2,0:0:0:0:
173,220,525134,1,8,0:0:0:0:
229,211,525200,1,2,0:0:0:0:
277,239,525265,1,8,0:0:0:0:
298,290,525330,1,2,0:0:0:0:
340,326,525395,1,8,0:0:0:0:
396,330,525461,1,2,0:0:0:0:
446,304,525526,1,8,0:0:0:0:
466,251,525591,1,2,0:0:0:0:
456,195,525656,1,8,0:0:0:0:
414,162,525721,1,2,0:0:0:0:
364,156,525787,1,8,0:0:0:0:
324,176,525852,1,2,0:0:0:0:
303,211,525917,1,8,0:0:0:0:
303,248,525982,1,2,0:0:0:0:
318,277,526047,1,8,0:0:0:0:
342,294,526113,1,2,0:0:0:0:
366,303,526178,1,8,0:0:0:0:
388,301,526243,1,2,0:0:0:0:
405,294,526308,1,8,0:0:0:0:
415,282,526374,1,2,0:0:0:0:
418,271,526439,1,8,0:0:0:0:
415,259,526504,1,2,0:0:0:0:
408,249,526569,1,8,0:0:0:0:
398,242,526634,1,2,0:0:0:0:
386,240,526700,1,8,0:0:0:0:
374,241,526765,2,0,P|368:281|364:327,3,75.0000028610231,2|8|2|8,0:0|0:0|0:0|0:0,0:0:0:0:
266,384,527026,2,0,P|260:344|256:298,3,75.0000028610231,2|8|2|8,0:0|0:0|0:0|0:0,0:0:0:0:
181,161,527287,5,2,0:0:0:0:
178,168,527352,1,8,0:0:0:0:
186,170,527417,2,0,P|226:164|271:160,1,75.0000028610231,2|8,0:0|0:0,0:0:0:0:
71,298,527547,5,2,0:0:0:0:
112,248,527613,1,8,0:0:0:0:
104,184,527678,1,2,0:0:0:0:
55,142,527743,1,8,0:0:0:0:
47,78,527808,1,2,0:0:0:0:
85,26,527874,1,8,0:0:0:0:
147,17,527939,1,2,0:0:0:0:
200,50,528004,1,8,0:0:0:0:
212,112,528069,1,2,0:0:0:0:
186,170,528134,1,8,0:0:0:0:
207,230,528200,1,2,0:0:0:0:
266,251,528265,1,8,0:0:0:0:
326,231,528330,1,2,0:0:0:0:
346,170,528395,1,8,0:0:0:0:
324,109,528461,1,2,0:0:0:0:
345,49,528526,1,8,0:0:0:0:
404,27,528591,1,2,0:0:0:0:
457,42,528656,1,8,0:0:0:0:
482,78,528721,1,2,0:0:0:0:
477,115,528787,1,8,0:0:0:0:
459,139,528852,2,0,P|426:115|391:85,3,75.0000028610231,2|8|2|8,0:0|0:0|0:0|0:0,0:0:0:0:
356,234,529113,5,2,0:0:0:0:
400,235,529178,1,8,0:0:0:0:
435,262,529243,1,2,0:0:0:0:
444,305,529308,1,8,0:0:0:0:
428,347,529374,1,2,0:0:0:0:
388,368,529439,1,8,0:0:0:0:
343,365,529504,1,2,0:0:0:0:
311,332,529569,1,8,0:0:0:0:
299,288,529634,1,2,0:0:0:0:
261,262,529700,1,8,0:0:0:0:
216,260,529765,1,2,0:0:0:0:
179,286,529830,1,8,0:0:0:0:
168,329,529895,2,0,P|205:325|242:320,3,75.0000028610231,2|8|2|8,0:0|0:0|0:0|0:0,0:0:0:0:
62,295,530156,5,2,0:0:0:0:
65,288,530221,1,8,0:0:0:0:
68,281,530287,1,2,0:0:0:0:
70,273,530352,1,8,0:0:0:0:
72,265,530417,1,2,0:0:0:0:
73,257,530482,1,8,0:0:0:0:
74,249,530547,1,2,0:0:0:0:
74,241,530613,1,8,0:0:0:0:
73,233,530678,5,2,0:0:0:0:
130,259,530743,1,8,0:0:0:0:
192,247,530808,1,2,0:0:0:0:
225,191,530874,1,8,0:0:0:0:
204,131,530939,1,2,0:0:0:0:
226,71,531004,1,8,0:0:0:0:
283,44,531069,1,2,0:0:0:0:
343,64,531134,1,8,0:0:0:0:
370,122,531200,1,2,0:0:0:0:
356,184,531265,1,8,0:0:0:0:
303,220,531330,1,2,0:0:0:0:
289,282,531395,1,8,0:0:0:0:
309,343,531461,1,2,0:0:0:0:
366,370,531526,1,8,0:0:0:0:
427,355,531591,1,2,0:0:0:0:
458,300,531656,1,8,0:0:0:0:
450,236,531721,5,8,0:0:0:0:
390,245,531787,1,8,0:0:0:0:
330,249,531852,1,8,0:0:0:0:
270,245,531917,1,8,0:0:0:0:
210,235,531982,1,8,0:0:0:0:
155,211,532047,1,8,0:0:0:0:
104,177,532113,1,8,0:0:0:0:
67,129,532178,1,8,0:0:0:0:
62,69,532243,2,0,L|138:55,3,75.0000028610231,8|0|0|0,0:0|0:0|0:0|0:0,0:0:0:0:
267,27,532504,5,8,0:0:0:0:
262,39,532569,1,8,0:0:0:0:
257,51,532634,1,8,0:0:0:0:
252,63,532699,1,8,0:0:0:0:
247,76,532765,2,0,P|255:120|262:163,3,75.0000028610231,10|8|8|8,0:0|0:0|0:0|0:0,0:0:0:0:
375,226,533026,5,8,0:0:0:0:
380,238,533091,1,8,0:0:0:0:
385,250,533156,1,8,0:0:0:0:
390,262,533221,1,8,0:0:0:0:
395,275,533287,2,0,P|387:319|380:362,3,75.0000028610231,8|8|8|8,0:0|0:0|0:0|0:0,0:0:0:0:
245,371,533547,5,0,0:0:0:0:
501,232,533678,1,0,0:0:0:0:
314,60,533808,6,0,P|279:152|221:311,1,225.000008583069
152,342,534069,5,2,0:0:0:0:
100,365,534134,1,8,0:0:0:0:
44,350,534200,1,2,0:0:0:0:
20,299,534265,1,8,0:0:0:0:
40,246,534330,1,2,0:0:0:0:
94,231,534395,1,8,0:0:0:0:
130,187,534461,1,2,0:0:0:0:
128,130,534526,1,8,0:0:0:0:
84,94,534591,1,2,0:0:0:0:
28,102,534656,1,8,0:0:0:0:
3,152,534721,1,2,0:0:0:0:
15,207,534787,1,8,0:0:0:0:
65,231,534852,1,2,0:0:0:0:
107,218,534917,1,8,0:0:0:0:
130,187,534982,1,2,0:0:0:0:
132,157,535047,1,8,0:0:0:0:
117,139,535113,2,0,P|80:164|45:190,3,75.0000028610231,2|8|2|8,0:0|0:0|0:0|0:0,0:0:0:0:
183,66,535374,5,2,0:0:0:0:
210,91,535439,1,8,0:0:0:0:
245,103,535504,1,2,0:0:0:0:
281,109,535569,1,8,0:0:0:0:
318,109,535634,1,2,0:0:0:0:
354,100,535700,1,8,0:0:0:0:
386,82,535765,1,2,0:0:0:0:
411,54,535830,1,8,0:0:0:0:
424,19,535895,2,0,P|380:11|337:4,3,75.0000028610231,2|8|2|8,0:0|0:0|0:0|0:0,0:0:0:0:
496,188,536156,5,2,0:0:0:0:
440,157,536221,1,8,0:0:0:0:
377,171,536287,1,2,0:0:0:0:
344,225,536352,1,8,0:0:0:0:
351,288,536417,1,2,0:0:0:0:
315,340,536482,1,8,0:0:0:0:
252,349,536547,1,2,0:0:0:0:
194,320,536613,1,8,0:0:0:0:
178,258,536678,1,2,0:0:0:0:
201,198,536743,1,8,0:0:0:0:
254,163,536808,1,2,0:0:0:0:
265,99,536874,1,8,0:0:0:0:
234,43,536939,5,2,0:0:0:0:
192,80,537004,1,8,0:0:0:0:
186,135,537069,1,2,0:0:0:0:
219,179,537134,1,8,0:0:0:0:
273,195,537200,1,2,0:0:0:0:
323,170,537265,1,8,0:0:0:0:
343,117,537330,1,2,0:0:0:0:
392,89,537395,1,8,0:0:0:0:
446,99,537460,1,2,0:0:0:0:
483,141,537526,1,8,0:0:0:0:
480,197,537591,1,2,0:0:0:0:
448,243,537656,1,8,0:0:0:0:
393,254,537721,1,2,0:0:0:0:
337,240,537787,1,8,0:0:0:0:
301,196,537852,1,2,0:0:0:0:
245,190,537917,1,8,0:0:0:0:
193,213,537982,1,2,0:0:0:0:
173,265,538047,1,8,0:0:0:0:
187,320,538113,1,2,0:0:0:0:
236,346,538178,1,8,0:0:0:0:
288,344,538243,1,2,0:0:0:0:
323,311,538308,1,8,0:0:0:0:
329,265,538374,1,2,0:0:0:0:
310,228,538439,1,8,0:0:0:0:
276,211,538504,1,2,0:0:0:0:
242,215,538569,1,8,0:0:0:0:
216,231,538634,1,2,0:0:0:0:
207,256,538700,1,8,0:0:0:0:
207,278,538765,1,2,0:0:0:0:
216,294,538830,1,8,0:0:0:0:
228,302,538895,1,2,0:0:0:0:
238,304,538960,1,8,0:0:0:0:
249,302,539026,1,2,0:0:0:0:
257,294,539091,1,8,0:0:0:0:
259,283,539156,1,2,0:0:0:0:
254,272,539221,1,8,0:0:0:0:
245,265,539287,2,0,P|237:309|230:352,3,75.0000028610231,2|8|2|8,0:0|0:0|0:0|0:0,0:0:0:0:
139,215,539547,2,0,P|131:171|124:128,3,75.0000028610231,2|8|2|8,0:0|0:0|0:0|0:0,0:0:0:0:
222,40,539808,5,2,0:0:0:0:
228,37,539873,1,8,0:0:0:0:
225,30,539938,2,0,P|187:27|150:21,1,75.0000028610231,2|8,0:0|0:0,0:0:0:0:
264,194,540069,5,2,0:0:0:0:
279,132,540134,1,8,0:0:0:0:
332,96,540200,1,2,0:0:0:0:
395,99,540265,1,8,0:0:0:0:
441,141,540330,1,2,0:0:0:0:
445,204,540395,1,8,0:0:0:0:
413,259,540460,1,2,0:0:0:0:
352,280,540526,1,8,0:0:0:0:
290,263,540591,1,2,0:0:0:0:
256,208,540656,1,8,0:0:0:0:
195,188,540721,1,2,0:0:0:0:
132,204,540787,1,8,0:0:0:0:
106,262,540852,1,2,0:0:0:0:
117,324,540917,1,8,0:0:0:0:
166,364,540982,1,2,0:0:0:0:
229,359,541047,1,8,0:0:0:0:
276,315,541113,1,2,0:0:0:0:
292,253,541178,1,8,0:0:0:0:
337,208,541243,1,2,0:0:0:0:
400,209,541308,1,8,0:0:0:0:
432,264,541374,2,0,P|395:270|358:277,3,75.0000028610231,2|8|2|8,0:0|0:0|0:0|0:0,0:0:0:0:
467,67,541634,5,2,0:0:0:0:
414,110,541700,1,8,0:0:0:0:
346,108,541765,1,2,0:0:0:0:
302,56,541830,1,8,0:0:0:0:
238,33,541895,1,2,0:0:0:0:
172,49,541960,1,8,0:0:0:0:
144,111,542026,1,2,0:0:0:0:
168,173,542091,1,8,0:0:0:0:
227,205,542156,1,2,0:0:0:0:
241,270,542221,1,8,0:0:0:0:
203,326,542287,1,2,0:0:0:0:
136,332,542352,1,8,0:0:0:0:
89,283,542417,5,2,0:0:0:0:
95,279,542482,1,8,0:0:0:0:
102,277,542547,1,2,0:0:0:0:
109,275,542613,1,8,0:0:0:0:
116,274,542678,1,2,0:0:0:0:
123,273,542743,1,8,0:0:0:0:
130,273,542808,1,2,0:0:0:0:
137,273,542874,1,8,0:0:0:0:
144,273,542939,1,2,0:0:0:0:
151,273,543004,1,8,0:0:0:0:
158,273,543069,1,2,0:0:0:0:
165,273,543134,1,8,0:0:0:0:
172,274,543200,5,2,0:0:0:0:
202,218,543265,1,8,0:0:0:0:
262,199,543330,1,2,0:0:0:0:
321,221,543395,1,8,0:0:0:0:
342,280,543460,5,8,0:0:0:0:
289,311,543526,1,8,0:0:0:0:
229,303,543591,1,8,0:0:0:0:
183,264,543656,1,8,0:0:0:0:
169,205,543721,1,8,0:0:0:0:
190,148,543787,1,8,0:0:0:0:
241,116,543852,1,8,0:0:0:0:
300,114,543917,1,8,0:0:0:0:
354,139,543982,2,0,P|360:176|367:213,3,75.0000028610231,8|0|0|0,0:0|0:0|0:0|0:0,0:0:0:0:
411,11,544243,5,8,0:0:0:0:
351,18,544308,1,8,0:0:0:0:
290,26,544374,1,8,0:0:0:0:
231,37,544439,1,8,0:0:0:0:
172,49,544504,2,0,P|128:41|85:34,3,75.0000028610231
26,172,544765,5,8,0:0:0:0:
78,142,544830,1,8,0:0:0:0:
137,148,544895,1,8,0:0:0:0:
172,196,544960,1,8,0:0:0:0:
166,256,545026,5,8,0:0:0:0:
133,214,545091,1,8,0:0:0:0:
147,163,545156,1,8,0:0:0:0:
196,147,545221,1,8,0:0:0:0:
242,172,545287,2,0,P|286:180|329:187,3,75.0000028610231
467,358,545547,5,8,0:0:0:0:
300,94,545678,1,8,0:0:0:0:
289,351,545808,1,8,0:0:0:0:
397,173,545939,1,8,0:0:0:0:
281,254,546069,1,8,0:0:0:0:
313,263,546200,1,8,0:0:0:0:
120,152,546330,6,0,B|174:108|146:49|146:49|149:53|149:53|214:82|265:38,1,237.5,4|0,0:3|0:0,0:0:0:0:
236,323,548677,6,0,P|242:285|255:221,1,100,0|0,3:0|0:0,0:0:0:0:
238,107,549460,6,1,B|195:118|191:160|191:160|193:148|193:148|177:47|276:27|276:27|281:16|281:16|330:59|323:127|323:127|331:137|331:137|317:212|382:259,1,537.5,4|0,3:3|0:0,0:0:0:0:
414,346,552590,6,1,B|381:368|331:355|313:318|313:318|308:323|308:323|282:296|229:302|201:335,1,237.5,4|0,3:3|0:0,0:0:0:0:
67,93,554938,6,0,P|72:132|79:195,1,100,4|0,3:3|0:0,0:0:0:0:
57,324,555721,6,1,B|24:259|24:259|16:254|16:254|67:272|67:272|106:269|106:269|111:273|111:273|227:311,1,300,4|8,3:3|0:0,0:0:0:0:
310,368,557416,1,8,0:0:0:0:
377,332,557547,1,8,0:0:0:0:
390,276,557677,1,8,0:0:0:0:
367,229,557808,1,8,0:0:0:0:
340,190,557938,1,8,0:0:0:0:
336,146,558069,2,8,L|348:143,1,12.5
352,110,558199,1,8,0:0:0:0:
384,97,558330,1,8,0:0:0:0:
411,104,558460,1,8,0:0:0:0:
423,121,558590,1,8,0:0:0:0:
420,138,558721,1,8,0:0:0:0:
409,152,558851,6,0,P|358:136|249:96,1,162.5,4|0,3:3|0:0,0:0:0:0:
190,30,560090,1,0,0:0:0:0:
190,30,561199,1,0,0:0:0:0:
131,125,561982,6,1,B|152:77|206:39|206:39|214:38|214:38|135:48|64:46|64:46|70:51|70:51|67:136|147:178|147:178|141:183|141:183|171:220|156:268,1,537.5,4|0,3:3|0:0,0:0:0:0:
225,331,565112,6,1,B|207:355|179:362|179:362|267:386|309:311|309:311|310:319|310:319|352:286|408:296,1,312.5,4|0,3:3|0:0,0:0:0:0:
474,320,567460,6,0,P|482:296|484:294,2,25
403,204,568243,6,1,B|404:163|432:121|432:121|328:89|290:7|290:7|303:98|247:186|247:186|290:204|320:233,1,550,4|0,3:3|0:0,0:0:0:0:
224,366,571373,6,0,P|230:311|240:248,1,100,4|0,3:3|0:0,0:0:0:0:
145,292,572156,2,0,P|139:237|129:174,1,100,4|0,3:3|0:0,0:0:0:0:
227,243,572938,2,0,P|233:188|243:125,1,100,4|0,3:3|0:0,0:0:0:0:
146,174,573721,2,0,P|140:119|130:56,1,100,4|0,3:3|0:0,0:0:0:0:
280,61,574503,6,1,B|238:74|214:16|327:-19|373:6|401:108|287:136|287:136|280:134|280:134|199:164|223:239|223:239|220:239|220:239|246:283|327:296|361:224|361:224|357:218|357:218|389:112|477:150|500:170|527:223|519:273|454:306|418:279|436:246,1,932.750014232636,4|0,3:3|0:0,0:0:0:0:
255,192,580764,5,4,3:3:0:0:
256,192,580895,12,0,587025,0:0:0:0:
