osu file format v14

[General]
AudioFilename: audio.mp3
AudioLeadIn: 0
PreviewTime: -1
Countdown: 1
SampleSet: Normal
StackLeniency: 0.7
Mode: 3
LetterboxInBreaks: 0
SpecialStyle: 0
WidescreenStoryboard: 0

[Editor]
DistanceSpacing: 1
BeatDivisor: 8
GridSize: 4
TimelineZoom: 1

[Metadata]
Title:Winds & Clouds
TitleUnicode:Winds & Clouds
Artist:Keenster
ArtistUnicode:Keenster
Creator:Keenster
Version:4K abandoned
Source:DNB
Tags:
BeatmapID:1794249
BeatmapSetID:858539

[Difficulty]
HPDrainRate:7
CircleSize:4
OverallDifficulty:7
ApproachRate:5
SliderMultiplier:1.4
SliderTickRate:1

[Events]
//Background and Video events
0,0,"bg.png",0,0
//Break Periods
//Storyboard Layer 0 (Background)
//Storyboard Layer 1 (Fail)
//Storyboard Layer 2 (Pass)
//Storyboard Layer 3 (Foreground)
//Storyboard Sound Samples

[TimingPoints]
0,348.837209302326,4,1,0,100,1,0

[HitObjects]
64,192,847,5,0,0:0:0:0:
320,192,847,1,0,0:0:0:0:
320,192,1309,1,0,0:0:0:0:
64,192,1694,1,0,0:0:0:0:
192,192,2002,1,0,0:0:0:0:
320,192,2310,1,0,0:0:0:0:
64,192,2618,1,0,0:0:0:0:
192,192,3003,1,0,0:0:0:0:
320,192,3311,1,0,0:0:0:0:
448,192,3619,1,0,0:0:0:0:
64,192,4004,1,0,0:0:0:0:
192,192,4312,1,0,0:0:0:0:
320,192,4620,1,0,0:0:0:0:
448,192,5005,1,0,0:0:0:0:
448,192,5390,1,0,0:0:0:0:
320,192,5698,1,0,0:0:0:0:
192,192,6006,1,0,0:0:0:0:
320,192,6314,1,0,0:0:0:0:
64,192,6622,1,0,0:0:0:0:
192,192,6976,1,0,0:0:0:0:
320,192,7325,1,0,0:0:0:0:
448,192,7674,1,0,0:0:0:0:
64,192,8008,1,0,0:0:0:0:
192,192,8316,1,0,0:0:0:0:
320,192,8633,1,0,0:0:0:0:
448,192,8982,1,0,0:0:0:0:
64,192,9331,1,0,0:0:0:0:
192,192,9680,1,0,0:0:0:0:
448,192,10010,1,0,0:0:0:0:
64,192,10377,1,0,0:0:0:0:
320,192,10377,1,0,0:0:0:0:
64,192,10639,128,0,15959:0:0:0:0:
192,192,11011,1,0,0:0:0:0:
320,192,11319,1,0,0:0:0:0:
448,192,11627,1,0,0:0:0:0:
192,192,12012,1,0,0:0:0:0:
192,192,12320,1,0,0:0:0:0:
320,192,12628,1,0,0:0:0:0:
448,192,12936,1,0,0:0:0:0:
320,192,13321,1,0,0:0:0:0:
192,192,13629,1,0,0:0:0:0:
320,192,14014,1,0,0:0:0:0:
448,192,14322,1,0,0:0:0:0:
192,192,14630,1,0,0:0:0:0:
192,192,15000,1,0,0:0:0:0:
320,192,15323,1,0,0:0:0:0:
448,192,15708,1,0,0:0:0:0:
448,192,15959,1,0,0:0:0:0:
320,192,15959,1,0,0:0:0:0:
192,192,16324,1,0,0:0:0:0:
320,192,16632,1,0,0:0:0:0:
448,192,17005,1,0,0:0:0:0:
320,192,17005,1,0,0:0:0:0:
192,192,17325,1,0,0:0:0:0:
64,192,17703,1,0,0:0:0:0:
320,192,18018,1,0,0:0:0:0:
192,192,18313,1,0,0:0:0:0:
320,192,18634,1,0,0:0:0:0:
192,192,19019,1,0,0:0:0:0:
64,192,19327,1,0,0:0:0:0:
64,192,19709,1,0,0:0:0:0:
448,192,19709,1,0,0:0:0:0:
320,192,19709,1,0,0:0:0:0:
320,192,20020,1,0,0:0:0:0:
192,192,20328,1,0,0:0:0:0:
64,192,20636,1,0,0:0:0:0:
64,192,21017,1,0,0:0:0:0:
64,192,21279,1,0,0:0:0:0:
192,192,21279,1,0,0:0:0:0:
320,192,21279,1,0,0:0:0:0:
448,192,21279,1,0,0:0:0:0:
320,192,21453,1,0,0:0:0:0:
448,192,21540,1,0,0:0:0:0:
64,192,21627,1,0,0:0:0:0:
192,192,21627,1,0,0:0:0:0:
448,192,21802,1,0,0:0:0:0:
320,192,21889,1,0,0:0:0:0:
192,192,21976,1,0,0:0:0:0:
64,192,22063,1,0,0:0:0:0:
320,192,22151,1,0,0:0:0:0:
448,192,22151,1,0,0:0:0:0:
192,192,22325,1,0,0:0:0:0:
320,192,22500,1,0,0:0:0:0:
192,192,22587,1,0,0:0:0:0:
320,192,22674,1,0,0:0:0:0:
448,192,22674,1,0,0:0:0:0:
192,192,22848,1,0,0:0:0:0:
320,192,22936,1,0,0:0:0:0:
64,192,23023,1,0,0:0:0:0:
192,192,23023,1,0,0:0:0:0:
320,192,23197,1,0,0:0:0:0:
448,192,23284,1,0,0:0:0:0:
320,192,23372,1,0,0:0:0:0:
448,192,23459,1,0,0:0:0:0:
192,192,23546,1,0,0:0:0:0:
64,192,23546,1,0,0:0:0:0:
320,192,23720,1,0,0:0:0:0:
