osu file format v14

[General]
AudioFilename: audio.mp3
AudioLeadIn: 0
PreviewTime: -1
Countdown: 0
SampleSet: None
StackLeniency: 0.7
Mode: 3
LetterboxInBreaks: 0
SpecialStyle: 0
WidescreenStoryboard: 0

[Editor]
DistanceSpacing: 1.2
BeatDivisor: 4
GridSize: 4
TimelineZoom: 1

[Metadata]
Title:Winds & Clouds
TitleUnicode:Winds & Clouds
Artist:Keenster
ArtistUnicode:Keenster
Creator:Keenster
Version:4K Easy!
Source:DNB
Tags:
BeatmapID:1794244
BeatmapSetID:858539

[Difficulty]
HPDrainRate:8
CircleSize:4
OverallDifficulty:8
ApproachRate:5
SliderMultiplier:1.4
SliderTickRate:1

[Events]
//Background and Video events
0,0,"bg.png",0,0
//Break Periods
2,200,4149
2,5549,9450
2,10850,14847
2,16247,20079
//Storyboard Layer 0 (Background)
//Storyboard Layer 1 (Fail)
//Storyboard Layer 2 (Pass)
//Storyboard Layer 3 (Foreground)
//Storyboard Sound Samples
Sample,26860,0,"0_G1_172_768.wav",78
Sample,32442,0,"0_G1_172_96.wav",78
Sample,32442,0,"0_G1_172_768.wav",78
Sample,33837,0,"0_G2_172_384.wav",78
Sample,35233,0,"0_C3_172_96.wav",78
Sample,36628,0,"0_A#1_172_384.wav",78
Sample,36628,0,"0_D2_172_96.wav",78
Sample,38023,0,"0_G1_172_96.wav",78
Sample,38023,0,"0_G2_172_96.wav",78
Sample,40988,0,"0_D2_172_96.wav",78
Sample,41163,0,"0_G2_172_96.wav",78
Sample,41337,0,"0_A2_172_96.wav",78
Sample,41512,0,"0_G1_172_96.wav",78
Sample,41686,0,"0_D2_172_96.wav",78
Sample,41860,0,"0_G2_172_96.wav",78
Sample,42035,0,"0_A2_172_96.wav",78
Sample,42209,0,"0_G2_172_96.wav",78
Sample,42384,0,"0_A2_172_96.wav",78
Sample,42558,0,"0_G2_172_96.wav",78
Sample,42733,0,"0_A2_172_96.wav",78
Sample,42907,0,"0_G2_172_96.wav",78
Sample,42994,0,"0_A2_172_96.wav",78
Sample,43081,0,"0_G2_172_96.wav",78
Sample,43169,0,"0_A2_172_96.wav",78
Sample,43256,0,"0_G2_172_96.wav",78
Sample,43343,0,"0_A2_172_96.wav",78
Sample,43430,0,"0_G2_172_96.wav",78
Sample,43517,0,"0_A2_172_96.wav",78
Sample,43605,0,"0_C3_172_192.wav",78
Sample,43605,0,"0_G1_172_768.wav",78
Sample,43605,0,"0_G2_172_96.wav",81
Sample,43605,0,"0_C3_172_96.wav",78
Sample,43779,0,"0_C3_172_96.wav",78
Sample,43953,0,"0_C3_172_192.wav",78
Sample,43953,0,"0_C3_172_96.wav",78
Sample,44128,0,"0_C3_172_96.wav",78
Sample,44302,0,"0_C3_172_96.wav",78
Sample,44477,0,"0_C3_172_96.wav",78
Sample,44477,0,"0_C3_172_96.wav",78
Sample,44651,0,"0_C3_172_192.wav",78
Sample,44651,0,"0_C3_172_96.wav",78
Sample,44826,0,"0_C3_172_96.wav",78
Sample,45000,0,"0_C3_172_96.wav",78
Sample,45000,0,"0_C3_172_96.wav",78
Sample,45174,0,"0_C3_172_96.wav",78
Sample,45349,0,"0_C3_172_192.wav",78
Sample,45349,0,"0_C3_172_96.wav",78
Sample,45523,0,"0_C3_172_96.wav",78
Sample,45523,0,"0_C3_172_96.wav",78
Sample,45698,0,"0_C3_172_96.wav",78
Sample,45872,0,"0_C3_172_96.wav",78
Sample,45872,0,"0_C3_172_96.wav",78
Sample,46046,0,"0_C3_172_192.wav",78
Sample,46046,0,"0_C3_172_96.wav",78
Sample,46221,0,"0_C3_172_96.wav",78
Sample,46221,0,"0_G2_172_96.wav",78
Sample,46221,0,"0_C3_172_96.wav",78
Sample,46395,0,"0_G2_172_96.wav",81
Sample,46395,0,"0_C3_172_96.wav",78
Sample,46395,0,"0_C3_172_192.wav",78
Sample,46395,0,"drum0_G2_172_96.wav",81
Sample,46570,0,"drum0_G2_172_96.wav",81
Sample,46570,0,"0_C3_172_96.wav",78
Sample,46570,0,"0_D3_172_96.wav",78
Sample,46744,0,"0_C3_172_96.wav",78
Sample,46744,0,"drum0_A2_172_96.wav",81
Sample,46744,0,"0_C3_172_192.wav",78
Sample,46744,0,"0_G3_172_96.wav",78
Sample,46919,0,"0_A3_172_96.wav",78
Sample,46919,0,"drum0_A#2_172_96.wav",81
Sample,46919,0,"0_C3_172_96.wav",78
Sample,47093,0,"drum0_G2_172_96.wav",81
Sample,47093,0,"0_C3_172_96.wav",78
Sample,47093,0,"0_D3_172_96.wav",78
Sample,47267,0,"0_C3_172_96.wav",78
Sample,47267,0,"drum0_G2_172_96.wav",81
Sample,47267,0,"0_C3_172_96.wav",78
Sample,47267,0,"drum0_G3_172_96.wav",81
Sample,47442,0,"0_C3_172_96.wav",78
Sample,47442,0,"drum0_A2_172_96.wav",81
Sample,47442,0,"0_C3_172_192.wav",78
Sample,47442,0,"drum0_A3_172_96.wav",81
Sample,47616,0,"0_A3_172_96.wav",78
Sample,47616,0,"drum0_A#2_172_96.wav",81
Sample,47616,0,"0_C3_172_96.wav",78
Sample,47791,0,"drum0_G2_172_96.wav",81
Sample,47791,0,"0_C3_172_96.wav",78
Sample,47791,0,"0_C3_172_96.wav",78
Sample,47791,0,"0_A#1_172_384.wav",78
Sample,47791,0,"drum0_G3_172_96.wav",81
Sample,47965,0,"drum0_G3_172_96.wav",81
Sample,47965,0,"drum0_G2_172_96.wav",81
Sample,47965,0,"0_C3_172_96.wav",78
Sample,48140,0,"0_C3_172_192.wav",78
Sample,48140,0,"drum0_A3_172_96.wav",81
Sample,48140,0,"0_C3_172_96.wav",78
Sample,48140,0,"drum0_A2_172_96.wav",81
Sample,48314,0,"0_C3_172_96.wav",78
Sample,48314,0,"drum0_A#3_172_96.wav",81
Sample,48314,0,"0_C3_172_96.wav",78
Sample,48314,0,"drum0_A#2_172_96.wav",81
Sample,48488,0,"drum0_A2_172_96.wav",81
Sample,48488,0,"0_C3_172_96.wav",78
Sample,48488,0,"drum0_A3_172_96.wav",81
Sample,48663,0,"0_C3_172_96.wav",78
Sample,48663,0,"drum0_A2_172_96.wav",81
Sample,48663,0,"0_C3_172_96.wav",78
Sample,48663,0,"drum0_A3_172_96.wav",81
Sample,48837,0,"0_C3_172_96.wav",78
Sample,48837,0,"drum0_G2_172_96.wav",81
Sample,48837,0,"0_C3_172_192.wav",78
Sample,48837,0,"drum0_G3_172_96.wav",81
Sample,49012,0,"0_C3_172_96.wav",78
Sample,49012,0,"drum0_D2_172_96.wav",81
Sample,49012,0,"0_C3_172_96.wav",78
Sample,49012,0,"drum0_D3_172_96.wav",81
Sample,49186,0,"0_C3_172_192.wav",78
Sample,49186,0,"0_G2_172_96.wav",81
Sample,49186,0,"0_G2_172_768.wav",78
Sample,49186,0,"0_C3_172_96.wav",78
Sample,49360,0,"0_C3_172_96.wav",78
Sample,49535,0,"0_C3_172_192.wav",78
Sample,49535,0,"0_C3_172_96.wav",78
Sample,49709,0,"0_C3_172_96.wav",78
Sample,49884,0,"0_C3_172_96.wav",78
Sample,50058,0,"0_C3_172_96.wav",78
Sample,50058,0,"0_C3_172_96.wav",78
Sample,50233,0,"0_C3_172_192.wav",78
Sample,50233,0,"0_C3_172_96.wav",78
Sample,50407,0,"0_C3_172_96.wav",78
Sample,50581,0,"0_C3_172_96.wav",78
Sample,50581,0,"0_C3_172_96.wav",78
Sample,50756,0,"0_C3_172_96.wav",78
Sample,50930,0,"0_C3_172_192.wav",78
Sample,50930,0,"0_C3_172_96.wav",78
Sample,51105,0,"0_C3_172_96.wav",78
Sample,51105,0,"0_C3_172_96.wav",78
Sample,51279,0,"0_C3_172_96.wav",78
Sample,51453,0,"0_C3_172_96.wav",78
Sample,51453,0,"0_C3_172_96.wav",78
Sample,51628,0,"0_C3_172_192.wav",78
Sample,51628,0,"0_C3_172_96.wav",78
Sample,51802,0,"0_C3_172_96.wav",78
Sample,51802,0,"0_G2_172_96.wav",78
Sample,51802,0,"0_C3_172_96.wav",78
Sample,51977,0,"0_G2_172_96.wav",81
Sample,51977,0,"0_C3_172_192.wav",78
Sample,51977,0,"0_A#2_172_384.wav",78
Sample,51977,0,"drum0_G2_172_96.wav",81
Sample,51977,0,"0_C3_172_96.wav",78
Sample,52151,0,"0_D3_172_96.wav",78
Sample,52151,0,"drum0_G2_172_96.wav",81
Sample,52151,0,"0_C3_172_96.wav",78
Sample,52326,0,"0_C3_172_192.wav",78
Sample,52326,0,"0_G3_172_96.wav",78
Sample,52326,0,"0_C3_172_96.wav",78
Sample,52326,0,"drum0_A2_172_96.wav",81
Sample,52500,0,"drum0_A#2_172_96.wav",81
Sample,52500,0,"0_C3_172_96.wav",78
Sample,52500,0,"0_A3_172_96.wav",78
Sample,52674,0,"0_D3_172_96.wav",78
Sample,52674,0,"drum0_G2_172_96.wav",81
Sample,52674,0,"0_C3_172_96.wav",78
Sample,52849,0,"0_C3_172_96.wav",78
Sample,52849,0,"drum0_G3_172_96.wav",81
Sample,52849,0,"0_C3_172_96.wav",78
Sample,52849,0,"drum0_G2_172_96.wav",81
Sample,53023,0,"0_C3_172_192.wav",78
Sample,53023,0,"drum0_A3_172_96.wav",81
Sample,53023,0,"0_C3_172_96.wav",78
Sample,53023,0,"drum0_A2_172_96.wav",81
Sample,53198,0,"drum0_A#2_172_96.wav",81
Sample,53198,0,"0_C3_172_96.wav",78
Sample,53198,0,"0_A3_172_96.wav",78
Sample,53372,0,"drum0_G2_172_96.wav",81
Sample,53372,0,"drum0_G3_172_96.wav",81
Sample,53372,0,"0_C3_172_96.wav",78
Sample,53372,0,"0_A2_172_384.wav",78
Sample,53372,0,"0_C3_172_96.wav",78
Sample,53546,0,"drum0_G2_172_96.wav",81
Sample,53546,0,"0_C3_172_96.wav",78
Sample,53546,0,"drum0_G3_172_96.wav",81
Sample,53721,0,"0_C3_172_96.wav",78
Sample,53721,0,"drum0_A2_172_96.wav",81
Sample,53721,0,"0_C3_172_192.wav",78
Sample,53721,0,"drum0_A3_172_96.wav",81
Sample,53895,0,"0_C3_172_96.wav",78
Sample,53895,0,"drum0_A#2_172_96.wav",81
Sample,53895,0,"0_C3_172_96.wav",78
Sample,53895,0,"drum0_A#3_172_96.wav",81
Sample,54070,0,"drum0_G3_172_96.wav",81
Sample,54070,0,"drum0_G2_172_96.wav",81
Sample,54070,0,"0_C3_172_96.wav",78
Sample,54244,0,"0_C3_172_96.wav",78
Sample,54244,0,"drum0_G3_172_96.wav",81
Sample,54244,0,"0_C3_172_96.wav",78
Sample,54244,0,"drum0_G2_172_96.wav",81
Sample,54419,0,"0_C3_172_192.wav",78
Sample,54419,0,"0_F3_172_96.wav",78
Sample,54419,0,"0_C3_172_96.wav",78
Sample,54419,0,"drum0_A2_172_96.wav",81
Sample,54593,0,"0_C3_172_96.wav",78
Sample,54593,0,"0_G3_172_96.wav",78
Sample,54593,0,"0_C3_172_96.wav",78
Sample,54593,0,"drum0_A#2_172_96.wav",81
Sample,54767,0,"0_G2_172_96.wav",81
Sample,54767,0,"0_C3_172_96.wav",78
Sample,54767,0,"0_C3_172_192.wav",78
Sample,54767,0,"0_G1_172_768.wav",78
Sample,54942,0,"0_C3_172_96.wav",78
Sample,55116,0,"0_C3_172_192.wav",78
Sample,55116,0,"0_C3_172_96.wav",78
Sample,55291,0,"0_C3_172_96.wav",78
Sample,55465,0,"0_C3_172_96.wav",78
Sample,55640,0,"0_C3_172_96.wav",78
Sample,55640,0,"0_C3_172_96.wav",78
Sample,55814,0,"0_C3_172_192.wav",78
Sample,55814,0,"0_C3_172_96.wav",78
Sample,55988,0,"0_C3_172_96.wav",78
Sample,56163,0,"0_C3_172_96.wav",78
Sample,56163,0,"0_C3_172_96.wav",78
Sample,56337,0,"0_C3_172_96.wav",78
Sample,56512,0,"0_C3_172_192.wav",78
Sample,56512,0,"0_C3_172_96.wav",78
Sample,56686,0,"0_C3_172_96.wav",78
Sample,56686,0,"0_C3_172_96.wav",78
Sample,56860,0,"0_C3_172_96.wav",78
Sample,57035,0,"0_C3_172_96.wav",78
Sample,57035,0,"0_C3_172_96.wav",78
Sample,57209,0,"0_C3_172_192.wav",78
Sample,57209,0,"0_C3_172_96.wav",78
Sample,57384,0,"0_G2_172_96.wav",78
Sample,57384,0,"0_C3_172_96.wav",78
Sample,57384,0,"0_C3_172_96.wav",78
Sample,57558,0,"0_G2_172_96.wav",81
Sample,57558,0,"0_C3_172_192.wav",78
Sample,57733,0,"0_C3_172_96.wav",78
Sample,57907,0,"0_C3_172_192.wav",78
Sample,57907,0,"0_C3_172_96.wav",78
Sample,58081,0,"0_C3_172_96.wav",78
Sample,58256,0,"0_C3_172_96.wav",78
Sample,58430,0,"0_C3_172_96.wav",78
Sample,58430,0,"0_C3_172_96.wav",78
Sample,58605,0,"0_C3_172_192.wav",78
Sample,58605,0,"0_C3_172_96.wav",78
Sample,58779,0,"0_C3_172_96.wav",78
Sample,58953,0,"0_C3_172_96.wav",78
Sample,58953,0,"0_A#1_172_384.wav",78
Sample,58953,0,"0_C3_172_96.wav",78
Sample,59128,0,"0_C3_172_96.wav",78
Sample,59302,0,"0_C3_172_192.wav",78
Sample,59302,0,"0_C3_172_96.wav",78
Sample,59477,0,"0_C3_172_96.wav",78
Sample,59477,0,"0_C3_172_96.wav",78
Sample,59651,0,"0_C3_172_96.wav",78
Sample,59826,0,"0_C3_172_96.wav",78
Sample,59826,0,"0_C3_172_96.wav",78
Sample,60000,0,"0_C3_172_192.wav",78
Sample,60000,0,"0_C3_172_96.wav",78
Sample,60174,0,"0_C3_172_96.wav",78
Sample,60174,0,"0_C3_172_96.wav",78
Sample,60349,0,"0_G2_172_768.wav",78
Sample,60349,0,"0_C3_172_96.wav",78
Sample,60349,0,"0_C3_172_192.wav",78
Sample,60349,0,"0_G2_172_96.wav",81
Sample,60523,0,"0_C3_172_96.wav",78
Sample,60698,0,"0_C3_172_192.wav",78
Sample,60698,0,"0_C3_172_96.wav",78
Sample,60872,0,"0_C3_172_96.wav",78
Sample,61046,0,"0_C3_172_96.wav",78
Sample,61221,0,"0_C3_172_96.wav",78
Sample,61221,0,"0_C3_172_96.wav",78
Sample,61395,0,"0_C3_172_192.wav",78
Sample,61395,0,"0_C3_172_96.wav",78
Sample,61570,0,"0_C3_172_96.wav",78
Sample,61744,0,"0_C3_172_96.wav",78
Sample,61744,0,"0_C3_172_96.wav",78
Sample,61919,0,"0_C3_172_96.wav",78
Sample,62093,0,"0_C3_172_192.wav",78
Sample,62093,0,"0_C3_172_96.wav",78
Sample,62267,0,"0_C3_172_96.wav",78
Sample,62267,0,"0_C3_172_96.wav",78
Sample,62442,0,"0_C3_172_96.wav",78
Sample,62616,0,"0_C3_172_96.wav",78
Sample,62616,0,"0_C3_172_96.wav",78
Sample,62791,0,"0_C3_172_192.wav",78
Sample,62791,0,"0_C3_172_96.wav",78
Sample,62965,0,"0_G2_172_96.wav",78
Sample,62965,0,"0_C3_172_96.wav",78
Sample,62965,0,"0_C3_172_96.wav",78
Sample,63139,0,"0_C3_172_192.wav",78
Sample,63139,0,"0_G2_172_96.wav",81
Sample,63139,0,"0_A#2_172_384.wav",78
Sample,63314,0,"0_C3_172_96.wav",78
Sample,63488,0,"0_C3_172_192.wav",78
Sample,63488,0,"0_C3_172_96.wav",78
Sample,63663,0,"0_C3_172_96.wav",78
Sample,63837,0,"0_C3_172_96.wav",78
Sample,64012,0,"0_C3_172_96.wav",78
Sample,64012,0,"0_C3_172_96.wav",78
Sample,64186,0,"0_C3_172_192.wav",78
Sample,64186,0,"0_C3_172_96.wav",78
Sample,64360,0,"0_C3_172_96.wav",78
Sample,64535,0,"0_A2_172_384.wav",78
Sample,64535,0,"0_C3_172_96.wav",78
Sample,64535,0,"0_C3_172_96.wav",78
Sample,64709,0,"0_C3_172_96.wav",78
Sample,64884,0,"0_C3_172_192.wav",78
Sample,64884,0,"0_C3_172_96.wav",78
Sample,65058,0,"0_C3_172_96.wav",78
Sample,65058,0,"0_C3_172_96.wav",78
Sample,65233,0,"0_C3_172_96.wav",78
Sample,65407,0,"0_C3_172_96.wav",78
Sample,65407,0,"0_C3_172_96.wav",78
Sample,65581,0,"0_C3_172_192.wav",78
Sample,65581,0,"0_C3_172_96.wav",78
Sample,65756,0,"0_C3_172_96.wav",78
Sample,65756,0,"0_C3_172_96.wav",78
Sample,65930,0,"0_C3_172_192.wav",78
Sample,65930,0,"0_G1_172_768.wav",78
Sample,65930,0,"0_G2_172_96.wav",81
Sample,65930,0,"0_C3_172_96.wav",78
Sample,66105,0,"0_C3_172_96.wav",78
Sample,66279,0,"0_C3_172_192.wav",78
Sample,66279,0,"0_C3_172_96.wav",78
Sample,66453,0,"0_C3_172_96.wav",78
Sample,66628,0,"0_C3_172_96.wav",78
Sample,66802,0,"0_C3_172_96.wav",78
Sample,66802,0,"0_C3_172_96.wav",78
Sample,66977,0,"0_C3_172_192.wav",78
Sample,66977,0,"0_C3_172_96.wav",78
Sample,67151,0,"0_C3_172_96.wav",78
Sample,67326,0,"0_C3_172_96.wav",78
Sample,67326,0,"0_C3_172_96.wav",78
Sample,67500,0,"0_C3_172_96.wav",78
Sample,67674,0,"0_C3_172_192.wav",78
Sample,67674,0,"0_C3_172_96.wav",78
Sample,67849,0,"0_C3_172_96.wav",78
Sample,67849,0,"0_C3_172_96.wav",78
Sample,68023,0,"0_C3_172_96.wav",78
Sample,68198,0,"0_C3_172_96.wav",78
Sample,68198,0,"0_C3_172_96.wav",78
Sample,68372,0,"0_C3_172_192.wav",78
Sample,68372,0,"0_C3_172_96.wav",78
Sample,68546,0,"0_C3_172_96.wav",78
Sample,68546,0,"0_G2_172_96.wav",78
Sample,68546,0,"0_C3_172_96.wav",78
Sample,68721,0,"0_G2_172_96.wav",81
Sample,68721,0,"0_C3_172_96.wav",78
Sample,68721,0,"0_C3_172_192.wav",78
Sample,68721,0,"drum0_G2_172_96.wav",81
Sample,68895,0,"drum0_G2_172_96.wav",81
Sample,68895,0,"0_C3_172_96.wav",78
Sample,68895,0,"0_D3_172_96.wav",78
Sample,69070,0,"0_C3_172_96.wav",78
Sample,69070,0,"drum0_A2_172_96.wav",81
Sample,69070,0,"0_C3_172_192.wav",78
Sample,69070,0,"0_G3_172_96.wav",78
Sample,69244,0,"0_A3_172_96.wav",78
Sample,69244,0,"drum0_A#2_172_96.wav",81
Sample,69244,0,"0_C3_172_96.wav",78
Sample,69419,0,"drum0_G2_172_96.wav",81
Sample,69419,0,"0_C3_172_96.wav",78
Sample,69419,0,"0_D3_172_96.wav",78
Sample,69593,0,"0_C3_172_96.wav",78
Sample,69593,0,"drum0_G2_172_96.wav",81
Sample,69593,0,"0_C3_172_96.wav",78
Sample,69593,0,"drum0_G3_172_96.wav",81
Sample,69767,0,"0_C3_172_96.wav",78
Sample,69767,0,"drum0_A2_172_96.wav",81
Sample,69767,0,"0_C3_172_192.wav",78
Sample,69767,0,"drum0_A3_172_96.wav",81
Sample,69942,0,"0_A3_172_96.wav",78
Sample,69942,0,"drum0_A#2_172_96.wav",81
Sample,69942,0,"0_C3_172_96.wav",78
Sample,70116,0,"drum0_G2_172_96.wav",81
Sample,70116,0,"0_C3_172_96.wav",78
Sample,70116,0,"0_C3_172_96.wav",78
Sample,70116,0,"0_A#1_172_384.wav",78
Sample,70116,0,"drum0_G3_172_96.wav",81
Sample,70291,0,"drum0_G3_172_96.wav",81
Sample,70291,0,"drum0_G2_172_96.wav",81
Sample,70291,0,"0_C3_172_96.wav",78
Sample,70465,0,"0_C3_172_192.wav",78
Sample,70465,0,"drum0_A3_172_96.wav",81
Sample,70465,0,"0_C3_172_96.wav",78
Sample,70465,0,"drum0_A2_172_96.wav",81
Sample,70639,0,"0_C3_172_96.wav",78
Sample,70639,0,"drum0_A#3_172_96.wav",81
Sample,70639,0,"0_C3_172_96.wav",78
Sample,70639,0,"drum0_A#2_172_96.wav",81
Sample,70814,0,"drum0_A2_172_96.wav",81
Sample,70814,0,"0_C3_172_96.wav",78
Sample,70814,0,"drum0_A3_172_96.wav",81
Sample,70988,0,"0_C3_172_96.wav",78
Sample,70988,0,"drum0_A2_172_96.wav",81
Sample,70988,0,"0_C3_172_96.wav",78
Sample,70988,0,"drum0_A3_172_96.wav",81
Sample,71163,0,"0_C3_172_96.wav",78
Sample,71163,0,"drum0_G2_172_96.wav",81
Sample,71163,0,"0_C3_172_192.wav",78
Sample,71163,0,"drum0_G3_172_96.wav",81
Sample,71337,0,"0_C3_172_96.wav",78
Sample,71337,0,"drum0_D2_172_96.wav",81
Sample,71337,0,"0_C3_172_96.wav",78
Sample,71337,0,"drum0_D3_172_96.wav",81
Sample,71512,0,"0_C3_172_192.wav",78
Sample,71512,0,"0_G2_172_96.wav",81
Sample,71512,0,"0_G2_172_768.wav",78
Sample,71512,0,"0_C3_172_96.wav",78
Sample,71686,0,"0_C3_172_96.wav",78
Sample,71860,0,"0_C3_172_192.wav",78
Sample,71860,0,"0_C3_172_96.wav",78
Sample,72035,0,"0_C3_172_96.wav",78
Sample,72209,0,"0_C3_172_96.wav",78
Sample,72384,0,"0_C3_172_96.wav",78
Sample,72384,0,"0_C3_172_96.wav",78
Sample,72558,0,"0_C3_172_192.wav",78
Sample,72558,0,"0_C3_172_96.wav",78
Sample,72733,0,"0_C3_172_96.wav",78
Sample,72907,0,"0_C3_172_96.wav",78
Sample,72907,0,"0_C3_172_96.wav",78
Sample,73081,0,"0_C3_172_96.wav",78
Sample,73256,0,"0_C3_172_192.wav",78
Sample,73256,0,"0_C3_172_96.wav",78
Sample,73430,0,"0_C3_172_96.wav",78
Sample,73430,0,"0_C3_172_96.wav",78
Sample,73605,0,"0_C3_172_96.wav",78
Sample,73779,0,"0_C3_172_96.wav",78
Sample,73779,0,"0_C3_172_96.wav",78
Sample,73953,0,"0_C3_172_192.wav",78
Sample,73953,0,"0_C3_172_96.wav",78
Sample,74128,0,"0_C3_172_96.wav",78
Sample,74128,0,"0_G2_172_96.wav",78
Sample,74128,0,"0_C3_172_96.wav",78
Sample,74302,0,"0_G2_172_96.wav",81
Sample,74302,0,"0_C3_172_192.wav",78
Sample,74302,0,"0_A#2_172_384.wav",78
Sample,74302,0,"drum0_G2_172_96.wav",81
Sample,74302,0,"0_C3_172_96.wav",78
Sample,74302,0,"0_C3_172_384.wav",78
Sample,74302,0,"0_C3_172_192.wav",78
Sample,74477,0,"0_D3_172_96.wav",78
Sample,74477,0,"drum0_G2_172_96.wav",81
Sample,74477,0,"0_C3_172_96.wav",78
Sample,74651,0,"0_C3_172_192.wav",78
Sample,74651,0,"0_G3_172_96.wav",78
Sample,74651,0,"0_C3_172_96.wav",78
Sample,74651,0,"drum0_A2_172_96.wav",81
Sample,74826,0,"drum0_A#2_172_96.wav",81
Sample,74826,0,"0_C3_172_96.wav",78
Sample,74826,0,"0_A3_172_96.wav",78
Sample,75000,0,"0_D3_172_96.wav",78
Sample,75000,0,"drum0_G2_172_96.wav",81
Sample,75000,0,"0_C3_172_96.wav",78
Sample,75174,0,"0_C3_172_96.wav",78
Sample,75174,0,"drum0_G3_172_96.wav",81
Sample,75174,0,"0_C3_172_96.wav",78
Sample,75174,0,"drum0_G2_172_96.wav",81
Sample,75349,0,"0_C3_172_192.wav",78
Sample,75349,0,"drum0_A3_172_96.wav",81
Sample,75349,0,"0_C3_172_96.wav",78
Sample,75349,0,"drum0_A2_172_96.wav",81
Sample,75523,0,"drum0_A#2_172_96.wav",81
Sample,75523,0,"0_C3_172_96.wav",78
Sample,75523,0,"0_A3_172_96.wav",78
Sample,75698,0,"drum0_G2_172_96.wav",81
Sample,75698,0,"drum0_G3_172_96.wav",81
Sample,75698,0,"0_C3_172_96.wav",78
Sample,75698,0,"0_A2_172_384.wav",78
Sample,75698,0,"0_C3_172_96.wav",78
Sample,75698,0,"0_G3_172_96.wav",78
Sample,75872,0,"drum0_G3_172_96.wav",81
Sample,75872,0,"drum0_G2_172_96.wav",81
Sample,75872,0,"0_C3_172_96.wav",78
Sample,76046,0,"0_C3_172_192.wav",78
Sample,76046,0,"drum0_A3_172_96.wav",81
Sample,76046,0,"0_C3_172_96.wav",78
Sample,76046,0,"drum0_A2_172_96.wav",81
Sample,76046,0,"0_A3_172_96.wav",78
Sample,76221,0,"0_C3_172_96.wav",78
Sample,76221,0,"drum0_A#2_172_96.wav",81
Sample,76221,0,"0_C3_172_96.wav",78
Sample,76221,0,"drum0_A#3_172_96.wav",81
Sample,76395,0,"drum0_G3_172_96.wav",81
Sample,76395,0,"drum0_G2_172_96.wav",81
Sample,76395,0,"0_C3_172_96.wav",78
Sample,76395,0,"0_A#3_172_96.wav",78
Sample,76570,0,"0_C3_172_96.wav",78
Sample,76570,0,"drum0_G2_172_96.wav",81
Sample,76570,0,"0_C3_172_96.wav",78
Sample,76570,0,"drum0_G3_172_96.wav",81
Sample,76744,0,"drum0_A2_172_96.wav",81
Sample,76744,0,"drum0_A3_172_96.wav",81
Sample,76744,0,"0_C3_172_96.wav",78
Sample,76744,0,"0_C3_172_192.wav",78
Sample,76744,0,"0_F3_172_96.wav",78
Sample,76919,0,"0_C3_172_96.wav",78
Sample,76919,0,"0_G3_172_96.wav",78
Sample,76919,0,"0_C3_172_96.wav",78
Sample,76919,0,"drum0_A#2_172_96.wav",81
Sample,77093,0,"0_G2_172_96.wav",81
Sample,77093,0,"0_C3_172_96.wav",78
Sample,77093,0,"0_C3_172_192.wav",78
Sample,77093,0,"0_G1_172_768.wav",78
Sample,77267,0,"0_C3_172_96.wav",78
Sample,77442,0,"0_C3_172_192.wav",78
Sample,77442,0,"0_C3_172_96.wav",78
Sample,77616,0,"0_C3_172_96.wav",78
Sample,77791,0,"0_C3_172_96.wav",78
Sample,77965,0,"0_C3_172_96.wav",78
Sample,77965,0,"0_C3_172_96.wav",78
Sample,78139,0,"0_C3_172_192.wav",78
Sample,78139,0,"0_C3_172_96.wav",78
Sample,78314,0,"0_C3_172_96.wav",78
Sample,78488,0,"0_C3_172_96.wav",78
Sample,78488,0,"0_C3_172_96.wav",78
Sample,78663,0,"0_C3_172_96.wav",78
Sample,78837,0,"0_C3_172_192.wav",78
Sample,78837,0,"0_C3_172_96.wav",78
Sample,79012,0,"0_C3_172_96.wav",78
Sample,79012,0,"0_C3_172_96.wav",78
Sample,79186,0,"0_C3_172_96.wav",78
Sample,79360,0,"0_C3_172_96.wav",78
Sample,79360,0,"0_C3_172_96.wav",78
Sample,79535,0,"0_C3_172_192.wav",78
Sample,79535,0,"0_C3_172_96.wav",78
Sample,79709,0,"0_G2_172_96.wav",78
Sample,79709,0,"0_C3_172_96.wav",78
Sample,79709,0,"0_C3_172_96.wav",78
Sample,79884,0,"0_G2_172_96.wav",81
Sample,79884,0,"0_C3_172_192.wav",78
Sample,80058,0,"0_C3_172_96.wav",78
Sample,80233,0,"0_C3_172_192.wav",78
Sample,80233,0,"0_C3_172_96.wav",78
Sample,80407,0,"0_C3_172_96.wav",78
Sample,80581,0,"0_C3_172_96.wav",78
Sample,80756,0,"0_C3_172_96.wav",78
Sample,80756,0,"0_C3_172_96.wav",78
Sample,80930,0,"0_C3_172_192.wav",78
Sample,80930,0,"0_C3_172_96.wav",78
Sample,81105,0,"0_C3_172_96.wav",78
Sample,81279,0,"0_C3_172_96.wav",78
Sample,81279,0,"0_A#1_172_384.wav",78
Sample,81279,0,"0_C3_172_96.wav",78
Sample,81453,0,"0_C3_172_96.wav",78
Sample,81628,0,"0_C3_172_192.wav",78
Sample,81628,0,"0_C3_172_96.wav",78
Sample,81802,0,"0_C3_172_96.wav",78
Sample,81802,0,"0_C3_172_96.wav",78
Sample,81977,0,"0_C3_172_96.wav",78
Sample,82151,0,"0_C3_172_96.wav",78
Sample,82151,0,"0_C3_172_96.wav",78
Sample,82326,0,"0_C3_172_192.wav",78
Sample,82326,0,"0_C3_172_96.wav",78
Sample,82500,0,"0_C3_172_96.wav",78
Sample,82500,0,"0_C3_172_96.wav",78
Sample,82674,0,"0_G2_172_768.wav",78
Sample,82674,0,"0_C3_172_96.wav",78
Sample,82674,0,"0_C3_172_192.wav",78
Sample,82674,0,"0_G2_172_96.wav",81
Sample,82849,0,"0_C3_172_96.wav",78
Sample,83023,0,"0_C3_172_192.wav",78
Sample,83023,0,"0_C3_172_96.wav",78
Sample,83198,0,"0_C3_172_96.wav",78
Sample,83372,0,"0_C3_172_96.wav",78
Sample,83546,0,"0_C3_172_96.wav",78
Sample,83546,0,"0_C3_172_96.wav",78
Sample,83721,0,"0_C3_172_192.wav",78
Sample,83721,0,"0_C3_172_96.wav",78
Sample,83895,0,"0_C3_172_96.wav",78
Sample,84070,0,"0_C3_172_96.wav",78
Sample,84070,0,"0_C3_172_96.wav",78
Sample,84244,0,"0_C3_172_96.wav",78
Sample,84419,0,"0_C3_172_192.wav",78
Sample,84419,0,"0_C3_172_96.wav",78
Sample,84593,0,"0_C3_172_96.wav",78
Sample,84593,0,"0_C3_172_96.wav",78
Sample,84767,0,"0_C3_172_96.wav",78
Sample,84942,0,"0_C3_172_96.wav",78
Sample,84942,0,"0_C3_172_96.wav",78
Sample,85116,0,"0_C3_172_16128.wav",78
Sample,85116,0,"0_C3_172_96.wav",78
Sample,85291,0,"0_G2_172_96.wav",78
Sample,85291,0,"0_C3_172_96.wav",78
Sample,85291,0,"0_C3_172_96.wav",78
Sample,85465,0,"0_C3_172_96.wav",78
Sample,85465,0,"0_G2_172_96.wav",81
Sample,85465,0,"0_A#2_172_384.wav",78
Sample,85639,0,"0_C3_172_96.wav",78
Sample,85814,0,"0_C3_172_96.wav",78
Sample,85814,0,"0_C3_172_96.wav",78
Sample,85988,0,"0_C3_172_96.wav",78
Sample,86163,0,"0_C3_172_96.wav",78
Sample,86163,0,"0_C3_172_96.wav",78
Sample,86337,0,"0_C3_172_96.wav",78
Sample,86512,0,"0_C3_172_96.wav",78
Sample,86512,0,"0_C3_172_96.wav",78
Sample,86686,0,"0_C3_172_96.wav",78
Sample,86860,0,"0_A2_172_384.wav",78
Sample,86860,0,"0_C3_172_96.wav",78
Sample,86860,0,"0_C3_172_96.wav",78
Sample,87035,0,"0_C3_172_96.wav",78
Sample,87035,0,"0_C3_172_96.wav",78
Sample,87209,0,"0_C3_172_96.wav",78
Sample,87209,0,"0_C3_172_96.wav",78
Sample,87384,0,"0_C3_172_96.wav",78
Sample,87384,0,"0_C3_172_96.wav",78
Sample,87558,0,"0_C3_172_96.wav",78
Sample,87558,0,"0_C3_172_96.wav",78
Sample,87645,0,"0_C3_172_96.wav",78
Sample,87733,0,"0_C3_172_96.wav",78
Sample,87733,0,"0_C3_172_96.wav",78
Sample,87820,0,"0_C3_172_96.wav",78
Sample,87907,0,"0_C3_172_96.wav",78
Sample,87907,0,"0_C3_172_96.wav",78
Sample,87907,0,"0_C3_172_15360.wav",78
Sample,87994,0,"0_C3_172_96.wav",78
Sample,88081,0,"0_C3_172_96.wav",78
Sample,88081,0,"0_C3_172_96.wav",78
Sample,88169,0,"0_C3_172_15264.wav",78
Sample,88256,0,"0_G2_172_384.wav",78
Sample,88256,0,"0_C3_172_384.wav",78
Sample,89651,0,"0_F2_172_384.wav",78
Sample,91046,0,"0_G2_172_768.wav",78
Sample,93837,0,"0_G2_172_384.wav",78
Sample,95233,0,"0_F2_172_384.wav",78
Sample,96628,0,"0_G2_172_768.wav",78
Sample,99419,0,"0_G3_172_384.wav",78
Sample,99419,0,"0_G2_172_384.wav",78
Sample,99419,0,"0_C3_172_384.wav",78
Sample,100814,0,"0_F2_172_384.wav",78
Sample,100814,0,"0_C3_172_384.wav",78
Sample,100814,0,"0_F3_172_384.wav",78
Sample,102209,0,"0_G3_172_768.wav",78
Sample,102209,0,"0_G2_172_768.wav",78
Sample,102209,0,"0_C3_172_384.wav",78
Sample,105000,0,"0_G2_172_384.wav",78
Sample,105000,0,"0_C3_172_384.wav",78
Sample,105000,0,"0_G3_172_384.wav",78
Sample,106395,0,"0_F2_172_384.wav",78
Sample,106395,0,"0_C3_172_384.wav",78
Sample,107791,0,"0_G3_172_384.wav",78
Sample,107791,0,"0_G2_172_384.wav",78
Sample,107791,0,"0_C3_172_480.wav",78

[TimingPoints]
0,348.837,4,1,1,100,1,0

[HitObjects]
138,192,0,5,0,0:0:0:78:0_G1_172_5568.wav
394,192,0,1,0,0:0:0:78:0_G4_172_672.wav
266,192,5349,5,0,0:0:0:78:0_G3_172_672.wav
10,192,10650,5,0,0:0:0:78:0_A#4_172_672.wav
394,192,16047,5,0,0:0:0:78:0_G4_172_672.wav
138,192,21279,5,0,0:0:0:78:0_G1_172_96.wav
266,192,21279,1,0,0:0:0:78:0_G1_172_768.wav
10,192,21283,1,0,0:0:0:78:0_G1_172_768.wav
394,192,21628,1,0,0:0:0:78:0_D2_172_96.wav
138,192,21977,1,0,0:0:0:78:0_G2_172_96.wav
266,192,22326,1,0,0:0:0:78:0_D2_172_96.wav
10,192,22674,1,0,0:0:0:78:0_A2_172_96.wav
394,192,23023,1,0,0:0:0:78:0_D2_172_96.wav
138,192,23372,1,0,0:0:0:78:0_A#2_172_96.wav
266,192,23721,1,0,0:0:0:78:0_D2_172_96.wav
10,192,24048,1,0,0:0:0:78:0_A1_172_384.wav
394,192,24070,1,0,0:0:0:78:0_C3_172_96.wav
138,192,24419,1,0,0:0:0:78:0_D2_172_96.wav
266,192,24767,1,0,0:0:0:78:0_G2_172_96.wav
10,192,25116,1,0,0:0:0:78:0_A2_172_96.wav
138,192,25465,1,0,0:0:0:78:0_A#1_172_384.wav
394,192,25465,1,0,0:0:0:78:0_D2_172_96.wav
266,192,25814,1,0,0:0:0:78:0_G2_172_96.wav
10,192,26163,1,0,0:0:0:78:0_A#2_172_96.wav
394,192,26512,1,0,0:0:0:78:0_D2_172_96.wav
138,192,26860,1,0,0:0:0:78:0_G1_172_384.wav
266,192,26860,1,0,0:0:0:78:0_G2_172_96.wav
10,192,27209,1,0,0:0:0:78:0_D2_172_96.wav
394,192,27558,1,0,0:0:0:78:0_C3_172_96.wav
138,192,27907,1,0,0:0:0:78:0_A#2_172_96.wav
266,192,28256,1,0,0:0:0:78:0_A#2_172_96.wav
10,192,28278,1,0,0:0:0:78:0_C2_172_384.wav
394,192,28605,1,0,0:0:0:78:0_A#2_172_96.wav
138,192,28953,1,0,0:0:0:78:0_A2_172_96.wav
266,192,29302,1,0,0:0:0:78:0_G2_172_96.wav
10,192,29651,1,0,0:0:0:78:0_A#1_172_384.wav
394,192,29651,1,0,0:0:0:78:0_F2_172_96.wav
138,192,30000,1,0,0:0:0:78:0_G2_172_96.wav
266,192,30349,1,0,0:0:0:78:0_C3_172_96.wav
10,192,30698,1,0,0:0:0:78:0_A#2_172_96.wav
394,192,31046,1,0,0:0:0:78:0_A2_172_96.wav
138,192,31068,1,0,0:0:0:78:0_D1_172_384.wav
266,192,31395,1,0,0:0:0:78:0_A#2_172_96.wav
10,192,31744,1,0,0:0:0:78:0_G2_172_96.wav
394,192,32093,1,0,0:0:0:78:0_D2_172_96.wav
138,192,32442,1,0,0:0:0:78:0_G2_172_96.wav
266,192,32442,1,0,0:0:0:78:0_G2_172_288.wav
10,192,32791,1,0,0:0:0:78:0_D2_172_96.wav
394,192,32791,1,0,0:0:0:78:0_D3_172_96.wav
138,192,33140,1,0,0:0:0:78:0_G2_172_96.wav
266,192,33140,1,0,0:0:0:78:0_G3_172_96.wav
10,192,33488,1,0,0:0:0:78:0_D2_172_96.wav
394,192,33488,1,0,0:0:0:78:0_D3_172_96.wav
138,192,33837,1,0,0:0:0:78:0_A2_172_96.wav
266,192,33837,1,0,0:0:0:78:0_A3_172_96.wav
10,192,34186,1,0,0:0:0:78:0_D2_172_96.wav
394,192,34186,1,0,0:0:0:78:0_D3_172_96.wav
138,192,34557,1,0,0:0:0:78:0_A#2_172_96.wav
266,192,34557,1,0,0:0:0:78:0_A#3_172_96.wav
10,192,34884,1,0,0:0:0:78:0_D2_172_96.wav
394,192,34884,1,0,0:0:0:78:0_D3_172_96.wav
138,192,35211,1,0,0:0:0:78:0_A1_172_384.wav
266,192,35233,1,0,0:0:0:78:0_C4_172_96.wav
10,192,35254,1,0,0:0:0:78:0_A#2_172_384.wav
138,192,35581,1,0,0:0:0:78:0_D2_172_96.wav
394,192,35581,1,0,0:0:0:78:0_D3_172_96.wav
10,192,35930,1,0,0:0:0:78:0_G2_172_96.wav
266,192,35930,1,0,0:0:0:78:0_G3_172_96.wav
138,192,36279,1,0,0:0:0:78:0_A2_172_96.wav
394,192,36279,1,0,0:0:0:78:0_A3_172_96.wav
10,192,36628,1,0,0:0:0:78:0_A2_172_384.wav
266,192,36628,1,0,0:0:0:78:0_D3_172_96.wav
138,192,36977,1,0,0:0:0:78:0_G2_172_96.wav
394,192,36977,1,0,0:0:0:78:0_G3_172_96.wav
10,192,37326,1,0,0:0:0:78:0_A#2_172_96.wav
266,192,37326,1,0,0:0:0:78:0_A#3_172_96.wav
138,192,37674,1,0,0:0:0:78:0_D2_172_96.wav
394,192,37674,1,0,0:0:0:78:0_D3_172_96.wav
10,192,38023,1,0,0:0:0:78:0_G2_172_1536.wav
266,192,38023,1,0,0:0:0:78:0_G2_172_768.wav
138,192,38372,1,0,0:0:0:78:0_D2_172_96.wav
394,192,38372,1,0,0:0:0:78:0_D3_172_96.wav
10,192,38721,1,0,0:0:0:78:0_G2_172_96.wav
266,192,38721,1,0,0:0:0:78:0_G3_172_96.wav
138,192,39070,1,0,0:0:0:78:0_A2_172_96.wav
394,192,39070,1,0,0:0:0:78:0_A3_172_96.wav
10,192,39419,1,0,0:0:0:78:0_G1_172_96.wav
266,192,39419,1,0,0:0:0:78:0_G2_172_96.wav
138,192,39767,1,0,0:0:0:78:0_D2_172_96.wav
394,192,39767,1,0,0:0:0:78:0_D3_172_96.wav
10,192,40116,1,0,0:0:0:78:0_G2_172_96.wav
266,192,40116,1,0,0:0:0:78:0_G3_172_96.wav
138,192,40465,1,0,0:0:0:78:0_A2_172_96.wav
394,192,40465,1,0,0:0:0:78:0_A3_172_96.wav
10,192,40814,1,0,0:0:0:78:0_G1_172_96.wav
266,192,40814,1,0,0:0:0:78:0_G2_172_96.wav
394,192,40988,1,0,0:0:0:78:0_D3_172_96.wav
138,192,41163,1,0,0:0:0:78:0_G3_172_96.wav
266,192,41337,1,0,0:0:0:78:0_A3_172_96.wav
10,192,41512,1,0,0:0:0:78:0_G2_172_96.wav
394,192,41686,1,0,0:0:0:78:0_D3_172_96.wav
138,192,41860,1,0,0:0:0:78:0_G3_172_96.wav
266,192,42035,1,0,0:0:0:78:0_A3_172_96.wav
10,192,42209,1,0,0:0:0:78:0_G3_172_96.wav
394,192,42384,1,0,0:0:0:78:0_A3_172_96.wav
138,192,42558,1,0,0:0:0:78:0_G3_172_96.wav
266,192,42733,1,0,0:0:0:78:0_A3_172_96.wav
10,192,42907,1,0,0:0:0:78:0_G3_172_96.wav
394,192,42994,1,0,0:0:0:78:0_A3_172_96.wav
138,192,43081,1,0,0:0:0:78:0_G3_172_96.wav
266,192,43169,1,0,0:0:0:78:0_A3_172_96.wav
10,192,43256,1,0,0:0:0:78:0_G3_172_96.wav
394,192,43343,1,0,0:0:0:78:0_A3_172_96.wav
138,192,43430,1,0,0:0:0:78:0_G3_172_96.wav
266,192,43517,1,0,0:0:0:78:0_A3_172_96.wav
10,192,43605,1,0,0:0:0:78:0_C3_172_384.wav
394,192,43692,1,0,0:0:0:78:0_C3_172_96.wav
138,192,43779,1,0,0:0:0:78:0_D3_172_96.wav
266,192,43866,1,0,0:0:0:78:0_C3_172_96.wav
10,192,43953,1,0,0:0:0:78:0_G3_172_96.wav
394,192,44128,1,0,0:0:0:78:0_A3_172_96.wav
138,192,44215,1,0,0:0:0:78:0_C3_172_96.wav
266,192,44302,1,0,0:0:0:78:0_D4_172_96.wav
10,192,44477,1,0,0:0:0:78:0_A#3_172_96.wav
394,192,44651,1,0,0:0:0:78:0_A3_172_96.wav
138,192,44738,1,0,0:0:0:78:0_C3_172_96.wav
266,192,44826,1,0,0:0:0:78:0_A#3_172_96.wav
10,192,45000,1,0,0:0:0:78:0_A3_172_96.wav
394,192,45174,1,0,0:0:0:78:0_G3_172_96.wav
138,192,45349,1,0,0:0:0:78:0_A3_172_96.wav
266,192,45523,1,0,0:0:0:78:0_A#3_172_96.wav
10,192,45698,1,0,0:0:0:78:0_C4_172_96.wav
394,192,45872,1,0,0:0:0:78:0_A3_172_96.wav
138,192,46046,1,0,0:0:0:78:0_F3_172_96.wav
266,192,46134,1,0,0:0:0:78:0_C3_172_96.wav
10,192,46221,1,0,0:0:0:78:0_D3_172_96.wav
394,192,46374,1,0,0:0:0:78:0_A1_172_384.wav
138,192,46395,1,0,0:0:0:81:drum0_G3_172_96.wav
266,192,46483,1,0,0:0:0:78:0_C3_172_96.wav
10,192,46570,1,0,0:0:0:81:drum0_G3_172_96.wav
394,192,46657,1,0,0:0:0:78:0_C3_172_96.wav
138,192,46744,1,0,0:0:0:81:drum0_A3_172_96.wav
266,192,46919,1,0,0:0:0:81:drum0_A#3_172_96.wav
10,192,47006,1,0,0:0:0:78:0_C3_172_96.wav
394,192,47093,1,0,0:0:0:81:drum0_G3_172_96.wav
138,192,47267,1,0,0:0:0:78:0_C4_172_96.wav
266,192,47442,1,0,0:0:0:78:0_A#3_172_96.wav
10,192,47529,1,0,0:0:0:78:0_C3_172_96.wav
394,192,47616,1,0,0:0:0:81:drum0_A#3_172_96.wav
138,192,47791,1,0,0:0:0:78:0_G3_172_96.wav
266,192,47965,1,0,0:0:0:78:0_G3_172_96.wav
10,192,48140,1,0,0:0:0:78:0_A3_172_96.wav
394,192,48314,1,0,0:0:0:78:0_A#3_172_96.wav
138,192,48488,1,0,0:0:0:78:0_A3_172_96.wav
266,192,48663,1,0,0:0:0:78:0_A3_172_96.wav
10,192,48837,1,0,0:0:0:78:0_A#3_172_96.wav
394,192,48924,1,0,0:0:0:78:0_C3_172_96.wav
138,192,49012,1,0,0:0:0:78:0_A3_172_96.wav
266,192,49186,1,0,0:0:0:78:0_C3_172_384.wav
10,192,49273,1,0,0:0:0:78:0_C3_172_96.wav
394,192,49360,1,0,0:0:0:78:0_D3_172_96.wav
138,192,49448,1,0,0:0:0:78:0_C3_172_96.wav
266,192,49535,1,0,0:0:0:78:0_G3_172_96.wav
10,192,49709,1,0,0:0:0:78:0_A3_172_96.wav
394,192,49796,1,0,0:0:0:78:0_C3_172_96.wav
138,192,49884,1,0,0:0:0:78:0_D4_172_96.wav
266,192,50058,1,0,0:0:0:78:0_A#3_172_96.wav
10,192,50233,1,0,0:0:0:78:0_A3_172_96.wav
394,192,50320,1,0,0:0:0:78:0_C3_172_96.wav
138,192,50407,1,0,0:0:0:78:0_A#3_172_96.wav
266,192,50581,1,0,0:0:0:78:0_A3_172_96.wav
10,192,50756,1,0,0:0:0:78:0_G3_172_96.wav
394,192,50930,1,0,0:0:0:78:0_A3_172_96.wav
138,192,51105,1,0,0:0:0:78:0_A#3_172_96.wav
266,192,51279,1,0,0:0:0:78:0_C4_172_96.wav
10,192,51453,1,0,0:0:0:78:0_A3_172_96.wav
394,192,51628,1,0,0:0:0:78:0_F3_172_96.wav
138,192,51715,1,0,0:0:0:78:0_C3_172_96.wav
266,192,51802,1,0,0:0:0:78:0_D3_172_96.wav
10,192,51977,1,0,0:0:0:81:drum0_G3_172_96.wav
394,192,51999,1,0,0:0:0:78:0_F#3_172_192.wav
138,192,52064,1,0,0:0:0:78:0_C3_172_96.wav
266,192,52151,1,0,0:0:0:81:drum0_G3_172_96.wav
138,192,52238,1,0,0:0:0:78:0_C3_172_96.wav
394,192,52326,1,0,0:0:0:81:drum0_A3_172_96.wav
10,192,52500,1,0,0:0:0:81:drum0_A#3_172_96.wav
266,192,52587,1,0,0:0:0:78:0_C3_172_96.wav
138,192,52674,1,0,0:0:0:81:drum0_G3_172_96.wav
394,192,52849,1,0,0:0:0:78:0_C4_172_96.wav
10,192,53023,1,0,0:0:0:78:0_A#3_172_96.wav
266,192,53110,1,0,0:0:0:78:0_C3_172_96.wav
138,192,53198,1,0,0:0:0:81:drum0_A#3_172_96.wav
394,192,53372,1,0,0:0:0:78:0_G3_172_96.wav
10,192,53394,1,0,0:0:0:78:0_G#3_172_96.wav
266,192,53546,1,0,0:0:0:78:0_G3_172_96.wav
138,192,53721,1,0,0:0:0:78:0_A3_172_96.wav
394,192,53743,1,0,0:0:0:78:0_G#3_172_96.wav
10,192,53895,1,0,0:0:0:78:0_A#3_172_96.wav
266,192,54070,1,0,0:0:0:78:0_C4_172_96.wav
138,192,54092,1,0,0:0:0:78:0_G#3_172_96.wav
394,192,54244,1,0,0:0:0:78:0_A3_172_96.wav
10,192,54266,1,0,0:0:0:78:0_G#3_172_96.wav
266,192,54419,1,0,0:0:0:81:drum0_A3_172_96.wav
138,192,54440,1,0,0:0:0:78:0_G#3_172_96.wav
394,192,54506,1,0,0:0:0:78:0_C3_172_96.wav
10,192,54593,1,0,0:0:0:81:drum0_A#3_172_96.wav
394,192,54767,1,0,0:0:0:78:0_C3_172_384.wav
266,192,54855,1,0,0:0:0:78:0_C3_172_96.wav
138,192,54942,1,0,0:0:0:78:0_D3_172_96.wav
10,192,55029,1,0,0:0:0:78:0_C3_172_96.wav
394,192,55116,1,0,0:0:0:78:0_G3_172_96.wav
266,192,55291,1,0,0:0:0:78:0_A3_172_96.wav
138,192,55378,1,0,0:0:0:78:0_C3_172_96.wav
394,192,55465,1,0,0:0:0:78:0_D4_172_96.wav
10,192,55640,1,0,0:0:0:78:0_A#3_172_96.wav
266,192,55814,1,0,0:0:0:78:0_A3_172_96.wav
138,192,55901,1,0,0:0:0:78:0_C3_172_96.wav
394,192,55988,1,0,0:0:0:78:0_A#3_172_96.wav
10,192,56163,1,0,0:0:0:78:0_A3_172_96.wav
266,192,56337,1,0,0:0:0:78:0_G3_172_96.wav
138,192,56512,1,0,0:0:0:78:0_A3_172_96.wav
394,192,56686,1,0,0:0:0:78:0_A#3_172_96.wav
10,192,56860,1,0,0:0:0:78:0_C4_172_96.wav
266,192,57035,1,0,0:0:0:78:0_A3_172_96.wav
138,192,57209,1,0,0:0:0:78:0_F3_172_96.wav
394,192,57296,1,0,0:0:0:78:0_C3_172_96.wav
10,192,57384,1,0,0:0:0:78:0_D3_172_96.wav
266,192,57536,1,0,0:0:0:78:0_A1_172_384.wav
138,192,57558,1,0,0:0:0:78:0_C3_172_96.wav
394,192,57645,1,0,0:0:0:78:0_C3_172_96.wav
10,192,57733,1,0,0:0:0:78:0_D3_172_96.wav
266,192,57820,1,0,0:0:0:78:0_C3_172_96.wav
138,192,57907,1,0,0:0:0:78:0_G3_172_96.wav
394,192,58081,1,0,0:0:0:78:0_A3_172_96.wav
10,192,58169,1,0,0:0:0:78:0_C3_172_96.wav
266,192,58256,1,0,0:0:0:78:0_D3_172_96.wav
138,192,58430,1,0,0:0:0:78:0_C4_172_96.wav
394,192,58605,1,0,0:0:0:78:0_A#3_172_96.wav
10,192,58692,1,0,0:0:0:78:0_C3_172_96.wav
266,192,58779,1,0,0:0:0:78:0_A3_172_96.wav
138,192,58953,1,0,0:0:0:78:0_G3_172_96.wav
394,192,59128,1,0,0:0:0:78:0_G3_172_96.wav
10,192,59302,1,0,0:0:0:78:0_A3_172_96.wav
266,192,59477,1,0,0:0:0:78:0_A#3_172_96.wav
138,192,59651,1,0,0:0:0:78:0_A3_172_96.wav
394,192,59826,1,0,0:0:0:78:0_A3_172_96.wav
10,192,60000,1,0,0:0:0:78:0_A#3_172_96.wav
266,192,60087,1,0,0:0:0:78:0_C3_172_96.wav
138,192,60174,1,0,0:0:0:78:0_A3_172_96.wav
394,192,60349,1,0,0:0:0:78:0_C3_172_384.wav
10,192,60436,1,0,0:0:0:78:0_C3_172_96.wav
266,192,60523,1,0,0:0:0:78:0_D3_172_96.wav
138,192,60610,1,0,0:0:0:78:0_C3_172_96.wav
394,192,60698,1,0,0:0:0:78:0_G3_172_96.wav
10,192,60872,1,0,0:0:0:78:0_A3_172_96.wav
266,192,60959,1,0,0:0:0:78:0_C3_172_96.wav
138,192,61046,1,0,0:0:0:78:0_D4_172_96.wav
394,192,61221,1,0,0:0:0:78:0_A#3_172_96.wav
10,192,61395,1,0,0:0:0:78:0_A3_172_96.wav
266,192,61483,1,0,0:0:0:78:0_C3_172_96.wav
138,192,61570,1,0,0:0:0:78:0_A#3_172_96.wav
394,192,61744,1,0,0:0:0:78:0_A3_172_96.wav
10,192,61919,1,0,0:0:0:78:0_G3_172_96.wav
266,192,62093,1,0,0:0:0:78:0_A3_172_96.wav
138,192,62267,1,0,0:0:0:78:0_A#3_172_96.wav
394,192,62442,1,0,0:0:0:78:0_C4_172_96.wav
10,192,62616,1,0,0:0:0:78:0_A3_172_96.wav
266,192,62791,1,0,0:0:0:78:0_F3_172_96.wav
138,192,62878,1,0,0:0:0:78:0_C3_172_96.wav
394,192,62965,1,0,0:0:0:78:0_D3_172_96.wav
10,192,63139,1,0,0:0:0:78:0_C3_172_96.wav
266,192,63227,1,0,0:0:0:78:0_C3_172_96.wav
138,192,63314,1,0,0:0:0:78:0_D3_172_96.wav
394,192,63401,1,0,0:0:0:78:0_C3_172_96.wav
10,192,63488,1,0,0:0:0:78:0_G3_172_96.wav
266,192,63663,1,0,0:0:0:78:0_A3_172_96.wav
138,192,63750,1,0,0:0:0:78:0_C3_172_96.wav
394,192,63837,1,0,0:0:0:78:0_D3_172_96.wav
10,192,64012,1,0,0:0:0:78:0_C4_172_96.wav
266,192,64186,1,0,0:0:0:78:0_A#3_172_96.wav
138,192,64273,1,0,0:0:0:78:0_C3_172_96.wav
394,192,64360,1,0,0:0:0:78:0_A3_172_96.wav
10,192,64535,1,0,0:0:0:78:0_G3_172_96.wav
266,192,64709,1,0,0:0:0:78:0_G3_172_96.wav
138,192,64884,1,0,0:0:0:78:0_A3_172_96.wav
394,192,65058,1,0,0:0:0:78:0_A#3_172_96.wav
10,192,65233,1,0,0:0:0:78:0_D4_172_96.wav
266,192,65407,1,0,0:0:0:78:0_D4_172_96.wav
138,192,65581,1,0,0:0:0:78:0_D#4_172_96.wav
394,192,65669,1,0,0:0:0:78:0_C3_172_96.wav
10,192,65756,1,0,0:0:0:78:0_D4_172_96.wav
266,192,65930,1,0,0:0:0:78:0_C3_172_384.wav
138,192,66017,1,0,0:0:0:78:0_C3_172_96.wav
394,192,66105,1,0,0:0:0:78:0_D3_172_96.wav
10,192,66192,1,0,0:0:0:78:0_C3_172_96.wav
266,192,66279,1,0,0:0:0:78:0_G3_172_96.wav
138,192,66453,1,0,0:0:0:78:0_A3_172_96.wav
394,192,66541,1,0,0:0:0:78:0_C3_172_96.wav
10,192,66628,1,0,0:0:0:78:0_D4_172_96.wav
266,192,66802,1,0,0:0:0:78:0_A#3_172_96.wav
138,192,66977,1,0,0:0:0:78:0_A3_172_96.wav
394,192,67064,1,0,0:0:0:78:0_C3_172_96.wav
10,192,67151,1,0,0:0:0:78:0_A#3_172_96.wav
266,192,67326,1,0,0:0:0:78:0_A3_172_96.wav
138,192,67500,1,0,0:0:0:78:0_G3_172_96.wav
394,192,67674,1,0,0:0:0:78:0_A3_172_96.wav
10,192,67849,1,0,0:0:0:78:0_A#3_172_96.wav
266,192,68023,1,0,0:0:0:78:0_C4_172_96.wav
138,192,68198,1,0,0:0:0:78:0_A3_172_96.wav
394,192,68372,1,0,0:0:0:78:0_F3_172_96.wav
10,192,68459,1,0,0:0:0:78:0_C3_172_96.wav
266,192,68546,1,0,0:0:0:78:0_D3_172_96.wav
138,192,68699,1,0,0:0:0:78:0_A1_172_384.wav
394,192,68721,1,0,0:0:0:81:drum0_G3_172_96.wav
10,192,68808,1,0,0:0:0:78:0_C3_172_96.wav
266,192,68895,1,0,0:0:0:81:drum0_G3_172_96.wav
138,192,68983,1,0,0:0:0:78:0_C3_172_96.wav
394,192,69070,1,0,0:0:0:81:drum0_A3_172_96.wav
10,192,69244,1,0,0:0:0:81:drum0_A#3_172_96.wav
266,192,69331,1,0,0:0:0:78:0_C3_172_96.wav
138,192,69419,1,0,0:0:0:81:drum0_G3_172_96.wav
394,192,69593,1,0,0:0:0:78:0_C4_172_96.wav
10,192,69767,1,0,0:0:0:78:0_A#3_172_96.wav
266,192,69855,1,0,0:0:0:78:0_C3_172_96.wav
138,192,69942,1,0,0:0:0:81:drum0_A#3_172_96.wav
394,192,70116,1,0,0:0:0:78:0_G3_172_96.wav
10,192,70291,1,0,0:0:0:78:0_G3_172_96.wav
266,192,70465,1,0,0:0:0:78:0_A3_172_96.wav
138,192,70639,1,0,0:0:0:78:0_A#3_172_96.wav
394,192,70814,1,0,0:0:0:78:0_A3_172_96.wav
10,192,70988,1,0,0:0:0:78:0_A3_172_96.wav
266,192,71163,1,0,0:0:0:78:0_A#3_172_96.wav
138,192,71250,1,0,0:0:0:78:0_C3_172_96.wav
394,192,71337,1,0,0:0:0:78:0_A3_172_96.wav
10,192,71512,1,0,0:0:0:78:0_C3_172_384.wav
266,192,71599,1,0,0:0:0:78:0_C3_172_96.wav
138,192,71686,1,0,0:0:0:78:0_D3_172_96.wav
394,192,71773,1,0,0:0:0:78:0_C3_172_96.wav
10,192,71860,1,0,0:0:0:78:0_G3_172_96.wav
266,192,72035,1,0,0:0:0:78:0_A3_172_96.wav
138,192,72122,1,0,0:0:0:78:0_C3_172_96.wav
394,192,72209,1,0,0:0:0:78:0_D4_172_96.wav
10,192,72384,1,0,0:0:0:78:0_A#3_172_96.wav
266,192,72558,1,0,0:0:0:78:0_A3_172_96.wav
138,192,72645,1,0,0:0:0:78:0_C3_172_96.wav
394,192,72733,1,0,0:0:0:78:0_A#3_172_96.wav
10,192,72907,1,0,0:0:0:78:0_A3_172_96.wav
266,192,73081,1,0,0:0:0:78:0_G3_172_96.wav
138,192,73256,1,0,0:0:0:78:0_A3_172_96.wav
394,192,73430,1,0,0:0:0:78:0_A#3_172_96.wav
10,192,73605,1,0,0:0:0:78:0_C4_172_96.wav
266,192,73779,1,0,0:0:0:78:0_A3_172_96.wav
138,192,73953,1,0,0:0:0:78:0_F3_172_96.wav
394,192,74041,1,0,0:0:0:78:0_C3_172_96.wav
10,192,74128,1,0,0:0:0:78:0_D3_172_96.wav
266,192,74302,1,0,0:0:0:81:drum0_G3_172_96.wav
138,192,74389,1,0,0:0:0:78:0_C3_172_96.wav
394,192,74477,1,0,0:0:0:81:drum0_G3_172_96.wav
10,192,74564,1,0,0:0:0:78:0_C3_172_96.wav
266,192,74651,1,0,0:0:0:81:drum0_A3_172_96.wav
138,192,74826,1,0,0:0:0:81:drum0_A#3_172_96.wav
394,192,74913,1,0,0:0:0:78:0_C3_172_96.wav
10,192,75000,1,0,0:0:0:81:drum0_G3_172_96.wav
266,192,75174,1,0,0:0:0:78:0_C4_172_96.wav
138,192,75349,1,0,0:0:0:78:0_A#3_172_96.wav
394,192,75436,1,0,0:0:0:78:0_C3_172_96.wav
10,192,75523,1,0,0:0:0:81:drum0_A#3_172_96.wav
266,192,75698,1,0,0:0:0:78:0_A#3_172_96.wav
138,192,75872,1,0,0:0:0:78:0_G3_172_96.wav
394,192,76046,1,0,0:0:0:78:0_A#3_172_96.wav
10,192,76221,1,0,0:0:0:78:0_A#3_172_96.wav
266,192,76395,1,0,0:0:0:78:0_C4_172_96.wav
138,192,76570,1,0,0:0:0:78:0_A3_172_96.wav
394,192,76744,1,0,0:0:0:78:0_A#3_172_96.wav
10,192,76831,1,0,0:0:0:78:0_C3_172_96.wav
266,192,76919,1,0,0:0:0:81:drum0_A#3_172_96.wav
138,192,77093,1,0,0:0:0:78:0_C3_172_384.wav
394,192,77180,1,0,0:0:0:78:0_C3_172_96.wav
10,192,77267,1,0,0:0:0:78:0_D3_172_96.wav
266,192,77355,1,0,0:0:0:78:0_C3_172_96.wav
138,192,77442,1,0,0:0:0:78:0_G3_172_96.wav
394,192,77616,1,0,0:0:0:78:0_A3_172_96.wav
10,192,77703,1,0,0:0:0:78:0_C3_172_96.wav
266,192,77791,1,0,0:0:0:78:0_D4_172_96.wav
138,192,77965,1,0,0:0:0:78:0_A#3_172_96.wav
394,192,78139,1,0,0:0:0:78:0_A3_172_96.wav
10,192,78227,1,0,0:0:0:78:0_C3_172_96.wav
266,192,78314,1,0,0:0:0:78:0_A#3_172_96.wav
138,192,78488,1,0,0:0:0:78:0_A3_172_96.wav
394,192,78663,1,0,0:0:0:78:0_G3_172_96.wav
10,192,78837,1,0,0:0:0:78:0_A3_172_96.wav
266,192,79012,1,0,0:0:0:78:0_A#3_172_96.wav
138,192,79186,1,0,0:0:0:78:0_C4_172_96.wav
394,192,79360,1,0,0:0:0:78:0_A3_172_96.wav
10,192,79535,1,0,0:0:0:78:0_F3_172_96.wav
266,192,79622,1,0,0:0:0:78:0_C3_172_96.wav
138,192,79709,1,0,0:0:0:78:0_D3_172_96.wav
394,192,79862,1,0,0:0:0:78:0_A1_172_384.wav
10,192,79884,1,0,0:0:0:78:0_C3_172_96.wav
266,192,79971,1,0,0:0:0:78:0_C3_172_96.wav
138,192,80058,1,0,0:0:0:78:0_D3_172_96.wav
394,192,80145,1,0,0:0:0:78:0_C3_172_96.wav
10,192,80233,1,0,0:0:0:78:0_G3_172_96.wav
266,192,80407,1,0,0:0:0:78:0_A3_172_96.wav
138,192,80494,1,0,0:0:0:78:0_C3_172_96.wav
394,192,80581,1,0,0:0:0:78:0_D3_172_96.wav
10,192,80756,1,0,0:0:0:78:0_C4_172_96.wav
266,192,80930,1,0,0:0:0:78:0_A#3_172_96.wav
138,192,81017,1,0,0:0:0:78:0_C3_172_96.wav
394,192,81105,1,0,0:0:0:78:0_A3_172_96.wav
10,192,81279,1,0,0:0:0:78:0_G3_172_96.wav
266,192,81453,1,0,0:0:0:78:0_G3_172_96.wav
138,192,81628,1,0,0:0:0:78:0_A3_172_96.wav
394,192,81802,1,0,0:0:0:78:0_A#3_172_96.wav
10,192,81977,1,0,0:0:0:78:0_A3_172_96.wav
266,192,82151,1,0,0:0:0:78:0_A3_172_96.wav
138,192,82326,1,0,0:0:0:78:0_A#3_172_96.wav
394,192,82413,1,0,0:0:0:78:0_C3_172_96.wav
10,192,82500,1,0,0:0:0:78:0_A3_172_96.wav
266,192,82674,1,0,0:0:0:78:0_C3_172_384.wav
138,192,82762,1,0,0:0:0:78:0_C3_172_96.wav
394,192,82849,1,0,0:0:0:78:0_D3_172_96.wav
10,192,82936,1,0,0:0:0:78:0_C3_172_96.wav
266,192,83023,1,0,0:0:0:78:0_G3_172_96.wav
138,192,83198,1,0,0:0:0:78:0_A3_172_96.wav
394,192,83285,1,0,0:0:0:78:0_C3_172_96.wav
10,192,83372,1,0,0:0:0:78:0_D4_172_96.wav
266,192,83546,1,0,0:0:0:78:0_A#3_172_96.wav
138,192,83721,1,0,0:0:0:78:0_A3_172_96.wav
394,192,83808,1,0,0:0:0:78:0_C3_172_96.wav
10,192,83895,1,0,0:0:0:78:0_A#3_172_96.wav
266,192,84070,1,0,0:0:0:78:0_A3_172_96.wav
138,192,84244,1,0,0:0:0:78:0_G3_172_96.wav
394,192,84419,1,0,0:0:0:78:0_A3_172_96.wav
10,192,84593,1,0,0:0:0:78:0_A#3_172_96.wav
266,192,84767,1,0,0:0:0:78:0_C4_172_96.wav
138,192,84942,1,0,0:0:0:78:0_A3_172_96.wav
394,192,85116,1,0,0:0:0:78:0_F3_172_96.wav
10,192,85203,1,0,0:0:0:78:0_C3_172_96.wav
266,192,85291,1,0,0:0:0:78:0_D3_172_96.wav
138,192,85465,1,0,0:0:0:78:0_C3_172_96.wav
394,192,85552,1,0,0:0:0:78:0_C3_172_96.wav
10,192,85639,1,0,0:0:0:78:0_D3_172_96.wav
266,192,85727,1,0,0:0:0:78:0_C3_172_96.wav
138,192,85814,1,0,0:0:0:78:0_G3_172_96.wav
394,192,85901,1,0,0:0:0:78:0_C3_172_96.wav
10,192,85988,1,0,0:0:0:78:0_A3_172_96.wav
266,192,86076,1,0,0:0:0:78:0_C3_172_96.wav
138,192,86163,1,0,0:0:0:78:0_D3_172_96.wav
394,192,86250,1,0,0:0:0:78:0_C3_172_96.wav
10,192,86337,1,0,0:0:0:78:0_C4_172_96.wav
266,192,86424,1,0,0:0:0:78:0_C3_172_96.wav
138,192,86512,1,0,0:0:0:78:0_A#3_172_96.wav
394,192,86599,1,0,0:0:0:78:0_C3_172_96.wav
10,192,86686,1,0,0:0:0:78:0_A3_172_96.wav
266,192,86773,1,0,0:0:0:78:0_C3_172_96.wav
138,192,86860,1,0,0:0:0:78:0_G3_172_96.wav
394,192,86948,1,0,0:0:0:78:0_C3_172_96.wav
10,192,87035,1,0,0:0:0:78:0_G3_172_96.wav
266,192,87122,1,0,0:0:0:78:0_C3_172_96.wav
138,192,87209,1,0,0:0:0:78:0_A3_172_96.wav
394,192,87296,1,0,0:0:0:78:0_C3_172_96.wav
10,192,87384,1,0,0:0:0:78:0_A#3_172_96.wav
266,192,87471,1,0,0:0:0:78:0_C3_172_96.wav
138,192,87558,1,0,0:0:0:78:0_D4_172_96.wav
394,192,87645,1,0,0:0:0:78:0_C3_172_96.wav
10,192,87733,1,0,0:0:0:78:0_D4_172_96.wav
266,192,87820,1,0,0:0:0:78:0_C3_172_96.wav
138,192,87907,1,0,0:0:0:78:0_D#4_172_96.wav
394,192,87994,1,0,0:0:0:78:0_C3_172_96.wav
10,192,88081,1,0,0:0:0:78:0_D4_172_96.wav
266,192,88169,1,0,0:0:0:78:0_C3_172_15264.wav
138,192,88256,1,0,0:0:0:78:0_D4_172_384.wav
394,192,88256,1,0,0:0:0:78:drum0_D4_172_192.wav
10,192,88953,1,0,0:0:0:78:0_C3_172_384.wav
266,192,88953,1,0,0:0:0:78:drum0_D4_172_192.wav
10,192,89651,1,0,0:0:0:78:0_C3_172_384.wav
138,192,89651,1,0,0:0:0:78:0_D4_172_192.wav
394,192,89651,1,0,0:0:0:78:drum0_D4_172_192.wav
138,192,90349,1,0,0:0:0:78:0_C3_172_384.wav
266,192,90349,1,0,0:0:0:78:0_C4_172_192.wav
394,192,90349,1,0,0:0:0:78:drum0_C4_172_192.wav
10,192,91046,1,0,0:0:0:78:0_C3_172_384.wav
138,192,91046,1,0,0:0:0:78:0_D4_172_768.wav
394,192,91046,1,0,0:0:0:78:drum0_D4_172_192.wav
10,192,91744,1,0,0:0:0:78:0_C3_172_384.wav
266,192,91744,1,0,0:0:0:78:drum0_D4_172_192.wav
138,192,92442,1,0,0:0:0:78:0_C3_172_384.wav
394,192,92442,1,0,0:0:0:78:drum0_D4_172_192.wav
10,192,93139,1,0,0:0:0:78:0_C3_172_384.wav
266,192,93139,1,0,0:0:0:78:drum0_D4_172_192.wav
138,192,93837,1,0,0:0:0:78:0_C3_172_384.wav
266,192,93837,1,0,0:0:0:78:0_A#3_172_384.wav
394,192,93837,1,0,0:0:0:78:drum0_A#3_172_192.wav
10,192,94535,1,0,0:0:0:78:0_C3_172_384.wav
266,192,94535,1,0,0:0:0:78:drum0_A#3_172_192.wav
10,192,95233,1,0,0:0:0:78:0_C3_172_384.wav
138,192,95233,1,0,0:0:0:78:0_C4_172_192.wav
394,192,95233,1,0,0:0:0:78:drum0_C4_172_192.wav
10,192,95930,1,0,0:0:0:78:0_C3_172_384.wav
266,192,95930,1,0,0:0:0:78:0_A3_172_192.wav
394,192,95930,1,0,0:0:0:78:drum0_A3_172_192.wav
10,192,96628,1,0,0:0:0:78:0_C3_172_480.wav
138,192,96628,1,0,0:0:0:78:0_G3_172_768.wav
394,192,96628,1,0,0:0:0:78:drum0_G3_172_192.wav
138,192,97326,1,0,0:0:0:78:0_C3_172_384.wav
266,192,97326,1,0,0:0:0:78:drum0_G3_172_192.wav
394,192,98023,1,0,0:0:0:78:drum0_G3_172_192.wav
10,192,98372,1,0,0:0:0:78:0_C3_172_192.wav
138,192,98721,1,0,0:0:0:78:0_C3_172_384.wav
266,192,98721,1,0,0:0:0:78:drum0_G3_172_192.wav
394,192,99070,1,0,0:0:0:78:0_C3_172_96.wav
10,192,99419,1,0,0:0:0:78:0_D4_172_384.wav
138,192,99419,1,0,0:0:0:78:drum0_D4_172_192.wav
266,192,99419,1,0,0:0:0:78:0_G4_172_384.wav
10,192,100116,1,0,0:0:0:78:0_C3_172_384.wav
394,192,100116,1,0,0:0:0:78:drum0_D4_172_192.wav
138,192,100814,1,0,0:0:0:78:0_D#4_172_384.wav
266,192,100814,1,0,0:0:0:78:drum0_D#4_172_192.wav
394,192,100814,1,0,0:0:0:78:0_F4_172_384.wav
10,192,101512,1,0,0:0:0:78:0_C3_172_384.wav
394,192,101512,1,0,0:0:0:78:drum0_D#4_172_192.wav
10,192,102209,1,0,0:0:0:78:0_D4_172_768.wav
138,192,102209,1,0,0:0:0:78:drum0_D4_172_192.wav
266,192,102209,1,0,0:0:0:78:0_G4_172_768.wav
138,192,102907,1,0,0:0:0:78:0_C3_172_384.wav
394,192,102907,1,0,0:0:0:78:drum0_D4_172_192.wav
10,192,103605,1,0,0:0:0:78:0_C3_172_384.wav
266,192,103605,1,0,0:0:0:78:drum0_D4_172_192.wav
138,192,104302,1,0,0:0:0:78:0_C3_172_384.wav
394,192,104302,1,0,0:0:0:78:drum0_D4_172_192.wav
10,192,105000,1,0,0:0:0:78:0_A#3_172_384.wav
266,192,105000,1,0,0:0:0:78:drum0_A#3_172_192.wav
394,192,105000,1,0,0:0:0:78:0_G4_172_384.wav
138,192,105698,1,0,0:0:0:78:0_C3_172_384.wav
266,192,105698,1,0,0:0:0:78:drum0_A#3_172_192.wav
10,192,106373,1,0,0:0:0:78:0_C4_172_192.wav
394,192,106373,1,0,0:0:0:78:drum0_C4_172_192.wav
138,192,106395,1,0,0:0:0:78:0_F3_172_384.wav
266,192,106395,1,0,0:0:0:78:0_F4_172_384.wav
10,192,107093,1,0,0:0:0:78:0_C3_172_384.wav
138,192,107093,1,0,0:0:0:78:0_D#4_172_192.wav
394,192,107093,1,0,0:0:0:78:drum0_D#4_172_192.wav
138,192,107791,1,0,0:0:0:78:0_D4_172_768.wav
266,192,107791,1,0,0:0:0:78:drum0_D4_172_192.wav
394,192,107791,1,0,0:0:0:78:0_G4_172_384.wav
10,192,108488,1,0,0:0:0:78:0_C3_172_384.wav
394,192,108488,1,0,0:0:0:78:drum0_D4_172_192.wav
138,192,109186,1,0,0:0:0:78:drum0_D4_172_192.wav
266,192,109535,1,0,0:0:0:78:0_C3_172_192.wav
10,192,109884,1,0,0:0:0:78:0_C3_172_384.wav
394,192,109884,1,0,0:0:0:78:drum0_D4_172_192.wav
138,192,110232,1,0,0:0:0:78:0_C3_172_96.wav
10,192,110581,1,0,0:0:0:78:0_C3_172_384.wav
266,192,110581,1,0,0:0:0:78:0_D4_172_384.wav
394,192,111279,1,0,0:0:0:78:0_C3_172_384.wav
138,192,111977,1,0,0:0:0:78:0_C3_172_384.wav
266,192,111977,1,0,0:0:0:78:0_C#4_172_384.wav
10,192,112674,1,0,0:0:0:78:0_C3_172_384.wav
138,192,113372,1,0,0:0:0:78:0_C3_172_480.wav
394,192,113372,1,0,0:0:0:78:0_D4_172_768.wav
266,192,114070,1,0,0:0:0:78:0_C3_172_384.wav
10,192,115116,1,0,0:0:0:78:0_C3_172_192.wav
394,192,115465,1,0,0:0:0:78:0_C3_172_384.wav
138,192,115814,1,0,0:0:0:78:0_C3_172_96.wav
10,192,116163,1,0,0:0:0:78:0_C3_172_384.wav
266,192,116163,1,0,0:0:0:78:0_D4_172_384.wav
394,192,116860,1,0,0:0:0:78:0_C3_172_384.wav
138,192,117558,1,0,0:0:0:78:0_C3_172_384.wav
266,192,117558,1,0,0:0:0:78:0_C#4_172_384.wav
10,192,118256,1,0,0:0:0:78:0_C3_172_384.wav
138,192,118953,1,0,0:0:0:78:0_C3_172_480.wav
394,192,118953,1,0,0:0:0:78:0_D4_172_768.wav
266,192,119651,1,0,0:0:0:78:0_C3_172_384.wav
10,192,120698,1,0,0:0:0:78:0_C3_172_192.wav
394,192,121046,1,0,0:0:0:78:0_C3_172_6240.wav
138,192,121395,1,0,0:0:0:78:0_C3_172_6144.wav
10,192,121744,1,0,0:0:0:78:0_D4_172_384.wav
266,192,121744,1,0,0:0:0:78:0_D4_172_384.wav
192,192,123139,1,0,0:0:0:0:
448,192,123139,1,0,0:0:0:0:
10,192,124535,1,0,0:0:0:78:0_D4_172_768.wav
266,192,124535,1,0,0:0:0:78:0_D4_172_768.wav
138,192,127326,1,0,0:0:0:78:0_D4_172_384.wav
394,192,127326,1,0,0:0:0:78:0_D4_172_384.wav
10,192,128721,1,0,0:0:0:78:0_C#4_172_384.wav
266,192,128721,1,0,0:0:0:78:0_C#4_172_384.wav
138,192,130116,1,0,0:0:0:78:0_B3_172_768.wav
394,192,130116,1,0,0:0:0:78:0_B3_172_768.wav
266,192,132907,1,0,0:0:0:78:0_B3_172_96.wav
10,192,133081,1,0,0:0:0:78:0_B3_172_96.wav
394,192,133256,1,0,0:0:0:78:0_C#4_172_96.wav
138,192,133430,1,0,0:0:0:78:0_C#4_172_96.wav
266,192,133605,1,0,0:0:0:78:0_D4_172_96.wav
10,192,133779,1,0,0:0:0:78:0_C#4_172_96.wav
394,192,133953,1,0,0:0:0:78:0_D4_172_96.wav
138,192,134128,1,0,0:0:0:78:0_E4_172_96.wav
266,192,134302,1,0,0:0:0:78:0_F#4_172_288.wav
192,192,135697,1,0,0:0:0:0:
10,192,135698,1,0,0:0:0:78:0_F#2_172_96.wav
394,192,135698,1,0,0:0:0:78:0_F#3_172_96.wav
10,192,136046,1,0,0:0:0:78:0_B2_172_96.wav
266,192,136046,1,0,0:0:0:78:0_B3_172_96.wav
394,192,136046,1,0,0:0:0:78:0_B3_172_96.wav
64,192,137092,1,0,0:0:0:0:
138,192,137093,1,0,0:0:0:78:0_B2_172_96.wav
394,192,137093,1,0,0:0:0:78:0_B3_172_96.wav
