osu file format v14

[General]
AudioFilename: audio.mp3
AudioLeadIn: 0
PreviewTime: 11086
Countdown: 0
SampleSet: Soft
StackLeniency: 0.7
Mode: 0
LetterboxInBreaks: 0
WidescreenStoryboard: 0
SamplesMatchPlaybackRate: 1

[Editor]
Bookmarks: 22057,46747,49486,87886,93372,104343,126290,148229,170172,192119,214057,236000,257943,279886,301829,323772
DistanceSpacing: 3.5
BeatDivisor: 4
GridSize: 32
TimelineZoom: 2.3

[Metadata]
Title:Insomnia Of An Anxious Mind
TitleUnicode:Insomnia Of An Anxious Mind
Artist:Keeno
ArtistUnicode:Keeno
Creator:Itasha_S13
Version:Somber of Late Night
Source:
Tags:Music for Orchestra Drums And Bass Med School
BeatmapID:1490537
BeatmapSetID:666277

[Difficulty]
HPDrainRate:6.5
CircleSize:4.3
OverallDifficulty:9
ApproachRate:9.2
SliderMultiplier:1.35
SliderTickRate:1

[Events]
//Background and Video events
0,0,"BG.jpg",0,0
//Break Periods
2,194547,212261
//Storyboard Layer 0 (Background)
//Storyboard Layer 1 (Fail)
//Storyboard Layer 2 (Pass)
//Storyboard Layer 3 (Foreground)
//Storyboard Sound Samples

[TimingPoints]
119,342.857142857143,4,2,4,5,1,0
5604,-250,4,2,4,5,0,0
20690,-200,4,2,4,10,0,0
33033,-166.666666666667,4,2,4,15,0,0
38519,-181.818181818182,4,2,4,15,0,0
54976,-153.846153846154,4,2,4,15,0,0
60461,-166.666666666667,4,2,4,15,0,0
65604,-166.666666666667,4,2,4,5,0,0
65947,-166.666666666667,4,2,4,15,0,0
71090,-166.666666666667,4,2,4,5,0,0
71433,-166.666666666667,4,2,4,15,0,0
76576,-166.666666666667,4,2,4,5,0,0
76919,-166.666666666667,4,2,4,15,0,0
82061,-166.666666666667,4,2,4,5,0,0
82404,-166.666666666667,4,2,4,15,0,0
86176,-166.666666666667,4,2,5,15,0,0
93376,-333.333333333333,4,2,1,10,0,0
95776,-333.333333333333,4,2,1,5,0,0
96119,-500,4,2,1,10,0,0
97147,-333.333333333333,4,2,0,5,0,0
97490,-333.333333333333,4,2,1,10,0,0
98519,-333.333333333333,4,2,1,5,0,0
98861,-200,4,2,1,10,0,0
104347,-80,4,2,1,70,0,0
105719,-66.6666666666667,4,2,1,70,0,0
105804,-66.6666666666667,4,2,1,5,0,0
106061,-66.6666666666667,4,2,1,70,0,0
106576,-74.0740740740741,4,2,1,70,0,0
106661,-74.0740740740741,4,2,1,5,0,0
106747,-74.0740740740741,4,2,1,70,0,0
106833,-74.0740740740741,4,2,1,5,0,0
106919,-74.0740740740741,4,2,1,70,0,0
107091,-83.3333333333333,4,2,1,70,0,0
108461,-66.6666666666667,4,2,1,70,0,0
108547,-74.0740740740741,4,2,1,5,0,0
108633,-74.0740740740741,4,2,1,70,0,0
109319,-74.0740740740741,4,2,1,70,0,0
109404,-74.0740740740741,4,2,1,5,0,0
109490,-74.0740740740741,4,3,3,70,0,0
109576,-74.0740740740741,4,2,2,5,0,0
109662,-74.0740740740741,4,3,2,70,0,0
109747,-74.0740740740741,4,2,1,5,0,0
109833,-86.9565217391304,4,2,1,70,0,0
111204,-66.6666666666667,4,2,1,70,0,0
111290,-74.0740740740741,4,2,1,70,0,0
111376,-74.0740740740741,4,2,1,70,0,0
112061,-80,4,2,1,70,0,0
112147,-74.0740740740741,4,2,1,5,0,0
112233,-80,4,2,1,70,0,0
112319,-74.0740740740741,4,2,1,5,0,0
112405,-74.0740740740741,4,2,1,70,0,0
112576,-90.9090909090909,4,2,1,70,0,0
113090,-90.909090909091,4,2,1,70,0,0
113519,-142.857142857143,4,2,1,5,0,0
113605,-90.909090909091,4,2,1,70,0,0
114033,-142.857142857143,4,2,1,5,0,0
114119,-142.857142857143,4,2,1,70,0,0
114461,-83.3333333333333,4,3,3,70,0,0
114547,-83.3333333333333,4,3,3,5,0,0
114633,-83.3333333333333,4,3,2,70,0,0
114890,-83.3333333333333,4,3,3,5,0,0
114976,-83.3333333333333,4,3,1,70,0,0
115061,-83.3333333333333,4,3,3,5,0,0
115147,-83.3333333333333,4,3,1,70,0,0
115233,-83.3333333333333,4,3,3,5,0,0
115319,-83.3333333333333,4,2,1,70,0,0
116690,-66.6666666666667,4,2,1,70,0,0
116776,-74.0740740740741,4,2,1,5,0,0
116862,-74.0740740740741,4,2,1,70,0,0
117547,-76.9230769230769,4,2,1,70,0,0
117633,-74.0740740740741,4,2,1,5,0,0
117719,-76.9230769230769,4,2,1,70,0,0
117804,-74.0740740740741,4,2,1,5,0,0
117890,-74.0740740740741,4,2,1,70,0,0
118061,-80,4,2,1,70,0,0
119433,-66.6666666666667,4,2,1,70,0,0
119519,-74.0740740740741,4,2,1,5,0,0
119605,-74.0740740740741,4,2,1,70,0,0
120290,-74.0740740740741,4,2,1,70,0,0
120376,-74.0740740740741,4,2,1,5,0,0
120462,-74.0740740740741,4,3,3,70,0,0
120547,-74.0740740740741,4,2,1,5,0,0
120633,-74.0740740740741,4,3,2,70,0,0
120719,-74.0740740740741,4,2,1,5,0,0
120804,-83.3333333333333,4,2,1,70,0,0
122174,-66.6666666666667,4,2,1,70,0,0
122261,-74.0740740740741,4,2,1,5,0,0
122347,-74.0740740740741,4,2,1,70,0,0
123032,-74.0740740740741,4,2,1,70,0,0
123119,-74.0740740740741,4,2,1,5,0,0
123205,-74.0740740740741,4,2,1,70,0,0
123290,-74.0740740740741,4,2,1,5,0,0
123376,-74.0740740740741,4,2,1,70,0,0
123547,-100,4,2,1,70,0,0
124061,-90.909090909091,4,2,1,70,0,0
124490,-74.0740740740741,4,2,1,5,0,0
124576,-90.909090909091,4,2,1,70,0,0
125004,-74.0740740740741,4,2,1,5,0,0
125090,-74.0740740740741,4,2,1,70,0,0
125433,-83.3333333333333,4,3,3,70,0,0
125519,-83.3333333333333,4,3,3,5,0,0
125605,-83.3333333333333,4,3,2,70,0,0
125862,-83.3333333333333,4,3,3,5,0,0
125948,-83.3333333333333,4,3,1,70,0,0
126033,-83.3333333333333,4,3,3,5,0,0
126119,-83.3333333333333,4,3,1,70,0,0
126205,-83.3333333333333,4,3,3,5,0,0
126290,-80,4,2,1,70,0,0
127661,-66.6666666666667,4,2,1,70,0,0
127747,-74.0740740740741,4,2,1,5,0,0
127833,-74.0740740740741,4,2,1,70,0,0
128519,-74.0740740740741,4,2,1,70,0,0
128604,-74.0740740740741,4,2,1,5,0,0
128690,-74.0740740740741,4,2,1,70,0,0
128776,-74.0740740740741,4,2,1,5,0,0
128862,-74.0740740740741,4,2,1,70,0,0
129034,-83.3333333333333,4,2,1,70,0,0
130404,-66.6666666666667,4,2,1,70,0,0
130490,-74.0740740740741,4,2,1,5,0,0
130576,-74.0740740740741,4,2,1,70,0,0
131262,-74.0740740740741,4,2,1,70,0,0
131347,-74.0740740740741,4,2,1,5,0,0
131433,-74.0740740740741,4,3,3,70,0,0
131519,-74.0740740740741,4,2,2,5,0,0
131605,-74.0740740740741,4,3,2,70,0,0
131690,-74.0740740740741,4,2,1,5,0,0
131776,-86.9565217391304,4,2,1,70,0,0
133147,-66.6666666666667,4,2,1,70,0,0
133233,-74.0740740740741,4,2,1,5,0,0
133319,-74.0740740740741,4,2,1,70,0,0
134004,-80,4,2,1,70,0,0
134090,-80,4,2,1,5,0,0
134176,-80,4,2,1,70,0,0
134261,-80,4,2,1,5,0,0
134347,-80,4,2,1,70,0,0
134519,-90.9090909090909,4,2,1,70,0,0
135033,-90.909090909091,4,2,1,70,0,0
135461,-142.857142857143,4,2,1,5,0,0
135547,-90.909090909091,4,2,1,70,0,0
135976,-142.857142857143,4,2,1,5,0,0
136062,-142.857142857143,4,2,1,70,0,0
136404,-83.3333333333333,4,3,3,70,0,0
136490,-83.3333333333333,4,3,3,5,0,0
136576,-83.3333333333333,4,3,2,70,0,0
136833,-83.3333333333333,4,3,3,5,0,0
136919,-83.3333333333333,4,3,1,70,0,0
137004,-83.3333333333333,4,3,3,5,0,0
137090,-83.3333333333333,4,3,1,70,0,0
137176,-83.3333333333333,4,3,3,5,0,0
137262,-90.9090909090909,4,2,1,70,0,0
138633,-66.6666666666667,4,2,1,70,0,0
138719,-74.0740740740741,4,2,1,5,0,0
138805,-74.0740740740741,4,2,1,70,0,0
139490,-76.9230769230769,4,2,1,70,0,0
139576,-76.9230769230769,4,2,1,5,0,0
139662,-76.9230769230769,4,2,1,70,0,0
139747,-76.9230769230769,4,2,1,5,0,0
139833,-74.0740740740741,4,2,1,70,0,0
140004,-80,4,2,1,70,0,0
141376,-66.6666666666667,4,2,1,70,0,0
141461,-74.0740740740741,4,2,1,5,0,0
141547,-74.0740740740741,4,2,1,70,0,0
142233,-74.0740740740741,4,2,1,70,0,0
142319,-74.0740740740741,4,2,1,5,0,0
142405,-74.0740740740741,4,3,3,70,0,0
142490,-74.0740740740741,4,2,2,5,0,0
142576,-74.0740740740741,4,3,2,70,0,0
142661,-74.0740740740741,4,2,1,5,0,0
142747,-86.9565217391304,4,2,1,70,0,0
144117,-66.6666666666667,4,2,1,70,0,0
144204,-74.0740740740741,4,2,1,5,0,0
144290,-74.0740740740741,4,2,1,70,0,0
144975,-74.0740740740741,4,2,1,70,0,0
145061,-74.0740740740741,4,2,1,5,0,0
145147,-74.0740740740741,4,2,1,70,0,0
145233,-74.0740740740741,4,2,1,5,0,0
145319,-74.0740740740741,4,2,1,70,0,0
145490,-100,4,2,1,60,0,0
146004,-100,4,2,1,60,0,0
146433,-100,4,2,1,5,0,0
146519,-100,4,2,1,60,0,0
146947,-100,4,2,1,5,0,0
147033,-100,4,2,1,60,0,0
147376,-83.3333333333333,4,3,3,60,0,0
147462,-90.9090909090909,4,3,3,5,0,0
147548,-90.9090909090909,4,3,2,60,0,0
147805,-90.9090909090909,4,3,3,5,0,0
147891,-90.9090909090909,4,3,1,60,0,0
147976,-90.9090909090909,4,3,3,5,0,0
148062,-90.9090909090909,4,3,1,60,0,0
148148,-90.9090909090909,4,3,3,5,0,0
148233,-90.9090909090909,4,2,1,60,0,0
149604,-80,4,2,1,60,0,0
149690,-74.0740740740741,4,2,1,5,0,0
149776,-74.0740740740741,4,2,1,60,0,0
150461,-86.9565217391304,4,2,1,60,0,0
150547,-86.9565217391304,4,2,1,5,0,0
150633,-86.9565217391304,4,2,1,60,0,0
150719,-86.9565217391304,4,2,1,5,0,0
150976,-90.9090909090909,4,2,1,60,0,0
152347,-80,4,2,1,60,0,0
152433,-74.0740740740741,4,2,1,5,0,0
152519,-74.0740740740741,4,2,1,60,0,0
152690,-74.0740740740741,4,1,2,60,0,0
152733,-86.9565217391304,4,2,1,5,0,0
152776,-74.0740740740741,4,1,2,60,0,0
152819,-86.9565217391304,4,2,1,5,0,0
152861,-74.0740740740741,4,2,1,60,0,0
152904,-86.9565217391304,4,2,1,5,0,0
152947,-74.0740740740741,4,2,1,60,0,0
153204,-86.9565217391304,4,2,1,60,0,0
153290,-86.9565217391304,4,2,1,5,0,0
153376,-86.9565217391304,4,3,3,60,0,0
153461,-86.9565217391304,4,2,1,5,0,0
153547,-86.9565217391304,4,3,2,60,0,0
153633,-86.9565217391304,4,2,1,5,0,0
153719,-90.9090909090909,4,2,1,60,0,0
155090,-80,4,2,1,60,0,0
155176,-74.0740740740741,4,2,1,5,0,0
155262,-74.0740740740741,4,2,1,60,0,0
155947,-80,4,2,1,60,0,0
156033,-80,4,2,1,5,0,0
156119,-80,4,2,1,60,0,0
156204,-80,4,2,1,5,0,0
156290,-80,4,2,1,60,0,0
156376,-80,4,2,1,5,0,0
156462,-90.9090909090909,4,2,1,60,0,0
156547,-74.0740740740741,4,2,1,5,0,0
156633,-90.9090909090909,4,2,1,60,0,0
156719,-90.9090909090909,4,2,1,5,0,0
156805,-90.9090909090909,4,2,1,60,0,0
156890,-90.9090909090909,4,2,1,5,0,0
156976,-90.909090909091,4,2,1,60,0,0
157404,-142.857142857143,4,2,1,5,0,0
157490,-90.909090909091,4,2,1,60,0,0
157919,-142.857142857143,4,2,1,5,0,0
158005,-142.857142857143,4,2,1,60,0,0
158347,-90.9090909090909,4,3,3,70,0,0
158433,-90.9090909090909,4,3,3,5,0,0
158519,-90.9090909090909,4,3,2,70,0,0
158776,-90.9090909090909,4,3,3,5,0,0
158862,-90.9090909090909,4,3,1,70,0,0
158947,-90.9090909090909,4,3,3,5,0,0
159033,-90.9090909090909,4,3,1,70,0,0
159119,-90.9090909090909,4,3,3,5,0,0
159204,-90.9090909090909,4,2,1,60,0,0
160575,-80,4,2,1,60,0,0
160661,-74.0740740740741,4,2,1,5,0,0
160747,-74.0740740740741,4,2,1,60,0,0
161433,-86.9565217391304,4,2,1,60,0,0
161519,-86.9565217391304,4,2,1,5,0,0
161605,-86.9565217391304,4,2,1,60,0,0
161690,-86.9565217391304,4,2,1,5,0,0
161776,-86.9565217391304,4,2,1,60,0,0
161947,-90.9090909090909,4,2,1,60,0,0
163318,-80,4,2,1,60,0,0
163404,-74.0740740740741,4,2,1,5,0,0
163490,-74.0740740740741,4,2,1,60,0,0
164175,-86.9565217391304,4,2,1,60,0,0
164261,-86.9565217391304,4,2,1,5,0,0
164347,-86.9565217391304,4,3,3,60,0,0
164433,-86.9565217391304,4,2,1,5,0,0
164519,-86.9565217391304,4,3,2,60,0,0
164604,-86.9565217391304,4,2,1,5,0,0
164690,-83.3333333333333,4,2,1,60,0,0
165547,-83.3333333333333,4,2,1,60,0,0
165633,-83.3333333333333,4,2,1,5,0,0
165719,-83.3333333333333,4,2,1,60,0,0
166061,-80,4,2,1,60,0,0
166147,-74.0740740740741,4,2,1,5,0,0
166233,-74.0740740740741,4,2,1,60,0,0
166918,-86.9565217391304,4,2,1,60,0,0
167004,-86.9565217391304,4,2,1,5,0,0
167090,-86.9565217391304,4,2,1,60,0,0
167176,-86.9565217391304,4,2,1,5,0,0
167262,-86.9565217391304,4,2,1,60,0,0
167347,-86.9565217391304,4,2,1,5,0,0
167433,-71.4285714285714,4,2,1,60,0,0
167947,-100,4,2,1,60,0,0
168376,-100,4,2,1,5,0,0
168462,-100,4,2,1,60,0,0
168890,-100,4,2,1,5,0,0
168976,-100,4,2,1,60,0,0
169319,-68.9655172413793,4,3,3,70,0,0
169405,-68.9655172413793,4,3,3,5,0,0
169491,-68.9655172413793,4,3,2,70,0,0
169748,-68.9655172413793,4,3,3,5,0,0
169834,-68.9655172413793,4,3,1,70,0,0
169919,-68.9655172413793,4,3,3,5,0,0
170005,-68.9655172413793,4,3,1,70,0,0
170091,-68.9655172413793,4,3,3,5,0,0
170176,-55.5555555555556,4,2,1,70,0,1
171547,-166.666666666667,4,2,1,70,0,1
171719,-52.6315789473684,4,2,1,70,0,1
172404,-58.8235294117647,4,2,1,70,0,1
172919,-54.054054054054,4,2,1,70,0,1
174290,-166.666666666667,4,2,1,70,0,1
174461,-52.6315789473684,4,2,1,70,0,1
175147,-58.8235294117647,4,2,1,70,0,1
175661,-51.2820512820513,4,2,1,70,0,1
177033,-166.666666666667,4,2,1,70,0,1
177204,-50,4,2,1,70,0,1
177890,-55.5555555555556,4,2,1,70,0,1
178404,-48.780487804878,4,2,1,70,0,1
178919,-51.2820512820513,4,2,1,70,0,1
179433,-52.6315789473684,4,2,1,70,0,1
179947,-55.5555555555556,4,2,1,70,0,1
180290,-90.9090909090909,4,3,3,70,0,1
180461,-50,4,3,2,70,0,1
180719,-90.9090909090909,4,3,3,5,0,1
180804,-66.6666666666667,4,3,1,70,0,1
180890,-66.6666666666667,4,3,3,5,0,1
180976,-66.6666666666667,4,3,1,70,0,1
181062,-66.6666666666667,4,3,3,5,0,1
181147,-71.4285714285714,4,2,1,70,0,1
181661,-58.8235294117647,4,2,1,70,0,1
182176,-50,4,2,1,70,0,1
182519,-166.666666666667,4,2,1,70,0,1
182690,-45.4545454545455,4,2,1,70,0,1
183376,-50,4,2,1,70,0,1
183890,-45.4545454545455,4,2,1,70,0,1
184919,-50,4,2,1,70,0,1
185261,-166.666666666667,4,2,1,70,0,1
185433,-50,4,2,1,70,0,1
186119,-55.5555555555556,4,2,1,70,0,1
186633,-52.6315789473684,4,1,2,70,0,1
187061,-52.6315789473684,4,2,1,5,0,1
187147,-58.8235294117647,4,1,2,65,0,1
187576,-52.6315789473684,4,2,1,5,0,1
187661,-62.5,4,1,2,60,0,1
188090,-52.6315789473684,4,2,1,5,0,1
188176,-66.6666666666667,4,1,2,55,0,1
188604,-52.6315789473684,4,2,1,5,0,1
188690,-71.4285714285714,4,1,2,50,0,1
188947,-71.4285714285714,4,2,1,5,0,1
189033,-71.4285714285714,4,1,2,50,0,1
189290,-52.6315789473684,4,2,1,5,0,1
189376,-76.9230769230769,4,1,2,40,0,1
189804,-76.9230769230769,4,2,1,5,0,1
189890,-76.9230769230769,4,1,2,40,0,1
190319,-76.9230769230769,4,2,1,5,0,1
190404,-83.3333333333333,4,1,2,40,0,1
190833,-76.9230769230769,4,2,1,5,0,1
190919,-90.9090909090909,4,1,2,35,0,1
191347,-76.9230769230769,4,2,1,5,0,1
191433,-100,4,1,2,30,0,1
191947,-76.9230769230769,4,2,1,5,0,1
192119,-200,4,1,2,25,0,0
192633,-250,4,1,2,20,0,0
193147,-333.333333333333,4,1,2,15,0,0
193661,-500,4,1,2,10,0,0
194176,-900,4,1,2,5,0,0
214061,-200,4,1,2,10,0,0
215433,-200,4,1,1,10,0,0
215518,-200,4,1,2,10,0,0
218176,-200,4,1,1,20,0,0
218261,-200,4,1,2,20,0,0
220919,-200,4,1,1,20,0,0
221004,-200,4,1,2,20,0,0
222290,-200,4,1,1,10,0,0
222375,-200,4,1,2,20,0,0
224690,-166.666666666667,4,1,1,20,0,0
224861,-200,4,1,2,30,0,0
225033,-166.666666666667,4,1,1,30,0,0
225204,-166.666666666667,4,1,2,30,0,0
226404,-166.666666666667,4,1,1,30,0,0
226576,-166.666666666667,4,1,2,30,0,0
227261,-142.857142857143,4,1,2,40,0,0
227347,-142.857142857143,4,1,2,5,0,0
227433,-142.857142857143,4,1,2,40,0,0
227519,-142.857142857143,4,1,2,5,0,0
227604,-142.857142857143,4,1,2,40,0,0
227776,-166.666666666667,4,1,1,40,0,0
227862,-166.666666666667,4,1,2,40,0,0
229147,-142.857142857143,4,1,1,40,0,0
229319,-166.666666666667,4,1,2,40,0,0
229661,-125,4,1,2,50,0,0
230090,-142.857142857143,4,1,2,5,0,0
230176,-125,4,1,2,40,0,0
230262,-142.857142857143,4,1,2,5,0,0
230347,-142.857142857143,4,1,2,40,0,0
230519,-166.666666666667,4,1,1,50,0,0
230605,-166.666666666667,4,1,2,50,0,0
231033,-111.111111111111,4,1,2,60,0,0
231890,-111.111111111111,4,1,1,60,0,0
232061,-111.111111111111,4,1,2,60,0,0
232233,-100,4,1,2,70,0,0
232833,-142.857142857143,4,1,2,5,0,0
232919,-100,4,1,2,70,0,0
233005,-142.857142857143,4,1,2,5,0,0
233090,-142.857142857143,4,1,2,70,0,0
233261,-166.666666666667,4,1,1,70,0,0
233347,-166.666666666667,4,1,2,70,0,0
235661,-66.6666666666667,4,2,1,70,0,0
236004,-45.4545454545455,4,2,1,70,0,1
237376,-166.666666666667,4,2,1,70,0,1
237547,-45.4545454545455,4,2,1,70,0,1
238747,-44.4444444444445,4,2,1,70,0,1
240119,-166.666666666667,4,2,1,70,0,1
240290,-44.4444444444445,4,2,1,70,0,1
242861,-166.666666666667,4,2,1,70,0,1
243032,-41.6666666666667,4,2,1,70,0,1
244232,-42.5531914893617,4,2,1,70,0,1
244747,-44.4444444444445,4,2,1,70,0,1
245261,-45.4545454545455,4,2,1,70,0,1
245775,-47.6190476190476,4,2,1,70,0,1
246119,-90.9090909090909,4,3,3,70,0,1
246290,-50,4,3,2,70,0,1
246548,-90.9090909090909,4,3,2,5,0,1
246633,-66.6666666666667,4,3,1,70,0,1
246719,-66.6666666666667,4,3,3,5,0,1
246805,-66.6666666666667,4,3,1,70,0,1
246891,-66.6666666666667,4,3,3,5,0,1
246975,-71.4285714285714,4,2,1,70,0,1
247489,-58.8235294117647,4,2,1,70,0,1
248004,-50,4,2,1,70,0,1
248347,-166.666666666667,4,2,1,70,0,1
248518,-47.6190476190476,4,2,1,70,0,1
249033,-45.4545454545455,4,2,1,70,0,1
249718,-45.4545454545455,4,2,1,70,0,1
250747,-50,4,2,1,70,0,1
251090,-166.666666666667,4,2,1,70,0,1
251261,-50,4,2,1,70,0,1
251690,-50,4,2,1,5,0,1
251776,-50,4,2,1,70,0,1
252033,-50,4,2,1,5,0,1
252119,-50,4,2,1,70,0,1
252376,-50,4,2,1,5,0,1
252461,-52.6315789473684,4,1,2,60,0,1
252890,-50,4,2,1,5,0,1
252975,-58.8235294117647,4,1,2,60,0,1
253404,-50,4,2,1,5,0,1
253489,-62.5,4,1,2,60,0,1
253919,-50,4,2,1,5,0,1
254004,-66.6666666666667,4,1,2,60,0,1
254433,-50,4,2,1,5,0,1
254518,-71.4285714285714,4,1,2,60,0,1
254776,-71.4285714285714,4,2,1,5,0,1
254861,-66.6666666666667,4,1,2,60,0,1
255119,-71.4285714285714,4,2,1,5,0,1
255204,-62.5,4,1,2,60,0,1
255633,-76.9230769230769,4,2,1,5,0,1
255719,-58.8235294117647,4,1,2,60,0,1
256147,-76.9230769230769,4,2,1,5,0,1
256232,-83.3333333333333,4,1,2,60,0,1
256661,-76.9230769230769,4,2,1,5,0,1
256747,-76.9230769230769,4,1,2,60,0,1
256919,-76.9230769230769,4,2,1,5,0,1
257090,-83.3333333333333,4,3,3,50,0,1
257176,-83.3333333333333,4,3,3,5,0,1
257262,-76.9230769230769,4,3,2,50,0,1
257519,-83.3333333333333,4,3,1,5,0,1
257605,-80,4,3,1,50,0,1
257690,-83.3333333333333,4,3,1,5,0,1
257776,-80,4,3,1,50,0,1
257862,-83.3333333333333,4,3,1,5,0,1
257947,-100,4,2,1,50,0,0
258290,-83.3333333333333,4,2,1,50,0,0
258376,-83.3333333333333,4,2,1,5,0,0
258461,-83.3333333333333,4,2,1,50,0,0
258719,-83.3333333333333,4,2,1,5,0,0
258804,-83.3333333333333,4,2,1,50,0,0
258890,-83.3333333333333,4,2,1,5,0,0
258975,-83.3333333333333,4,2,1,50,0,0
259404,-83.3333333333333,4,2,1,5,0,0
259489,-83.3333333333333,4,2,1,50,0,0
259576,-83.3333333333333,4,2,1,5,0,0
259661,-83.3333333333333,4,2,1,50,0,0
259747,-83.3333333333333,4,2,1,5,0,0
259832,-83.3333333333333,4,2,1,50,0,0
260261,-83.3333333333333,4,2,1,5,0,0
260346,-83.3333333333333,4,2,1,50,0,0
260433,-83.3333333333333,4,2,1,5,0,0
260518,-83.3333333333333,4,2,1,50,0,0
260776,-83.3333333333333,4,2,1,5,0,0
260861,-83.3333333333333,4,2,1,50,0,0
260947,-83.3333333333333,4,2,1,5,0,0
261032,-83.3333333333333,4,2,1,50,0,0
261119,-83.3333333333333,4,2,1,5,0,0
261204,-83.3333333333333,4,2,1,50,0,0
262147,-83.3333333333333,4,2,1,5,0,0
262404,-83.3333333333333,4,1,2,50,0,0
262447,-83.3333333333333,4,2,1,5,0,0
262490,-83.3333333333333,4,1,2,50,0,0
262533,-83.3333333333333,4,2,1,5,0,0
262576,-83.3333333333333,4,2,1,50,0,0
262619,-83.3333333333333,4,2,1,5,0,0
262661,-83.3333333333333,4,2,1,50,0,0
263004,-83.3333333333333,4,2,1,5,0,0
263089,-83.3333333333333,4,3,3,50,0,0
263176,-83.3333333333333,4,2,1,5,0,0
263261,-83.3333333333333,4,3,2,50,0,0
263347,-83.3333333333333,4,2,1,5,0,0
263432,-83.3333333333333,4,2,1,50,0,0
263519,-83.3333333333333,4,2,1,5,0,0
263604,-83.3333333333333,4,2,1,50,0,0
263690,-83.3333333333333,4,2,1,5,0,0
263775,-83.3333333333333,4,2,1,50,0,0
263861,-83.3333333333333,4,2,1,5,0,0
263946,-83.3333333333333,4,2,1,50,0,0
264890,-83.3333333333333,4,2,1,5,0,0
264975,-83.3333333333333,4,2,1,50,0,0
265233,-83.3333333333333,4,2,1,5,0,0
265318,-83.3333333333333,4,2,1,50,0,0
265747,-83.3333333333333,4,2,1,5,0,0
265832,-83.3333333333333,4,2,1,50,0,0
265919,-83.3333333333333,4,2,1,5,0,0
266004,-83.3333333333333,4,2,1,50,0,0
266261,-83.3333333333333,4,2,1,5,0,0
266346,-83.3333333333333,4,2,1,50,0,0
266433,-83.3333333333333,4,2,1,5,0,0
266518,-83.3333333333333,4,2,1,50,0,0
267119,-83.3333333333333,4,2,1,5,0,0
267204,-83.3333333333333,4,2,1,50,0,0
267633,-83.3333333333333,4,2,1,5,0,0
267718,-83.3333333333333,4,2,1,50,0,0
268061,-83.3333333333333,4,3,3,50,0,0
268147,-83.3333333333333,4,3,3,5,0,0
268233,-83.3333333333333,4,3,2,50,0,0
268490,-83.3333333333333,4,3,1,5,0,0
268576,-83.3333333333333,4,3,1,50,0,0
268661,-83.3333333333333,4,3,1,5,0,0
268747,-83.3333333333333,4,3,1,50,0,0
268833,-83.3333333333333,4,3,1,5,0,0
268919,-83.3333333333333,4,2,1,50,0,0
269090,-83.3333333333333,4,2,1,5,0,0
269175,-83.3333333333333,4,2,1,50,0,0
269347,-83.3333333333333,4,2,1,5,0,0
269432,-83.3333333333333,4,2,1,50,0,0
270376,-83.3333333333333,4,2,1,5,0,0
270461,-83.3333333333333,4,2,1,50,0,0
270719,-83.3333333333333,4,2,1,5,0,0
270804,-83.3333333333333,4,2,1,50,0,0
271233,-83.3333333333333,4,2,1,5,0,0
271318,-83.3333333333333,4,2,1,50,0,0
271404,-83.3333333333333,4,2,1,5,0,0
271489,-83.3333333333333,4,2,1,50,0,0
271747,-83.3333333333333,4,2,1,5,0,0
271832,-83.3333333333333,4,2,1,50,0,0
271919,-83.3333333333333,4,2,1,5,0,0
272004,-83.3333333333333,4,2,1,50,0,0
272090,-83.3333333333333,4,2,1,5,0,0
272175,-83.3333333333333,4,2,1,50,0,0
273119,-83.3333333333333,4,2,1,5,0,0
273204,-83.3333333333333,4,2,1,50,0,0
273461,-83.3333333333333,4,2,1,5,0,0
273546,-83.3333333333333,4,2,1,50,0,0
273976,-83.3333333333333,4,2,1,5,0,0
274061,-83.3333333333333,4,3,3,50,0,0
274147,-83.3333333333333,4,2,1,5,0,0
274232,-83.3333333333333,4,3,2,50,0,0
274319,-83.3333333333333,4,2,1,5,0,0
274404,-83.3333333333333,4,2,1,50,0,0
274490,-83.3333333333333,4,2,1,5,0,0
274575,-83.3333333333333,4,2,1,50,0,0
274661,-83.3333333333333,4,2,1,5,0,0
274746,-83.3333333333333,4,2,1,50,0,0
274833,-83.3333333333333,4,2,1,5,0,0
274918,-83.3333333333333,4,2,1,50,0,0
275861,-83.3333333333333,4,2,1,5,0,0
275946,-83.3333333333333,4,2,1,50,0,0
276204,-83.3333333333333,4,2,1,5,0,0
276289,-83.3333333333333,4,2,1,50,0,0
276719,-83.3333333333333,4,2,1,5,0,0
276804,-83.3333333333333,4,2,1,50,0,0
276890,-83.3333333333333,4,2,1,5,0,0
276975,-83.3333333333333,4,2,1,50,0,0
277233,-83.3333333333333,4,2,1,5,0,0
277318,-83.3333333333333,4,2,1,50,0,0
277404,-83.3333333333333,4,2,1,5,0,0
277489,-83.3333333333333,4,2,1,50,0,0
277576,-83.3333333333333,4,2,1,5,0,0
277661,-83.3333333333333,4,2,1,50,0,0
278090,-83.3333333333333,4,2,1,5,0,0
278175,-83.3333333333333,4,2,1,50,0,0
278604,-83.3333333333333,4,2,1,5,0,0
278689,-83.3333333333333,4,2,1,50,0,0
279033,-83.3333333333333,4,3,3,50,0,0
279119,-83.3333333333333,4,3,3,5,0,0
279205,-83.3333333333333,4,3,2,50,0,0
279462,-83.3333333333333,4,3,1,5,0,0
279548,-83.3333333333333,4,3,1,50,0,0
279633,-83.3333333333333,4,3,1,5,0,0
279719,-83.3333333333333,4,3,1,50,0,0
279805,-83.3333333333333,4,3,1,5,0,0
279890,-83.3333333333333,4,2,1,60,0,0
281347,-83.3333333333333,4,2,1,5,0,0
281432,-83.3333333333333,4,2,1,50,0,0
282204,-83.3333333333333,4,2,1,5,0,0
282289,-83.3333333333333,4,2,1,50,0,0
282376,-83.3333333333333,4,2,1,5,0,0
282461,-83.3333333333333,4,2,1,50,0,0
284090,-83.3333333333333,4,2,1,5,0,0
284347,-83.3333333333333,4,1,2,50,0,0
284390,-83.3333333333333,4,2,1,5,0,0
284433,-83.3333333333333,4,1,2,50,0,0
284476,-83.3333333333333,4,2,1,5,0,0
284519,-83.3333333333333,4,2,1,50,0,0
284561,-83.3333333333333,4,2,1,5,0,0
284604,-83.3333333333333,4,2,1,50,0,0
284947,-83.3333333333333,4,2,1,5,0,0
285032,-83.3333333333333,4,3,3,50,0,0
285119,-83.3333333333333,4,2,1,5,0,0
285204,-83.3333333333333,4,3,2,50,0,0
285290,-83.3333333333333,4,2,1,5,0,0
285375,-83.3333333333333,4,2,1,50,0,0
286833,-83.3333333333333,4,2,1,5,0,0
286918,-83.3333333333333,4,2,1,50,0,0
287690,-83.3333333333333,4,2,1,5,0,0
287775,-83.3333333333333,4,2,1,50,0,0
287861,-83.3333333333333,4,2,1,5,0,0
287946,-83.3333333333333,4,2,1,50,0,0
289061,-83.3333333333333,4,2,1,5,0,0
289146,-83.3333333333333,4,2,1,50,0,0
289576,-83.3333333333333,4,2,1,5,0,0
289661,-83.3333333333333,4,2,1,50,0,0
290004,-83.3333333333333,4,3,3,50,0,0
290090,-83.3333333333333,4,3,3,5,0,0
290176,-83.3333333333333,4,3,2,50,0,0
290433,-83.3333333333333,4,3,1,5,0,0
290519,-83.3333333333333,4,3,1,50,0,0
290604,-83.3333333333333,4,3,1,5,0,0
290690,-83.3333333333333,4,3,1,50,0,0
290776,-83.3333333333333,4,3,1,5,0,0
290861,-83.3333333333333,4,2,1,60,0,0
292319,-83.3333333333333,4,2,1,5,0,0
292404,-83.3333333333333,4,2,1,50,0,0
293176,-83.3333333333333,4,2,1,5,0,0
293261,-83.3333333333333,4,2,1,50,0,0
293347,-83.3333333333333,4,2,1,5,0,0
293432,-83.3333333333333,4,2,1,50,0,0
295061,-83.3333333333333,4,2,1,5,0,0
295146,-83.3333333333333,4,2,1,50,0,0
295919,-83.3333333333333,4,2,1,5,0,0
296004,-83.3333333333333,4,3,3,50,0,0
296090,-83.3333333333333,4,2,1,5,0,0
296175,-83.3333333333333,4,3,2,50,0,0
296261,-83.3333333333333,4,2,1,5,0,0
296346,-83.3333333333333,4,2,1,50,0,0
297804,-83.3333333333333,4,2,1,5,0,0
297889,-83.3333333333333,4,2,1,50,0,0
298661,-83.3333333333333,4,2,1,5,0,0
298746,-83.3333333333333,4,2,1,50,0,0
298833,-83.3333333333333,4,2,1,5,0,0
298918,-83.3333333333333,4,2,1,50,0,0
300033,-83.3333333333333,4,2,1,5,0,0
300118,-83.3333333333333,4,2,1,50,0,0
300547,-83.3333333333333,4,2,1,5,0,0
300632,-83.3333333333333,4,2,1,50,0,0
300976,-83.3333333333333,4,3,3,50,0,0
301062,-83.3333333333333,4,3,3,5,0,0
301148,-83.3333333333333,4,3,2,50,0,0
301405,-83.3333333333333,4,3,1,5,0,0
301491,-83.3333333333333,4,3,1,50,0,0
301576,-83.3333333333333,4,3,1,5,0,0
301662,-83.3333333333333,4,3,1,50,0,0
301748,-83.3333333333333,4,3,1,5,0,0
301833,-83.3333333333333,4,2,1,60,0,0
303290,-83.3333333333333,4,2,1,5,0,0
303375,-83.3333333333333,4,2,1,50,0,0
304147,-83.3333333333333,4,2,1,5,0,0
304232,-83.3333333333333,4,2,1,50,0,0
304319,-83.3333333333333,4,2,1,5,0,0
304404,-83.3333333333333,4,2,1,50,0,0
306033,-83.3333333333333,4,2,1,5,0,0
306290,-83.3333333333333,4,1,2,50,0,0
306333,-83.3333333333333,4,2,1,5,0,0
306376,-83.3333333333333,4,1,2,50,0,0
306419,-83.3333333333333,4,2,1,5,0,0
306461,-83.3333333333333,4,2,1,50,0,0
306504,-83.3333333333333,4,2,1,5,0,0
306547,-83.3333333333333,4,2,1,50,0,0
306890,-83.3333333333333,4,2,1,5,0,0
306975,-83.3333333333333,4,3,3,50,0,0
307061,-83.3333333333333,4,2,1,5,0,0
307146,-83.3333333333333,4,3,2,50,0,0
307233,-83.3333333333333,4,2,1,5,0,0
307318,-83.3333333333333,4,2,1,50,0,0
308776,-83.3333333333333,4,2,1,5,0,0
308861,-83.3333333333333,4,2,1,50,0,0
309633,-83.3333333333333,4,2,1,5,0,0
309718,-83.3333333333333,4,2,1,50,0,0
309804,-83.3333333333333,4,2,1,5,0,0
309889,-83.3333333333333,4,2,1,50,0,0
311004,-83.3333333333333,4,2,1,5,0,0
311089,-83.3333333333333,4,2,1,50,0,0
311519,-83.3333333333333,4,2,1,5,0,0
311604,-83.3333333333333,4,2,1,50,0,0
311947,-83.3333333333333,4,3,3,50,0,0
312033,-83.3333333333333,4,3,3,5,0,0
312119,-83.3333333333333,4,3,2,50,0,0
312376,-83.3333333333333,4,3,1,5,0,0
312462,-83.3333333333333,4,3,1,50,0,0
312547,-83.3333333333333,4,3,1,5,0,0
312633,-83.3333333333333,4,3,1,50,0,0
312719,-83.3333333333333,4,3,1,5,0,0
312804,-83.3333333333333,4,2,1,60,0,0
314261,-83.3333333333333,4,2,1,5,0,0
314346,-83.3333333333333,4,2,1,50,0,0
315119,-83.3333333333333,4,2,1,5,0,0
315204,-83.3333333333333,4,2,1,50,0,0
315290,-83.3333333333333,4,2,1,5,0,0
315375,-83.3333333333333,4,2,1,50,0,0
317004,-83.3333333333333,4,2,1,5,0,0
317089,-83.3333333333333,4,2,1,50,0,0
317861,-83.3333333333333,4,2,1,5,0,0
317946,-83.3333333333333,4,3,3,50,0,0
318033,-83.3333333333333,4,2,1,5,0,0
318118,-83.3333333333333,4,3,2,50,0,0
318204,-83.3333333333333,4,2,1,5,0,0
318289,-83.3333333333333,4,2,1,50,0,0
319747,-83.3333333333333,4,2,1,5,0,0
319832,-83.3333333333333,4,2,1,50,0,0
320604,-83.3333333333333,4,2,1,5,0,0
320689,-83.3333333333333,4,2,1,50,0,0
320776,-83.3333333333333,4,2,1,5,0,0
320861,-83.3333333333333,4,2,1,50,0,0
321976,-83.3333333333333,4,2,1,5,0,0
322061,-83.3333333333333,4,2,1,50,0,0
322490,-83.3333333333333,4,2,1,5,0,0
322575,-83.3333333333333,4,2,1,50,0,0
322919,-83.3333333333333,4,3,3,50,0,0
323005,-83.3333333333333,4,3,3,5,0,0
323091,-83.3333333333333,4,3,2,50,0,0
323348,-83.3333333333333,4,3,1,5,0,0
323434,-83.3333333333333,4,3,1,50,0,0
323519,-83.3333333333333,4,3,1,5,0,0
323605,-83.3333333333333,4,3,1,50,0,0
323691,-83.3333333333333,4,3,1,5,0,0
323776,-111.111111111111,4,1,1,50,0,0
323861,-111.111111111111,4,2,1,50,0,0
325147,-111.111111111111,4,1,1,50,0,0
325232,-111.111111111111,4,2,1,5,0,0
325319,-111.111111111111,4,2,1,50,0,0
326090,-111.111111111111,4,2,1,5,0,0
326176,-111.111111111111,4,2,1,50,0,0
326261,-111.111111111111,4,2,1,5,0,0
326519,-111.111111111111,4,1,1,50,0,0
326604,-111.111111111111,4,2,1,50,0,0
327890,-111.111111111111,4,1,1,50,0,0
327975,-111.111111111111,4,2,1,5,0,0
328233,-111.111111111111,4,2,1,50,0,0
328833,-111.111111111111,4,2,1,5,0,0
328919,-111.111111111111,4,2,1,50,0,0
329004,-111.111111111111,4,2,1,5,0,0
329090,-111.111111111111,4,2,1,45,0,0
329261,-111.111111111111,4,1,1,40,0,0
329346,-111.111111111111,4,2,1,40,0,0
330633,-111.111111111111,4,1,1,40,0,0
330718,-111.111111111111,4,2,1,5,0,0
330976,-111.111111111111,4,2,1,40,0,0
331490,-111.111111111111,4,2,1,40,0,0
331576,-111.111111111111,4,2,1,5,0,0
331661,-111.111111111111,4,2,1,40,0,0
331747,-111.111111111111,4,2,1,5,0,0
332004,-111.111111111111,4,1,1,30,0,0
332089,-111.111111111111,4,2,1,30,0,0
332861,-111.111111111111,4,2,1,30,0,0
332947,-111.111111111111,4,2,1,5,0,0
333033,-111.111111111111,4,2,1,30,0,0
333376,-142.857142857143,4,2,1,30,0,0
333461,-111.111111111111,4,2,1,5,0,0
333547,-111.111111111111,4,2,1,30,0,0
333890,-200,4,2,1,30,0,0
334147,-200,4,2,1,5,0,0
334233,-200,4,2,1,30,0,0
334404,-200,4,1,1,20,0,0
334489,-200,4,2,1,20,0,0
334747,-200,4,1,1,20,0,0
334832,-200,4,2,1,20,0,0
336119,-200,4,1,1,15,0,0
336461,-250,4,2,1,15,0,0
336976,-250,4,2,1,15,0,0
337061,-250,4,2,1,5,0,0
337147,-250,4,2,1,15,0,0
337233,-250,4,2,1,5,0,0
337490,-250,4,1,1,15,0,0
337833,-333.333333333333,4,2,1,15,0,0
338861,-250,4,1,1,10,0,0
339204,-500,4,2,1,10,0,0
340233,-500,4,2,5,10,0,0

[Colours]
Combo1 : 182,182,182
Combo2 : 199,166,253
Combo3 : 192,213,220
Combo4 : 72,200,242

[HitObjects]
0,280,11090,5,0,0:0:0:0:
77,338,11433,1,0,0:0:0:0:
40,251,11776,1,0,0:0:0:0:
84,282,12119,1,0,0:0:0:0:
109,137,12461,5,0,0:0:0:0:
144,221,12804,1,0,0:0:0:0:
155,132,13147,1,0,0:0:0:0:
176,178,13490,1,0,0:0:0:0:
268,84,13833,5,0,0:0:0:0:
257,171,14176,1,0,0:0:0:0:
308,102,14519,1,0,0:0:0:0:
304,150,14862,1,0,0:0:0:0:
406,140,15204,5,0,0:0:0:0:
359,202,15547,1,0,0:0:0:0:
429,171,15890,1,0,0:0:0:0:
404,207,16233,1,0,0:0:0:0:
486,354,16576,5,0,0:0:0:0:
446,274,16919,1,0,0:0:0:0:
410,299,17261,1,0,0:0:0:0:
444,365,17604,1,0,0:0:0:0:
328,333,17947,5,0,0:0:0:0:
325,247,18290,1,0,0:0:0:0:
287,259,18632,1,0,0:0:0:0:
289,384,18975,1,0,0:0:0:0:
168,348,19319,5,0,0:0:0:0:
213,275,19662,1,0,0:0:0:0:
170,272,20004,1,0,0:0:0:0:
113,364,20347,1,0,0:0:0:0:
63,250,20690,5,0,0:0:0:0:
151,191,21033,1,0,0:0:0:0:
110,172,21375,1,0,0:0:0:0:
25,236,21718,1,0,0:0:0:0:
64,30,22061,6,0,P|83:68|116:88,1,67.5
207,77,22747,1,0,0:0:0:0:
145,5,23090,1,0,0:0:0:0:
55,148,23433,6,0,P|89:170|128:172,1,67.5
202,117,24119,1,0,0:0:0:0:
112,87,24462,1,0,0:0:0:0:
109,258,24804,6,0,P|150:260|184:241,1,67.5
220,156,25490,1,0,0:0:0:0:
126,174,25833,1,0,0:0:0:0:
212,326,26176,6,0,P|250:306|266:272,1,67.5
257,181,26862,1,0,0:0:0:0:
185,244,27205,1,0,0:0:0:0:
321,324,27547,5,0,0:0:0:0:
346,208,27890,1,0,0:0:0:0:
419,281,28233,1,0,0:0:0:0:
442,177,28576,1,0,0:0:0:0:
360,85,28919,5,0,0:3:0:0:
244,110,29262,1,0,0:3:0:0:
317,183,29605,1,0,0:3:0:0:
213,206,29948,1,0,0:3:0:0:
92,353,30290,5,0,0:0:0:0:
117,237,30633,1,0,0:0:0:0:
190,310,30976,1,0,0:0:0:0:
235,176,31319,1,0,0:0:0:0:
114,25,31661,5,0,0:0:0:0:
139,145,32004,1,0,0:0:0:0:
212,72,32347,1,0,0:0:0:0:
235,176,32690,1,0,0:0:0:0:
84,96,33033,6,0,P|88:60|116:24,1,80.9999975280763
164,144,33719,1,0,0:0:0:0:
205,38,34061,1,0,0:0:0:0:
173,220,34404,6,0,P|158:186|164:141,1,80.9999975280763
264,221,35090,1,0,0:0:0:0:
241,110,35432,1,0,0:0:0:0:
310,282,35776,6,0,P|280:260|263:218,1,80.9999975280763
390,236,36462,1,0,0:0:0:0:
315,150,36804,1,0,0:0:0:0:
460,266,37147,6,0,P|424:262|388:233,1,80.9999975280763
506,186,37833,1,0,0:0:0:0:
395,160,38175,1,0,0:0:0:0:
396,0,38519,6,0,P|402:41|388:80,1,74.2500022659302
304,157,39204,1,0,0:0:0:0:
312,72,39547,1,0,0:0:0:0:
412,44,39890,6,0,P|418:85|404:124,1,74.2500022659302
320,201,40576,1,0,0:0:0:0:
312,72,40918,1,0,0:0:0:0:
231,173,41261,6,0,P|225:214|239:253,1,74.2500022659302
323,330,41946,1,0,0:0:0:0:
315,245,42289,1,0,0:0:0:0:
215,217,42633,6,0,P|210:258|223:297,1,74.2500022659302
307,374,43319,1,0,0:0:0:0:
299,289,43661,1,0,0:0:0:0:
150,356,44004,5,0,0:0:0:0:
166,193,44347,1,0,0:0:0:0:
232,326,44690,1,0,0:0:0:0:
150,356,45033,1,0,0:0:0:0:
166,193,45376,5,0,0:0:0:0:
329,177,45719,1,0,0:0:0:0:
200,117,46062,1,0,0:0:0:0:
166,193,46405,1,0,0:0:0:0:
313,340,46747,5,0,0:0:0:0:
329,177,47090,1,0,0:0:0:0:
391,310,47433,1,0,0:0:0:0:
313,340,47776,1,0,0:0:0:0:
329,177,48119,5,0,0:0:0:0:
313,14,48462,1,0,0:0:0:0:
257,147,48805,1,0,0:0:0:0:
329,177,49148,1,0,0:0:0:0:
469,267,49490,5,0,0:0:0:0:
336,301,49833,1,0,0:0:0:0:
404,180,50176,1,0,0:0:0:0:
348,282,50519,1,0,0:0:0:0:
253,117,50861,5,0,0:0:0:0:
243,254,51204,1,0,0:0:0:0:
149,152,51547,1,0,0:0:0:0:
229,236,51890,1,0,0:0:0:0:
16,186,52233,5,0,0:0:0:0:
149,152,52576,1,0,0:0:0:0:
81,273,52919,1,0,0:0:0:0:
137,171,53262,1,0,0:0:0:0:
232,336,53604,5,0,0:0:0:0:
242,199,53947,1,0,0:0:0:0:
336,301,54290,1,0,0:0:0:0:
256,217,54633,1,0,0:0:0:0:
333,24,54976,6,0,P|310:74|313:112,1,87.749995983124
387,233,55661,1,0,0:0:0:0:
256,217,56004,1,0,0:0:0:0:
202,8,56347,6,0,P|179:58|182:96,1,87.749995983124
256,217,57032,1,0,0:0:0:0:
125,201,57375,1,0,0:0:0:0:
277,298,57719,6,0,P|254:248|257:210,1,87.749995983124
331,89,58404,1,0,0:0:0:0:
200,105,58747,1,0,0:0:0:0:
146,314,59090,6,0,P|123:264|126:226,1,87.749995983124
200,105,59775,1,0,0:0:0:0:
69,121,60118,1,0,0:0:0:0:
78,298,60461,6,0,B|92:283|136:280|166:301|189:386|75:460|-44:417|-58:261|21:220|78:215|78:215|46:199|-10:125|39:52|99:46|99:46|67:86|68:129|103:179|168:162|168:162|213:150|284:145|330:228|295:303|295:303|346:232|426:265,1,1214.99996292114
390,345,65947,6,0,B|464:377|534:319|546:248|516:174|430:151|372:191|372:191|365:119|287:88|232:120|232:120|130:164|61:75|70:-48|173:-44|248:1|277:111|193:190|148:243|148:243|170:217|226:199|274:234,1,1214.99996292114
274,318,71433,6,0,B|176:266|110:322|110:322|183:197|342:293|342:293|281:257|284:171|351:144|351:144|304:87|325:17|411:-33|497:29|496:118|436:157|436:157|484:198|475:276|411:300|411:300|446:303|480:289,1,1214.99996292114
381,220,76919,6,0,B|427:169|406:96|406:96|502:195|416:359|225:336|207:192|207:192|141:192|112:296|112:296|74:263|113:188|113:188|5:188|-50:364|113:424|189:352,1,1214.99996292114
208,192,82404,6,0,B|202:114|262:46|349:44|404:93|404:93|333:37|260:45|237:87|181:107|117:73,1,566.999982696534
65,20,85147,1,0,0:0:0:0:
82,176,85490,1,0,0:0:0:0:
117,93,85833,1,0,0:0:0:0:
256,32,86176,5,0,0:0:0:0:
256,128,86519,1,0,0:0:0:0:
260,33,87547,5,0,0:0:0:0:
256,192,87890,1,0,0:0:0:0:
256,192,89261,5,0,0:0:0:0:
256,192,90633,5,0,0:0:0:0:
256,192,92004,5,0,0:0:0:0:
483,262,93376,6,0,B|488:312|452:349|362:350|399:278|303:296|303:296|326:246,1,283.499991348267
369,137,96119,6,0,P|325:149|290:138,1,81
287,57,97490,2,0,P|227:84|209:134,1,121.499996292114
256,278,98861,1,0,0:0:0:0:
256,192,99033,12,0,104004,0:0:0:0:
105,338,104347,6,0,B|58:319|58:319|42:271,1,84.375,0|0,1:0|0:0,0:0:0:0:
0,124,104690,1,8,0:0:0:0:
185,121,104861,1,0,0:0:0:0:
175,152,104946,1,0,0:0:0:0:
165,187,105032,1,0,0:0:0:0:
155,220,105118,1,0,0:0:0:0:
145,254,105203,1,8,0:0:0:0:
277,91,105376,1,0,0:0:0:0:
267,123,105461,1,0,0:0:0:0:
257,156,105547,1,0,0:0:0:0:
248,189,105633,1,0,0:0:0:0:
238,223,105719,2,0,L|216:301,1,50.6250019311906,0|0,1:0|0:0,0:0:0:0:
303,1,106061,5,8,0:0:0:0:
342,180,106233,1,0,0:0:0:0:
332,212,106318,1,0,0:0:0:0:
322,246,106404,1,0,0:0:0:0:
313,278,106490,1,0,0:0:0:0:
303,312,106576,2,0,L|285:378,1,45.5625001738071,8|0,0:0|0:0,0:0:0:0:
422,192,106747,2,0,L|407:248,1,45.5625001738071,8|0,0:0|0:0,0:0:0:0:
375,10,107090,6,0,B|319:0|319:0|279:31,1,91.1250003476143,0|0,1:0|0:0,0:0:0:0:
203,157,107433,1,8,0:0:0:0:
406,95,107604,1,0,0:0:0:0:
421,117,107689,1,0,0:0:0:0:
436,140,107775,1,0,0:0:0:0:
451,165,107861,1,0,0:0:0:0:
466,189,107946,1,8,0:0:0:0:
312,155,108119,1,0,0:0:0:0:
338,160,108204,1,0,0:0:0:0:
364,166,108290,1,0,0:0:0:0:
391,172,108376,1,0,0:0:0:0:
417,178,108461,2,0,L|475:191,1,50.6250019311906,0|0,1:0|0:0,0:0:0:0:
203,157,108804,5,8,0:0:0:0:
337,271,108976,1,0,0:0:0:0:
358,256,109061,1,0,0:0:0:0:
381,242,109147,1,0,0:0:0:0:
404,227,109233,1,0,0:0:0:0:
427,213,109319,2,0,L|477:181,1,45.5625001738071,8|0,0:0|0:0,0:0:0:0:
400,360,109490,2,0,L|349:391,1,45.5625001738071,8|0,0:0|0:0,0:0:0:0:
312,155,109661,2,0,L|362:123,1,45.5625001738071
206,285,109833,6,0,B|161:275|161:275|109:302,1,77.6250014805794,0|0,1:0|0:0,0:0:0:0:
7,377,110176,1,8,0:0:0:0:
88,231,110347,1,0,0:0:0:0:
110,219,110432,1,0,0:0:0:0:
132,207,110518,1,0,0:0:0:0:
155,195,110604,1,0,0:0:0:0:
177,183,110690,1,8,0:0:0:0:
36,159,110861,1,0,0:0:0:0:
43,134,110946,1,0,0:0:0:0:
50,110,111032,1,0,0:0:0:0:
57,86,111118,1,0,0:0:0:0:
64,62,111204,2,0,L|82:5,1,50.6250019311906,0|0,1:0|0:0,0:0:0:0:
0,267,111547,5,8,0:0:0:0:
122,309,111719,1,0,0:0:0:0:
146,316,111804,1,0,0:0:0:0:
170,323,111890,1,0,0:0:0:0:
194,330,111976,1,0,0:0:0:0:
218,338,112061,2,0,L|264:313,1,42.1875,8|0,0:0|0:0,0:0:0:0:
110,219,112233,2,0,L|148:199,1,42.1875,8|0,0:0|0:0,0:0:0:0:
423,199,112576,6,0,B|422:147|422:147|392:104,1,74.2500022659302,0|0,1:0|0:0,0:0:0:0:
256,48,112919,1,8,0:0:0:0:
326,200,113090,1,0,0:0:0:0:
326,223,113175,1,0,0:0:0:0:
326,247,113261,1,0,0:0:0:0:
326,270,113347,1,0,0:0:0:0:
326,294,113433,2,0,L|325:345,1,37.1250011329651,8|0,0:0|0:0,0:0:0:0:
340,187,113604,1,0,0:0:0:0:
356,203,113689,1,0,0:0:0:0:
373,220,113775,1,0,0:0:0:0:
390,237,113861,1,0,0:0:0:0:
405,254,113947,2,0,L|438:286,1,37.1250011329651,8|0,0:0|0:0,0:0:0:0:
347,161,114119,1,0,0:0:0:0:
370,161,114204,1,0,0:0:0:0:
394,161,114290,1,0,0:0:0:0:
417,161,114376,1,0,0:0:0:0:
441,161,114461,6,0,L|493:161,1,40.4999987640381
510,291,114633,2,0,B|441:292|441:292|402:251,1,121.499996292114
347,161,114976,2,0,L|305:200,1,40.4999987640381
341,336,115147,2,0,L|299:375,1,40.4999987640381
508,175,115319,6,0,B|452:175|452:175|430:145,1,80.9999975280763
389,0,115661,1,8,0:0:0:0:
273,126,115833,1,0,0:0:0:0:
273,153,115918,1,0,0:0:0:0:
273,181,116004,1,0,0:0:0:0:
273,208,116090,1,0,0:0:0:0:
273,237,116175,1,8,0:0:0:0:
186,82,116347,1,0,0:0:0:0:
186,107,116432,1,0,0:0:0:0:
186,132,116518,1,0,0:0:0:0:
186,157,116604,1,0,0:0:0:0:
186,183,116690,2,0,L|186:235,1,50.6250019311906,0|0,1:0|0:0,0:0:0:0:
186,0,117033,5,8,0:0:0:0:
105,124,117204,1,0,0:0:0:0:
105,149,117289,1,0,0:0:0:0:
105,174,117375,1,0,0:0:0:0:
105,199,117461,1,0,0:0:0:0:
105,225,117547,2,0,L|105:269,1,43.874997991562,8|0,0:0|0:0,0:0:0:0:
205,331,117719,2,0,L|204:378,1,43.874997991562,8|0,0:0|0:0,0:0:0:0:
113,32,118061,6,0,B|149:0|149:0|198:0,1,84.375,0|0,1:0|0:0,0:0:0:0:
360,80,118404,1,8,0:0:0:0:
105,174,118576,1,0,0:0:0:0:
126,152,118661,1,0,0:0:0:0:
148,130,118747,1,0,0:0:0:0:
171,107,118833,1,0,0:0:0:0:
193,85,118918,1,8,0:0:0:0:
191,222,119090,1,0,0:0:0:0:
219,222,119175,1,0,0:0:0:0:
248,222,119261,1,0,0:0:0:0:
277,222,119347,1,0,0:0:0:0:
305,222,119433,2,0,L|368:222,1,50.6250019311906,0|0,1:0|0:0,0:0:0:0:
95,74,119776,5,8,0:0:0:0:
112,261,119947,1,0,0:0:0:0:
131,280,120032,1,0,0:0:0:0:
152,301,120118,1,0,0:0:0:0:
172,321,120204,1,0,0:0:0:0:
192,341,120290,2,0,L|227:376,1,45.5625001738071,8|0,0:0|0:0,0:0:0:0:
315,185,120461,2,0,L|279:149,1,45.5625001738071,8|0,0:0|0:0,0:0:0:0:
369,352,120633,2,0,L|404:387,1,45.5625001738071
512,230,120804,6,0,B|512:179|512:179|491:134,1,80.9999975280763,0|0,1:0|0:0,0:0:0:0:
363,0,121147,1,8,0:0:0:0:
407,155,121319,2,0,L|386:207,1,40.4999987640381
357,271,121490,1,0,0:0:0:0:
342,302,121576,1,0,0:0:0:0:
328,332,121661,1,8,0:0:0:0:
313,106,121833,1,0,0:0:0:0:
298,134,121918,1,0,0:0:0:0:
285,163,122004,1,0,0:0:0:0:
271,193,122090,1,0,0:0:0:0:
257,222,122176,2,0,L|225:284,1,50.6250019311906,0|0,1:0|0:0,0:0:0:0:
508,205,122519,5,8,0:0:0:0:
369,247,122690,1,0,0:0:0:0:
357,271,122775,1,0,0:0:0:0:
346,295,122861,1,0,0:0:0:0:
334,320,122947,1,0,0:0:0:0:
323,344,123033,2,0,L|300:389,1,45.5625001738071,8|0,0:0|0:0,0:0:0:0:
271,193,123204,2,0,L|291:152,1,45.5625001738071,8|0,0:0|0:0,0:0:0:0:
433,375,123547,6,0,B|467:344|467:344|470:312,1,67.5,0|0,1:0|0:0,0:0:0:0:
465,190,123890,1,8,0:0:0:0:
346,295,124061,1,0,0:0:0:0:
334,271,124146,1,0,0:0:0:0:
323,247,124232,1,0,0:0:0:0:
311,222,124318,1,0,0:0:0:0:
300,198,124404,2,0,L|282:155,1,37.1250011329651,8|0,0:0|0:0,0:0:0:0:
334,271,124576,1,0,0:0:0:0:
308,262,124661,1,0,0:0:0:0:
283,253,124747,1,0,0:0:0:0:
257,244,124833,1,0,0:0:0:0:
232,234,124919,2,0,L|194:219,1,37.1250011329651,8|0,0:0|0:0,0:0:0:0:
308,262,125090,1,0,0:0:0:0:
284,274,125175,1,0,0:0:0:0:
260,285,125261,1,0,0:0:0:0:
235,297,125347,1,0,0:0:0:0:
211,308,125433,6,0,L|171:326,1,40.4999987640381
0,349,125604,2,0,B|64:319|64:319|85:268,1,121.499996292114
129,180,125947,2,0,L|157:224,1,40.4999987640381
259,384,126119,2,0,L|231:340,1,40.4999987640381
275,142,126290,6,0,B|275:89|275:89|245:47,1,84.375,0|0,1:0|0:0,0:0:0:0:
100,0,126633,1,8,0:0:0:0:
80,186,126804,1,0,0:0:0:0:
101,207,126889,1,0,0:0:0:0:
124,230,126975,1,0,0:0:0:0:
147,253,127061,1,0,0:0:0:0:
168,274,127146,1,8,0:0:0:0:
94,79,127319,1,0,0:0:0:0:
115,100,127404,1,0,0:0:0:0:
137,122,127490,1,0,0:0:0:0:
160,145,127576,1,0,0:0:0:0:
182,167,127661,2,0,L|230:215,1,50.6250019311906,0|0,1:0|0:0,0:0:0:0:
0,142,128004,5,8,0:0:0:0:
66,294,128176,1,0,0:0:0:0:
85,313,128261,1,0,0:0:0:0:
106,334,128347,1,0,0:0:0:0:
126,354,128433,1,0,0:0:0:0:
146,374,128519,2,0,L|201:374,1,45.5625001738071,8|0,0:0|0:0,0:0:0:0:
296,242,128690,2,0,L|342:242,1,45.5625001738071,8|0,0:0|0:0,0:0:0:0:
108,132,129033,6,0,B|78:178|78:178|78:227,1,91.1250003476143,0|0,1:0|0:0,0:0:0:0:
146,374,129376,1,8,0:0:0:0:
177,200,129547,1,0,0:0:0:0:
191,176,129632,1,0,0:0:0:0:
205,154,129718,1,0,0:0:0:0:
220,130,129804,1,0,0:0:0:0:
235,108,129889,1,8,0:0:0:0:
344,220,130061,1,0,0:0:0:0:
338,193,130146,1,0,0:0:0:0:
332,167,130232,1,0,0:0:0:0:
326,140,130318,1,0,0:0:0:0:
319,115,130404,2,0,L|307:61,1,50.6250019311906,0|0,1:0|0:0,0:0:0:0:
362,297,130747,5,8,0:0:0:0:
505,123,130919,1,0,0:0:0:0:
478,108,131004,1,0,0:0:0:0:
451,94,131090,1,0,0:0:0:0:
424,80,131176,1,0,0:0:0:0:
396,67,131261,2,0,L|343:40,1,45.5625001738071,8|0,0:0|0:0,0:0:0:0:
362,297,131433,2,0,L|415:324,1,45.5625001738071
275,159,131604,2,0,L|222:132,1,45.5625001738071
278,345,131776,6,0,B|237:326|237:326|178:339,1,77.6250014805794,0|0,1:0|0:0,0:0:0:0:
46,384,132119,1,8,0:0:0:0:
133,248,132290,1,0,0:0:0:0:
123,217,132375,1,0,0:0:0:0:
115,189,132461,1,0,0:0:0:0:
106,160,132547,1,0,0:0:0:0:
98,130,132632,1,8,0:0:0:0:
50,262,132804,1,0,0:0:0:0:
40,232,132889,1,0,0:0:0:0:
32,203,132975,1,0,0:0:0:0:
23,174,133061,1,0,0:0:0:0:
15,144,133147,2,0,L|-3:81,1,50.6250019311906,0|0,1:0|0:0,0:0:0:0:
161,329,133490,5,8,0:0:0:0:
206,186,133661,1,0,0:0:0:0:
198,161,133746,1,0,0:0:0:0:
191,137,133832,1,0,0:0:0:0:
184,113,133918,1,0,0:0:0:0:
177,88,134004,2,0,L|165:42,1,42.1875,8|0,0:0|0:0,0:0:0:0:
133,248,134176,2,0,L|122:207,1,42.1875,8|0,0:0|0:0,0:0:0:0:
230,0,134519,6,0,B|279:0|279:0|309:18,1,74.2500022659302,0|0,1:0|0:0,0:0:0:0:
389,149,134861,1,8,0:0:0:0:
184,113,135033,1,0,0:0:0:0:
160,113,135118,1,0,0:0:0:0:
136,113,135204,1,0,0:0:0:0:
113,113,135290,1,0,0:0:0:0:
89,113,135376,2,0,L|38:113,1,37.1250011329651,8|0,0:0|0:0,0:0:0:0:
204,179,135547,1,0,0:0:0:0:
184,167,135632,1,0,0:0:0:0:
163,155,135718,1,0,0:0:0:0:
143,144,135804,1,0,0:0:0:0:
121,131,135890,2,0,L|71:102,1,37.1250011329651,8|0,0:0|0:0,0:0:0:0:
189,249,136061,1,0,0:0:0:0:
177,229,136146,1,0,0:0:0:0:
165,208,136232,1,0,0:0:0:0:
154,188,136318,1,0,0:0:0:0:
141,166,136404,6,0,L|115:121,1,40.4999987640381
82,25,136576,2,0,B|165:25|165:25|199:65,1,121.499996292114
248,132,136919,2,0,L|202:132,1,40.4999987640381
8,136,137090,2,0,L|48:136,1,40.4999987640381
112,312,137261,6,0,B|164:312|164:312|200:276,1,80.9999975280763,0|0,1:0|0:0,0:0:0:0:
248,132,137604,1,8,0:0:0:0:
319,295,137776,1,0,0:0:0:0:
331,316,137861,1,0,0:0:0:0:
344,338,137947,1,0,0:0:0:0:
356,360,138033,1,0,0:0:0:0:
369,382,138118,1,8,0:0:0:0:
372,216,138290,1,0,0:0:0:0:
384,237,138375,1,0,0:0:0:0:
397,259,138461,1,0,0:0:0:0:
409,281,138547,1,0,0:0:0:0:
422,303,138633,2,0,L|450:351,1,50.6250019311906,0|0,1:0|0:0,0:0:0:0:
282,222,138976,5,8,0:0:0:0:
419,140,139147,1,0,0:0:0:0:
431,161,139232,1,0,0:0:0:0:
444,183,139318,1,0,0:0:0:0:
456,205,139404,1,0,0:0:0:0:
469,227,139490,2,0,L|493:268,1,43.874997991562,8|0,0:0|0:0,0:0:0:0:
347,347,139661,2,0,L|369:384,1,43.874997991562,8|0,0:0|0:0,0:0:0:0:
451,0,140004,6,0,B|398:0|398:0|358:41,1,84.375,0|0,1:0|0:0,0:0:0:0:
456,205,140347,1,8,0:0:0:0:
302,96,140519,1,0,0:0:0:0:
278,117,140604,1,0,0:0:0:0:
256,139,140690,1,0,0:0:0:0:
234,161,140776,1,0,0:0:0:0:
211,185,140861,1,8,0:0:0:0:
241,30,141033,1,0,0:0:0:0:
212,29,141118,1,0,0:0:0:0:
183,29,141204,1,0,0:0:0:0:
155,29,141290,1,0,0:0:0:0:
125,29,141376,2,0,L|63:28,1,50.6250019311906,0|0,1:0|0:0,0:0:0:0:
349,178,141719,5,8,0:0:0:0:
211,185,141890,1,0,0:0:0:0:
190,205,141975,1,0,0:0:0:0:
170,225,142061,1,0,0:0:0:0:
150,245,142147,1,0,0:0:0:0:
129,266,142233,2,0,L|153:317,1,45.5625001738071,8|0,0:0|0:0,0:0:0:0:
363,307,142404,2,0,L|383:266,1,45.5625001738071,8|0,0:0|0:0,0:0:0:0:
256,384,142576,2,0,L|256:334,1,45.5625001738071
256,55,142747,6,0,B|224:23|224:23|170:23,1,77.6250014805794,0|0,1:0|0:0,0:0:0:0:
31,21,143090,1,8,0:0:0:0:
139,115,143261,2,0,L|169:148,1,38.8125007402897
232,204,143432,1,0,0:0:0:0:
254,225,143518,1,0,0:0:0:0:
275,244,143603,1,8,0:0:0:0:
256,55,143776,1,0,0:0:0:0:
275,73,143861,1,0,0:0:0:0:
295,91,143947,1,0,0:0:0:0:
315,110,144033,1,0,0:0:0:0:
334,128,144119,2,0,L|373:165,1,50.6250019311906,0|0,1:0|0:0,0:0:0:0:
162,35,144461,5,8,0:0:0:0:
232,204,144633,1,0,0:0:0:0:
252,223,144718,1,0,0:0:0:0:
271,242,144804,1,0,0:0:0:0:
290,261,144890,1,0,0:0:0:0:
309,280,144976,2,0,L|309:212,1,45.5625001738071,8|0,0:0|0:0,0:0:0:0:
256,100,145147,2,0,L|255:53,1,45.5625001738071,8|0,0:0|0:0,0:0:0:0:
53,215,145490,6,0,B|87:215|87:215|117:183,1,67.5,0|0,1:0|0:0,0:0:0:0:
162,35,145833,1,8,0:0:0:0:
242,181,146004,1,0,0:0:0:0:
235,200,146089,1,0,0:0:0:0:
228,219,146175,1,0,0:0:0:0:
222,238,146261,1,0,0:0:0:0:
215,256,146347,2,0,L|183:235,1,33.75,8|0,0:0|0:0,0:0:0:0:
272,166,146519,1,0,0:0:0:0:
291,162,146604,1,0,0:0:0:0:
311,159,146690,1,0,0:0:0:0:
331,154,146776,1,0,0:0:0:0:
350,151,146862,2,0,L|347:189,1,33.75,8|0,0:0|0:0,0:0:0:0:
229,152,147033,1,0,0:0:0:0:
216,137,147118,1,0,0:0:0:0:
203,121,147204,1,0,0:0:0:0:
189,106,147290,1,0,0:0:0:0:
177,91,147376,6,0,P|188:67|212:57,1,40.4999987640381
348,49,147547,2,0,P|355:91|311:171,1,111.375003398895
260,224,147890,2,0,P|252:245|229:257,1,37.1250011329651
203,121,148061,2,0,P|213:98|237:90,1,37.1250011329651
377,243,148233,6,0,P|404:277|409:321,1,74.2500022659302,0|0,1:0|0:0,0:0:0:0:
281,382,148576,1,8,0:0:0:0:
260,224,148747,1,0,0:0:0:0:
266,201,148832,1,0,0:0:0:0:
277,180,148918,1,0,0:0:0:0:
294,164,149004,1,0,0:0:0:0:
315,152,149089,1,8,0:0:0:0:
363,283,149261,1,0,0:0:0:0:
385,276,149346,1,0,0:0:0:0:
409,275,149432,1,0,0:0:0:0:
431,282,149518,1,0,0:0:0:0:
452,294,149604,2,0,P|456:316|448:337,1,42.1875,0|0,1:0|0:0,0:0:0:0:
429,94,149947,5,8,0:0:0:0:
270,161,150119,1,0,0:0:0:0:
248,168,150204,1,0,0:0:0:0:
224,169,150290,1,0,0:0:0:0:
202,162,150376,1,0,0:0:0:0:
181,150,150461,2,0,P|173:132|175:106,1,38.8125007402897,8|0,0:0|0:0,0:0:0:0:
110,280,150633,2,0,P|96:265|90:247,1,38.8125007402897,8|0,3:0|3:0,0:0:0:0:
334,228,150976,6,0,P|325:282|301:303,1,74.2500022659302,0|0,1:0|0:0,0:0:0:0:
201,367,151319,1,8,0:0:0:0:
91,248,151490,1,0,0:0:0:0:
69,241,151575,1,0,0:0:0:0:
45,240,151661,1,0,0:0:0:0:
23,247,151747,1,0,0:0:0:0:
2,259,151833,1,8,0:0:0:0:
129,332,152004,1,0,0:0:0:0:
151,339,152089,1,0,0:0:0:0:
175,340,152175,1,0,0:0:0:0:
197,333,152261,1,0,0:0:0:0:
218,321,152347,2,0,P|226:302|221:268,1,42.1875,0|0,1:0|0:0,0:0:0:0:
154,77,152690,6,0,L|118:90,1,22.7812500869036
166,117,152776,2,0,L|130:130,1,22.7812500869036
175,158,152861,2,0,L|139:171,1,22.7812500869036
195,150,152946,1,0,0:0:0:0:
213,134,153032,1,0,0:0:0:0:
223,113,153118,1,0,0:0:0:0:
230,90,153204,2,0,P|233:69|227:47,1,38.8125007402897,8|0,0:0|0:0,0:0:0:0:
203,267,153376,2,0,P|203:287|211:304,1,38.8125007402897,8|0,0:0|0:0,0:0:0:0:
329,200,153547,2,0,P|311:191|292:189,1,38.8125007402897
241,374,153719,6,0,P|206:379|185:371,1,37.1250011329651,0|0,1:0|0:0,0:0:0:0:
203,180,153890,2,0,P|174:158|165:138,1,37.1250011329651
363,341,154061,2,0,P|384:352|400:376,1,37.1250011329651,8|0,0:0|0:0,0:0:0:0:
411,232,154233,1,0,0:0:0:0:
415,208,154318,1,0,0:0:0:0:
414,185,154404,1,0,0:0:0:0:
407,162,154490,1,0,0:0:0:0:
396,142,154575,1,8,0:0:0:0:
299,196,154747,1,0,0:0:0:0:
303,172,154832,1,0,0:0:0:0:
302,149,154918,1,0,0:0:0:0:
295,126,155004,1,0,0:0:0:0:
285,106,155090,2,0,P|273:86|249:72,1,42.1875,0|0,1:0|0:0,0:0:0:0:
290,342,155434,5,8,0:0:0:0:
396,225,155604,1,0,0:0:0:0:
400,201,155689,1,0,0:0:0:0:
399,178,155775,1,0,0:0:0:0:
392,155,155861,1,0,0:0:0:0:
382,135,155947,2,0,P|370:115|369:91,1,42.1875,8|0,0:0|0:0,0:0:0:0:
471,227,156119,2,0,P|494:231|516:246,1,42.1875,8|0,0:0|0:0,0:0:0:0:
318,211,156290,2,0,P|295:215|273:230,1,42.1875
477,140,156461,6,0,P|499:129|515:110,1,42.1875,0|0,1:0|0:0,0:0:0:0:
447,320,156633,2,0,P|469:331|480:344,1,37.1250011329651
381,98,156804,2,0,P|383:123|376:153,1,37.1250011329651,8|0,0:0|0:0,0:0:0:0:
369,287,156976,1,0,0:0:0:0:
344,296,157061,1,0,0:0:0:0:
319,301,157147,1,0,0:0:0:0:
293,299,157233,1,0,0:0:0:0:
269,290,157319,2,0,P|245:271|234:250,1,37.1250011329651,8|0,0:0|0:0,0:0:0:0:
379,191,157490,1,0,0:0:0:0:
402,180,157575,1,0,0:0:0:0:
427,176,157661,1,0,0:0:0:0:
454,177,157747,1,0,0:0:0:0:
478,185,157833,2,0,P|497:208|504:236,1,37.1250011329651,8|0,0:0|0:0,0:0:0:0:
381,98,158004,1,0,0:0:0:0:
358,109,158089,1,0,0:0:0:0:
333,114,158175,1,0,0:0:0:0:
307,113,158261,1,0,0:0:0:0:
281,104,158347,6,0,P|263:79|259:61,1,37.1250011329651
289,218,158519,2,0,P|302:263|279:335,1,111.375003398895
199,333,158861,2,0,P|182:354|179:372,1,37.1250011329651
119,223,159033,2,0,P|88:219|68:224,1,37.1250011329651
289,218,159204,6,0,P|345:211|370:187,1,74.2500022659302,0|0,1:0|0:0,0:0:0:0:
394,66,159547,1,8,0:0:0:0:
454,203,159719,1,0,0:0:0:0:
467,222,159804,1,0,0:0:0:0:
476,244,159890,1,0,0:0:0:0:
479,267,159976,1,0,0:0:0:0:
476,291,160061,1,8,0:0:0:0:
358,201,160233,1,0,0:0:0:0:
353,224,160318,1,0,0:0:0:0:
344,245,160404,1,0,0:0:0:0:
330,264,160490,1,0,0:0:0:0:
311,278,160576,2,0,P|282:287|255:280,1,42.1875,0|0,1:0|0:0,0:0:0:0:
393,75,160919,5,8,0:0:0:0:
258,157,161090,1,0,0:0:0:0:
237,171,161175,1,0,0:0:0:0:
212,180,161261,1,0,0:0:0:0:
187,184,161347,1,0,0:0:0:0:
162,180,161433,2,0,P|132:164|116:143,1,38.8125007402897,8|0,0:0|0:0,0:0:0:0:
195,45,161604,2,0,P|185:12|188:-13,1,38.8125007402897,8|0,0:0|0:0,0:0:0:0:
251,278,161947,6,0,P|216:297|177:282,1,74.2500022659302,0|0,1:0|0:0,0:0:0:0:
128,161,162290,1,8,0:0:0:0:
286,211,162461,1,0,0:0:0:0:
302,220,162546,1,0,0:0:0:0:
314,233,162632,1,0,0:0:0:0:
322,250,162718,1,0,0:0:0:0:
325,268,162803,1,8,0:0:0:0:
369,156,162976,1,0,0:0:0:0:
388,165,163061,1,0,0:0:0:0:
404,183,163147,1,0,0:0:0:0:
415,204,163233,1,0,0:0:0:0:
418,226,163319,2,0,P|416:253|402:276,1,42.1875,0|0,1:0|0:0,0:0:0:0:
292,108,163661,5,8,0:0:0:0:
456,113,163833,1,0,0:0:0:0:
478,125,163918,1,0,0:0:0:0:
495,143,164004,1,0,0:0:0:0:
507,166,164090,1,0,0:0:0:0:
512,192,164176,2,0,P|505:218|487:244,1,38.8125007402897,8|0,0:0|0:0,0:0:0:0:
324,254,164347,2,0,P|300:248|276:232,1,38.8125007402897,8|0,0:0|0:0,0:0:0:0:
422,318,164519,2,0,P|432:337|432:357,1,38.8125007402897
382,100,164690,6,0,P|404:68|444:69,1,80.9999975280763,0|0,1:0|0:0,0:0:0:0:
512,192,165033,1,8,0:0:0:0:
324,163,165204,1,0,0:0:0:0:
283,166,165289,1,0,0:0:0:0:
247,184,165375,1,0,0:0:0:0:
221,214,165461,1,0,0:0:0:0:
207,252,165546,1,8,0:0:0:0:
199,117,165719,1,0,0:0:0:0:
175,84,165804,1,0,0:0:0:0:
142,61,165890,1,0,0:0:0:0:
102,53,165976,1,0,0:0:0:0:
63,60,166061,2,0,P|35:67|8:89,1,42.1875,0|0,1:0|1:0,0:0:0:0:
324,163,166404,5,8,0:0:0:0:
176,222,166576,1,0,0:0:0:0:
139,242,166661,1,0,0:0:0:0:
118,279,166747,1,0,0:0:0:0:
111,326,166833,1,0,0:0:0:0:
120,369,166919,2,0,P|91:374|60:366,1,38.8125007402897,8|0,0:0|0:0,0:0:0:0:
94,162,167090,2,0,P|121:151|144:156,1,38.8125007402897,8|0,0:0|0:0,0:0:0:0:
221,325,167261,2,0,P|194:336|171:331,1,38.8125007402897
59,132,167433,6,0,P|89:109|157:111,1,94.4999971160889,0|0,1:0|0:0,0:0:0:0:
317,179,167776,1,8,0:0:0:0:
221,325,167947,1,0,0:0:0:0:
180,346,168032,1,0,0:0:0:0:
135,349,168118,1,0,0:0:0:0:
94,333,168204,1,0,0:0:0:0:
62,299,168290,2,0,P|60:276|72:253,1,33.75,8|0,0:0|0:0,0:0:0:0:
317,179,168462,1,0,0:0:0:0:
358,158,168547,1,0,0:0:0:0:
403,155,168633,1,0,0:0:0:0:
444,171,168719,1,0,0:0:0:0:
476,205,168805,2,0,L|471:255,1,33.75,8|0,0:0|0:0,0:0:0:0:
170,194,168976,1,0,0:0:0:0:
149,153,169061,1,0,0:0:0:0:
146,108,169147,1,0,0:0:0:0:
162,67,169233,1,0,0:0:0:0:
196,35,169319,6,0,L|249:35,1,48.937501493454
341,249,169490,2,0,B|278:249|278:249|249:272|249:272|190:272,1,146.812504480362
170,194,169833,2,0,L|121:194,1,48.937501493454
259,354,170004,2,0,L|307:354,1,48.937501493454
301,99,170176,6,0,B|334:112|363:98|363:98|386:131|444:134,1,121.499996292114,0|0,1:0|0:0,0:0:0:0:
258,302,170519,1,8,0:0:0:0:
308,86,170690,2,0,B|341:99|370:83|370:83|393:118|451:121,1,121.499996292114
258,318,171034,1,8,0:0:0:0:
316,75,171204,2,0,B|346:87|377:70|377:70|401:107|459:110,1,121.499996292114
257,338,171547,6,0,L|258:311,1,20.2499993820191,0|0,1:0|0:0,0:0:0:0:
321,61,171719,2,0,B|352:76|383:54|383:54|397:91|447:97,1,128.249996575356
259,353,172061,1,0,0:0:0:0:
225,88,172233,1,0,0:0:0:0:
244,76,172319,1,0,0:0:0:0:
265,68,172404,2,0,P|301:59|334:64,1,57.3750010943413,8|0,0:0|0:0,0:0:0:0:
381,303,172576,1,8,0:0:0:0:
361,314,172662,1,0,0:0:0:0:
341,322,172747,2,0,P|303:330|281:324,1,57.3750010943413
87,92,172919,6,0,B|49:91|33:123|45:148|45:148|52:180|41:213,1,124.87499952364,0|0,1:0|0:0,0:0:0:0:
242,243,173262,1,8,0:0:0:0:
90,76,173433,2,0,B|61:53|30:76|32:113|32:113|33:146|5:174,1,124.87499952364
232,271,173776,1,8,0:0:0:0:
97,60,173947,2,0,B|67:29|31:49|30:82|30:82|26:114|0:131,1,124.87499952364
218,300,174290,6,0,L|209:277,1,20.2499993820191,0|0,1:0|0:0,0:0:0:0:
104,42,174461,2,0,B|79:9|43:19|34:54|34:54|27:89|-8:103,1,128.249996575356,0|8,0:0|0:0,0:0:0:0:
204,324,174804,1,0,0:0:0:0:
201,86,174976,1,0,0:0:0:0:
183,68,175061,1,0,0:0:0:0:
163,57,175147,2,0,P|121:42|95:44,1,57.3750010943413,8|0,0:0|0:0,0:0:0:0:
113,278,175319,1,8,0:0:0:0:
131,296,175404,1,0,0:0:0:0:
151,307,175490,2,0,P|177:322|211:322,1,57.3750010943413
449,190,175661,6,0,B|447:123|382:157|383:83,1,131.62500050211,0|0,1:0|0:0,0:0:0:0:
203,323,176004,1,8,0:0:0:0:
463,171,176176,2,0,B|449:105|391:150|379:77,1,131.62500050211
221,325,176519,1,8,0:0:0:0:
475,149,176690,2,0,B|450:86|400:140|376:71,1,131.62500050211
238,327,177033,6,0,L|276:325,1,20.2499993820191,0|0,1:0|0:0,0:0:0:0:
484,124,177205,2,0,B|448:66|409:128|373:64,1,131.62500050211
258,325,177547,1,0,0:0:0:0:
455,222,177719,1,0,0:0:0:0:
470,205,177804,1,0,0:0:0:0:
481,183,177890,2,0,P|487:147|479:111,1,60.7499981460572,8|0,0:0|0:0,0:0:0:0:
236,126,178061,1,8,0:0:0:0:
218,142,178146,1,0,0:0:0:0:
203,163,178233,2,0,P|194:203|201:234,1,60.7499981460572
445,302,178404,6,0,B|476:304|503:242|455:226|482:179,1,138.375002111435
236,126,178746,1,8,0:0:0:0:
437,318,178918,2,0,B|467:322|478:251|423:241|442:192,1,138.375002111435
231,148,179261,1,8,0:0:0:0:
425,335,179432,2,0,B|449:334|443:264|391:270|404:214,1,131.62500050211
226,168,179776,5,8,0:0:0:0:
409,360,179947,2,0,B|439:323|406:288|368:295|375:235,1,121.499996292114
220,191,180290,1,0,0:0:0:0:
396,379,180461,2,0,B|412:337|355:317|363:288|363:288|395:229|364:178,1,202.5
355,114,180804,2,0,P|332:125|316:144,1,50.6250019311906
301,313,180976,2,0,P|293:290|295:265,1,50.6250019311906
111,150,181147,6,0,P|61:121|25:142,1,94.4999971160889,0|0,1:0|0:0,0:0:0:0:
95,320,181490,1,8,0:0:0:0:
118,117,181661,2,0,P|68:88|19:123,1,114.750002188683
108,321,182004,1,8,0:0:0:0:
128,82,182176,2,0,P|78:53|14:107,1,135
122,319,182519,6,0,L|126:298,1,20.2499993820191,0|0,1:0|0:0,0:0:0:0:
133,39,182690,2,0,P|83:10|13:93,1,148.50000453186,0|8,0:0|0:0,0:0:0:0:
134,311,183033,1,0,0:0:0:0:
238,55,183204,1,0,0:0:0:0:
220,43,183290,1,0,0:0:0:0:
199,37,183376,2,0,P|168:32|133:38,1,67.5,8|0,0:0|0:0,0:0:0:0:
134,311,183547,1,8,0:0:0:0:
152,323,183633,1,0,0:0:0:0:
173,329,183719,2,0,P|204:334|239:324,1,67.5
347,152,183890,6,0,B|291:108|291:108|253:144|196:122,1,148.50000453186,0|0,1:0|0:0,0:0:0:0:
313,343,184233,1,8,0:0:0:0:
318,108,184404,2,0,B|250:85|250:85|227:132|165:131,1,148.50000453186
325,349,184747,1,8,0:0:0:0:
276,83,184919,2,0,B|204:84|204:84|196:133|137:153,1,135
340,357,185261,6,0,L|345:325,1,20.2499993820191,0|0,1:0|0:0,0:0:0:0:
223,77,185433,2,0,B|157:102|157:102|168:155|120:191,1,135,0|8,0:0|0:0,0:0:0:0:
354,364,185776,1,0,0:0:0:0:
334,162,185947,1,0,0:0:0:0:
319,131,186032,1,0,0:0:0:0:
295,108,186119,2,0,P|266:87|231:77,1,60.7499981460572,8|0,0:0|0:0,0:0:0:0:
155,275,186290,1,8,0:0:0:0:
170,306,186375,1,0,0:0:0:0:
194,329,186462,2,0,P|222:349|257:359,1,60.7499981460572
243,80,186633,6,0,B|215:115|230:174|230:174|136:147|145:197|93:223|42:203|18:172,1,320.624991438389,0|0,1:0|0:0,0:0:0:0:
81,117,187147,2,0,B|102:174|91:245|52:286|52:286|112:304|172:267,1,286.875005471707
231,240,187661,2,0,B|273:192|254:124|254:124|273:217|371:227,1,270
412,134,188176,6,0,P|372:58|377:155,1,253.125009655953
372,107,188690,2,0,P|319:77|249:109,1,141.749995674133
221,144,189033,2,0,P|154:179|95:149,1,141.749995674133
156,98,189376,6,0,B|141:215|141:215|185:272|248:242,1,219.37498995781
270,236,189890,2,0,B|303:216|314:184|314:184|329:241|277:290|220:274,1,219.37498995781
183,268,190404,2,0,P|106:263|97:386,1,202.499993820191
140,328,190919,6,0,B|226:375|232:275|329:327,1,185.625005664826
319,382,191433,2,0,P|308:335|332:306,1,67.5
417,224,191776,1,0,0:0:0:0:
142,361,192119,6,0,L|138:316,1,33.75
117,350,192633,2,0,L|114:320,1,27
87,340,193147,2,0,L|87:318,1,20.2499993820191
62,328,193661,2,0,L|63:310,1,13.5
35,317,194176,2,0,L|36:309,1,7.5
300,336,214061,5,0,0:0:0:0:
368,368,214233,1,0,0:0:0:0:
432,272,214404,1,8,0:0:0:0:
376,220,214576,1,0,0:0:0:0:
373,216,214661,1,0,0:0:0:0:
371,212,214747,1,0,0:0:0:0:
369,209,214833,1,0,0:0:0:0:
367,205,214918,1,8,0:0:0:0:
444,164,215090,1,0,0:0:0:0:
442,160,215175,1,0,0:0:0:0:
440,157,215261,1,0,0:0:0:0:
438,153,215347,1,0,0:0:0:0:
436,149,215432,5,0,0:0:0:0:
441,66,215604,1,0,0:0:0:0:
336,0,215776,1,8,0:0:0:0:
258,29,215947,1,0,0:0:0:0:
253,29,216032,1,0,0:0:0:0:
249,29,216118,1,0,0:0:0:0:
245,29,216204,1,0,0:0:0:0:
241,30,216290,1,8,0:0:0:0:
166,112,216461,1,8,0:0:0:0:
115,351,216804,5,8,0:0:0:0:
184,379,216976,1,8,0:0:0:0:
151,239,217147,1,8,0:0:0:0:
222,277,217319,1,0,0:0:0:0:
226,279,217404,1,0,0:0:0:0:
229,280,217490,1,0,0:0:0:0:
292,192,217661,1,8,0:0:0:0:
296,306,217833,1,0,0:0:0:0:
299,307,217918,1,0,0:0:0:0:
303,308,218004,1,0,0:0:0:0:
307,310,218090,1,0,0:0:0:0:
311,311,218175,5,0,0:0:0:0:
380,260,218347,1,0,0:0:0:0:
424,382,218519,1,8,0:0:0:0:
456,256,218690,1,0,0:0:0:0:
455,251,218775,1,0,0:0:0:0:
455,247,218861,1,0,0:0:0:0:
455,243,218947,1,0,0:0:0:0:
455,239,219032,1,0,0:0:0:0:
344,200,219204,1,8,0:0:0:0:
140,88,219547,5,8,0:0:0:0:
68,108,219719,1,8,0:0:0:0:
60,220,219890,1,8,0:0:0:0:
132,236,220061,1,0,0:0:0:0:
131,240,220146,1,0,0:0:0:0:
130,244,220232,1,8,0:0:0:0:
116,348,220404,1,8,0:0:0:0:
176,316,220576,1,0,0:0:0:0:
176,311,220661,1,0,0:0:0:0:
177,307,220747,1,0,0:0:0:0:
177,303,220833,1,0,0:0:0:0:
178,299,220918,5,0,0:0:0:0:
224,248,221090,1,0,0:0:0:0:
236,356,221261,1,8,0:0:0:0:
276,296,221433,1,0,0:0:0:0:
280,295,221518,1,0,0:0:0:0:
284,294,221604,1,0,0:0:0:0:
288,294,221690,1,0,0:0:0:0:
292,293,221775,1,8,0:0:0:0:
396,280,221947,1,8,0:0:0:0:
339,133,222290,5,8,0:0:0:0:
340,204,222461,1,8,0:0:0:0:
268,99,222633,1,8,0:0:0:0:
411,103,222804,1,0,0:0:0:0:
414,101,222889,1,0,0:0:0:0:
418,99,222975,1,0,0:0:0:0:
422,97,223061,1,0,0:0:0:0:
426,95,223146,1,8,0:0:0:0:
340,43,223319,1,0,0:0:0:0:
340,38,223404,1,0,0:0:0:0:
340,34,223490,1,0,0:0:0:0:
340,30,223576,1,0,0:0:0:0:
340,26,223661,1,8,0:0:0:0:
262,92,223833,1,0,0:0:0:0:
259,88,223918,1,0,0:0:0:0:
256,85,224004,1,0,0:0:0:0:
253,82,224090,1,0,0:0:0:0:
250,79,224175,5,8,0:0:0:0:
339,113,224347,1,0,0:0:0:0:
262,177,224519,1,8,0:0:0:0:
396,189,224690,2,0,L|426:231,1,40.4999987640381
264,336,225033,5,0,1:0:0:0:
188,360,225204,1,8,0:0:0:0:
188,224,225376,1,8,0:0:0:0:
120,324,225547,1,0,0:0:0:0:
113,331,225632,1,0,0:0:0:0:
107,339,225718,1,0,0:0:0:0:
101,347,225804,1,0,0:0:0:0:
94,355,225889,1,8,0:0:0:0:
71,248,226061,1,0,0:0:0:0:
65,255,226146,1,0,0:0:0:0:
59,263,226233,1,0,0:0:0:0:
53,271,226319,1,0,0:0:0:0:
47,279,226404,5,0,1:0:0:0:
94,355,226576,1,0,0:0:0:0:
193,284,226747,1,8,0:0:0:0:
116,168,226919,1,0,0:0:0:0:
106,165,227004,1,0,0:0:0:0:
96,164,227090,1,0,0:0:0:0:
86,163,227176,1,0,0:0:0:0:
73,161,227261,2,0,L|39:154,1,23.6249992790222,8|0,0:0|0:0,0:0:0:0:
120,44,227433,2,0,L|86:37,1,23.6249992790222,8|0,0:0|0:0,0:0:0:0:
232,164,227776,5,0,1:0:0:0:
232,68,227947,1,0,0:0:0:0:
316,184,228119,1,8,0:0:0:0:
316,80,228290,1,0,0:0:0:0:
316,68,228375,1,0,0:0:0:0:
316,56,228461,1,0,0:0:0:0:
316,44,228547,1,0,0:0:0:0:
316,32,228632,1,8,0:0:0:0:
392,108,228804,1,0,0:0:0:0:
395,96,228889,1,0,0:0:0:0:
398,84,228975,1,0,0:0:0:0:
401,73,229061,1,0,0:0:0:0:
404,62,229147,5,0,0:0:0:0:
316,32,229319,1,0,0:0:0:0:
316,184,229490,1,8,0:0:0:0:
444,172,229661,1,0,0:0:0:0:
450,159,229746,1,0,0:0:0:0:
456,147,229832,1,0,0:0:0:0:
462,135,229918,1,0,0:0:0:0:
468,124,230004,2,0,L|484:88,1,27,8|0,0:0|0:0,0:0:0:0:
501,244,230176,2,0,L|512:220,1,27,8|0,0:0|0:0,0:0:0:0:
256,308,230519,5,0,1:0:0:0:
256,204,230690,1,0,0:0:0:0:
160,320,230861,1,8,0:0:0:0:
91,217,231033,1,0,0:0:0:0:
76,213,231118,1,0,0:0:0:0:
61,209,231204,1,0,0:0:0:0:
46,206,231290,1,0,0:0:0:0:
31,202,231375,1,8,0:0:0:0:
145,144,231547,1,0,0:0:0:0:
138,126,231632,1,0,0:0:0:0:
131,108,231718,1,0,0:0:0:0:
126,91,231804,1,0,0:0:0:0:
121,74,231890,5,0,0:0:0:0:
31,202,232061,1,0,0:0:0:0:
184,271,232233,1,8,0:0:0:0:
289,134,232404,1,0,0:0:0:0:
305,116,232489,1,0,0:0:0:0:
320,96,232575,1,0,0:0:0:0:
336,79,232661,1,0,0:0:0:0:
351,62,232747,2,0,L|379:28,1,33.75,8|0,0:0|0:0,0:0:0:0:
308,242,232919,2,0,L|332:214,1,33.75,8|0,0:0|0:0,0:0:0:0:
412,120,233090,1,0,0:0:0:0:
211,356,233261,5,0,1:0:0:0:
223,146,233433,1,8,0:0:0:0:
412,311,233604,1,8,0:0:0:0:
354,180,233776,1,0,0:0:0:0:
365,167,233861,1,0,0:0:0:0:
376,154,233947,1,8,0:0:0:0:
228,334,234119,1,8,0:0:0:0:
305,116,234290,1,0,0:0:0:0:
320,96,234375,1,0,0:0:0:0:
336,79,234461,1,0,0:0:0:0:
353,61,234547,1,0,0:0:0:0:
368,43,234633,5,8,0:0:0:0:
430,209,234804,1,0,0:0:0:0:
443,193,234889,1,0,0:0:0:0:
456,178,234975,1,0,0:0:0:0:
469,162,235061,1,0,0:0:0:0:
482,147,235146,1,8,0:0:0:0:
311,223,235319,1,0,0:0:0:0:
470,51,235490,1,8,0:0:0:0:
268,29,235661,2,0,P|251:77|276:135,1,101.250003862381,0|0,1:0|0:0,0:0:0:0:
403,366,236004,6,0,B|366:380|366:380|343:356|310:356|310:356|265:368,1,148.50000453186,0|0,1:0|0:0,0:0:0:0:
266,124,236347,1,8,0:0:0:0:
151,365,236519,2,0,B|188:351|188:351|211:375|244:375|244:375|288:361,1,148.50000453186
274,108,236862,1,8,0:0:0:0:
404,329,237033,2,0,B|367:343|367:343|344:319|311:319|311:319|266:331,1,148.50000453186
282,89,237376,6,0,L|271:112,1,20.2499993820191,0|0,1:0|0:0,0:0:0:0:
155,326,237547,2,0,B|192:312|192:312|215:336|248:337|248:337|292:323,1,148.50000453186,0|8,0:0|0:0,0:0:0:0:
290,76,237889,1,0,0:0:0:0:
386,278,238061,1,0,0:0:0:0:
364,293,238146,1,0,0:0:0:0:
338,297,238233,2,0,P|308:301|258:288,1,74.2500022659302,8|0,0:0|0:0,0:0:0:0:
290,76,238404,1,8,0:0:0:0:
312,61,238489,1,0,0:0:0:0:
338,57,238576,2,0,P|368:53|418:66,1,74.2500022659302
137,151,238747,6,0,B|85:107|121:46|121:46|121:67|137:95,1,151.875005793572,0|0,1:0|0:0,0:0:0:0:
237,320,239090,1,8,0:0:0:0:
375,151,239261,2,0,B|427:107|391:46|391:46|391:67|375:95,1,151.875005793572
237,331,239604,1,8,0:0:0:0:
131,134,239776,2,0,B|79:90|115:29|115:29|115:50|131:78,1,151.875005793572
236,351,240119,6,0,L|237:329,1,20.2499993820191,0|0,1:0|0:0,0:0:0:0:
383,135,240290,2,0,B|435:91|399:30|399:30|399:51|383:79,1,151.875005793572,0|8,0:0|0:0,0:0:0:0:
236,376,240633,1,0,0:0:0:0:
131,134,240804,1,0,0:0:0:0:
115,112,240889,1,0,0:0:0:0:
103,86,240976,2,0,P|99:56|113:13,1,75.9375028967858,8|0,0:0|0:0,0:0:0:0:
383,135,241147,1,8,0:0:0:0:
398,157,241232,1,0,0:0:0:0:
402,183,241319,2,0,P|406:213|395:256,1,75.9375028967858
112,218,241490,6,0,B|70:193|65:154|65:154|97:129|152:135,1,151.875005793572,0|0,1:0|0:0,0:0:0:0:
316,302,241833,1,8,0:0:0:0:
279,57,242004,2,0,B|272:23|238:1|238:1|203:17|193:65,1,151.875005793572
324,308,242347,1,8,0:0:0:0:
96,204,242519,2,0,B|49:177|44:134|44:134|80:106|140:113,1,151.875005793572
338,322,242861,6,0,L|323:307,1,20.2499993820191,0|0,1:0|0:0,0:0:0:0:
276,46,243033,2,0,B|269:8|231:-15|231:-15|192:3|182:52,1,161.999995056153,0|8,0:0|0:0,0:0:0:0:
346,330,243376,1,0,0:0:0:0:
82,206,243547,1,0,0:0:0:0:
58,192,243632,1,0,0:0:0:0:
43,171,243719,2,0,P|26:145|25:89,1,80.9999975280763,8|0,0:0|0:0,0:0:0:0:
276,46,243890,1,8,0:0:0:0:
299,59,243975,1,0,0:0:0:0:
314,80,244062,2,0,P|330:105|334:155,1,80.9999975280763
109,119,244233,6,0,B|122:65|87:33|87:33|166:-14,1,158.624997579575,0|0,1:0|0:0,0:0:0:0:
202,311,244576,1,8,0:0:0:0:
387,205,244747,2,0,B|444:173|444:173|409:141|418:88,1,151.875005793572
197,323,245091,1,8,0:0:0:0:
105,113,245261,2,0,B|118:59|83:27|83:27|149:-11,1,148.50000453186
192,336,245605,5,8,0:0:0:0:
405,184,245775,2,0,B|461:151|461:151|426:119|435:72,1,141.749995674133
188,350,246119,1,0,0:0:0:0:
145,20,246290,2,0,B|69:65|69:65|108:123|71:183,1,202.5
149,206,246633,2,0,P|123:236|100:246,1,50.6250019311906
13,218,246804,2,0,P|-1:183|1:160,1,50.6250019311906
326,138,246976,6,0,P|373:123|412:152,1,94.4999971160889,0|0,1:0|0:0,0:0:0:0:
383,300,247319,1,8,0:0:0:0:
311,127,247490,2,0,P|354:111|410:149,1,114.750002188683
383,312,247833,1,8,0:0:0:0:
306,105,248004,2,0,P|363:92|408:151,1,135
383,332,248347,6,0,L|383:311,1,20.2499993820191,0|0,1:0|0:0,0:0:0:0:
313,73,248519,2,0,P|370:76|405:155,1,141.749995674133,0|8,0:0|0:0,0:0:0:0:
382,346,248861,1,0,0:0:0:0:
290,41,249033,1,0,0:0:0:0:
316,36,249118,1,0,0:0:0:0:
341,44,249205,2,0,P|370:53|402:95,1,74.2500022659302,8|0,0:0|0:0,0:0:0:0:
382,346,249376,1,8,0:0:0:0:
355,350,249461,1,0,0:0:0:0:
330,343,249548,2,0,P|301:333|275:296,1,74.2500022659302
88,231,249719,6,0,B|4:299|36:359|72:343|68:315|52:303,1,148.50000453186,0|0,1:0|0:0,0:0:0:0:
214,56,250061,1,8,0:0:0:0:
187,272,250233,2,0,B|148:372|205:408|229:376|211:354|191:352,1,148.50000453186
210,36,250575,1,8,0:0:0:0:
303,267,250747,2,0,B|319:373|379:363|388:323|359:310|347:334,1,135
206,16,251090,6,0,L|209:35,1,20.2499993820191,0|0,1:0|0:0,0:0:0:0:
63,279,251261,2,0,B|91:348|177:364|231:303|231:303|264:356|325:358|367:316,1,337.5,0|0,0:0|0:0,3:0:0:0:
303,267,251776,2,0,B|318:204|366:181|366:181|316:151|301:75,1,202.5,0|0,3:0|3:0,3:0:0:0:
250,37,252119,2,0,B|201:56|178:111|178:111|139:67|77:65,1,202.5
25,123,252461,6,0,P|1:199|137:379,1,320.624991438389
220,381,252976,2,0,P|297:362|360:161,1,286.875005471707
335,121,253490,2,0,P|324:283|220:333,1,270
169,309,254004,6,0,P|284:264|314:148,1,253.125009655953
303,55,254519,2,0,P|218:60|181:110,1,141.749995674133
188,188,254861,2,0,P|172:112|100:70,1,151.875005793572
20,85,255204,6,0,B|-28:206|101:205|93:282|31:331|-14:290,1,270
93,345,255719,6,0,B|140:314|136:247|136:247|161:273|209:277|239:249|239:249|265:221|297:227,1,286.875005471707
336,356,256233,2,0,P|296:318|293:276,1,80.9999975280763
303,114,256576,5,8,0:0:0:0:
418,273,256747,2,0,L|411:378,1,87.749995983124
280,190,257090,1,8,0:0:0:0:
394,12,257261,6,0,B|389:71|389:71|401:99|401:99|393:167,1,121.499996292114
482,127,257604,2,0,L|477:167,1,40.4999987640381
506,237,257776,2,0,L|500:278,1,42.1875
347,344,257947,6,0,L|351:310,1,33.75
283,317,258119,2,0,L|287:283,1,33.75
224,254,258290,2,0,L|219:295,1,40.4999987640381,8|0,0:0|0:0,0:0:0:0:
164,208,258461,1,0,0:0:0:0:
163,218,258547,1,0,0:0:0:0:
161,228,258633,2,0,L|155:268,1,40.4999987640381,8|0,0:0|0:0,0:0:0:0:
91,245,258804,2,0,L|85:285,1,40.4999987640381
23,251,258976,1,0,0:0:0:0:
21,261,259061,1,0,0:0:0:0:
20,271,259147,1,0,0:0:0:0:
19,281,259233,1,0,0:0:0:0:
17,291,259319,6,0,L|11:331,1,40.4999987640381,8|0,0:0|0:0,0:0:0:0:
81,314,259490,2,0,L|75:354,1,40.4999987640381
218,359,259661,2,0,L|223:318,1,40.4999987640381,8|0,0:0|0:0,0:0:0:0:
287,356,259833,1,0,0:0:0:0:
289,346,259918,1,0,0:0:0:0:
290,336,260004,1,0,0:0:0:0:
291,326,260090,1,0,0:0:0:0:
293,316,260176,2,0,L|299:276,1,40.4999987640381,8|0,0:0|0:0,0:0:0:0:
168,167,260347,2,0,L|163:208,1,40.4999987640381,8|0,0:0|0:0,0:0:0:0:
485,190,260690,6,0,L|488:149,1,40.4999987640381,0|0,1:0|0:0,0:0:0:0:
395,239,260861,2,0,L|392:280,1,40.4999987640381
410,70,261033,2,0,L|407:111,1,40.4999987640381,8|0,0:0|0:0,0:0:0:0:
326,172,261204,1,0,0:0:0:0:
327,157,261289,1,0,0:0:0:0:
328,144,261375,1,0,0:0:0:0:
329,131,261461,1,0,0:0:0:0:
330,118,261547,1,8,0:0:0:0:
248,186,261719,1,0,0:0:0:0:
249,171,261804,1,0,0:0:0:0:
250,158,261890,1,0,0:0:0:0:
251,145,261976,1,0,0:0:0:0:
252,133,262062,2,0,L|256:78,1,40.4999987640381,0|0,1:0|0:0,0:0:0:0:
229,325,262404,6,0,L|260:346,1,20.2499993820191
196,348,262490,2,0,L|211:378,1,20.2499993820191
156,350,262576,2,0,L|153:382,1,20.2499993820191
158,340,262661,1,0,0:0:0:0:
160,330,262747,1,0,0:0:0:0:
161,320,262833,1,0,0:0:0:0:
163,310,262919,2,0,L|168:269,1,40.4999987640381,8|0,0:0|0:0,0:0:0:0:
326,356,263090,2,0,L|331:315,1,40.4999987640381,8|0,0:0|0:0,0:0:0:0:
259,242,263261,2,0,L|264:201,1,40.4999987640381
60,318,263433,6,0,L|8:336,1,40.4999987640381,0|0,1:0|0:0,0:0:0:0:
124,207,263604,2,0,L|86:221,1,40.4999987640381
156,350,263776,2,0,L|194:336,1,40.4999987640381,8|0,0:0|0:0,0:0:0:0:
259,242,263947,1,0,0:0:0:0:
268,238,264032,1,0,0:0:0:0:
278,235,264118,1,0,0:0:0:0:
287,232,264204,1,0,0:0:0:0:
297,228,264289,1,8,0:0:0:0:
193,182,264461,1,0,0:0:0:0:
202,178,264546,1,0,0:0:0:0:
212,175,264632,1,0,0:0:0:0:
221,172,264718,1,0,0:0:0:0:
231,168,264804,2,0,L|269:154,1,40.4999987640381,0|0,1:0|0:0,0:0:0:0:
81,0,265147,6,0,L|63:51,1,40.4999987640381,8|0,0:0|0:0,0:0:0:0:
133,69,265319,1,0,0:0:0:0:
129,78,265404,1,0,0:0:0:0:
126,88,265490,1,0,0:0:0:0:
123,97,265576,1,0,0:0:0:0:
119,107,265662,2,0,L|105:145,1,40.4999987640381,8|0,0:0|0:0,0:0:0:0:
219,43,265833,2,0,L|205:81,1,40.4999987640381,8|0,0:0|0:0,0:0:0:0:
179,287,266176,6,0,L|217:301,1,40.4999987640381,0|0,1:0|0:0,0:0:0:0:
191,363,266347,2,0,L|229:377,1,40.4999987640381
162,211,266519,1,8,0:0:0:0:
252,311,266690,1,0,0:0:0:0:
261,314,266775,1,0,0:0:0:0:
271,318,266861,1,0,0:0:0:0:
280,321,266947,1,0,0:0:0:0:
290,325,267033,2,0,L|295:375,1,40.4999987640381,8|0,0:0|0:0,0:0:0:0:
240,225,267204,1,0,0:0:0:0:
249,228,267289,1,0,0:0:0:0:
259,232,267375,1,0,0:0:0:0:
268,235,267461,1,0,0:0:0:0:
278,239,267547,2,0,L|283:289,1,40.4999987640381,8|0,0:0|0:0,0:0:0:0:
230,140,267719,1,0,0:0:0:0:
239,143,267804,1,0,0:0:0:0:
249,147,267890,1,0,0:0:0:0:
258,150,267976,1,0,0:0:0:0:
268,154,268062,6,0,L|273:204,1,40.4999987640381
329,99,268233,2,0,B|347:163|347:163|345:224,1,121.499996292114
282,279,268576,2,0,L|278:239,1,40.4999987640381
364,364,268747,2,0,L|360:324,1,40.4999987640381
346,218,268919,6,0,B|384:199|384:199|431:211,1,80.9999975280763,0|0,1:0|0:0,0:0:0:0:
481,321,269261,2,0,L|486:371,1,40.4999987640381,8|0,0:0|0:0,0:0:0:0:
512,200,269433,1,0,0:0:0:0:
510,189,269518,1,0,0:0:0:0:
509,179,269604,1,0,0:0:0:0:
508,169,269690,1,0,0:0:0:0:
507,159,269775,1,8,0:0:0:0:
421,208,269947,1,0,0:0:0:0:
419,197,270032,1,0,0:0:0:0:
418,187,270118,1,0,0:0:0:0:
417,177,270204,1,0,0:0:0:0:
416,167,270290,2,0,L|411:126,1,40.4999987640381,0|0,1:0|0:0,0:0:0:0:
280,339,270633,6,0,L|235:341,1,40.4999987640381,8|0,0:0|0:0,0:0:0:0:
309,265,270804,1,0,0:0:0:0:
298,265,270889,1,0,0:0:0:0:
288,265,270975,1,0,0:0:0:0:
278,266,271061,1,0,0:0:0:0:
268,266,271147,2,0,L|223:268,1,40.4999987640381,8|0,0:0|0:0,0:0:0:0:
336,194,271319,2,0,L|291:196,1,40.4999987640381,8|0,0:0|0:0,0:0:0:0:
0,85,271661,6,0,L|45:87,1,40.4999987640381,0|0,1:0|0:0,0:0:0:0:
114,184,271833,2,0,L|159:186,1,40.4999987640381
170,0,272004,2,0,L|129:-1,1,40.4999987640381,8|0,0:0|0:0,0:0:0:0:
208,98,272176,1,0,0:0:0:0:
231,98,272261,1,0,0:0:0:0:
254,99,272347,1,0,0:0:0:0:
277,100,272433,1,0,0:0:0:0:
301,101,272518,1,8,0:0:0:0:
114,184,272690,1,0,0:0:0:0:
139,184,272775,1,0,0:0:0:0:
165,185,272861,1,0,0:0:0:0:
192,186,272947,1,0,0:0:0:0:
218,186,273033,2,0,L|274:187,1,40.4999987640381,0|8,1:0|0:0,0:0:0:0:
100,322,273376,6,0,L|79:370,1,40.4999987640381,8|0,0:0|0:0,0:0:0:0:
215,293,273547,1,0,0:0:0:0:
222,275,273632,1,0,0:0:0:0:
229,258,273718,1,0,0:0:0:0:
236,242,273804,1,0,0:0:0:0:
243,224,273890,2,0,L|271:155,1,40.4999987640381,8|0,0:0|0:0,0:0:0:0:
200,0,274061,2,0,L|184:37,1,40.4999987640381,8|0,0:0|0:0,0:0:0:0:
119,189,274233,2,0,L|102:226,1,40.4999987640381
270,250,274404,6,0,L|233:234,1,40.4999987640381,0|0,1:0|0:0,0:0:0:0:
146,114,274576,2,0,L|183:130,1,40.4999987640381
347,197,274747,2,0,L|310:181,1,40.4999987640381,8|0,0:0|0:0,0:0:0:0:
245,58,274919,1,0,0:0:0:0:
255,62,275004,1,0,0:0:0:0:
266,67,275090,1,0,0:0:0:0:
277,72,275176,1,0,0:0:0:0:
289,77,275261,1,8,0:0:0:0:
249,156,275433,1,0,0:0:0:0:
258,160,275518,1,0,0:0:0:0:
267,164,275604,1,0,0:0:0:0:
276,168,275690,1,0,0:0:0:0:
286,172,275776,2,0,L|323:188,1,40.4999987640381,0|0,1:0|0:0,0:0:0:0:
433,322,276119,6,0,L|449:284,1,40.4999987640381,8|0,0:0|0:0,0:0:0:0:
463,179,276290,1,0,0:0:0:0:
454,183,276375,1,0,0:0:0:0:
445,188,276461,1,0,0:0:0:0:
436,193,276547,1,0,0:0:0:0:
427,198,276633,2,0,L|393:220,1,40.4999987640381,8|0,0:0|0:0,0:0:0:0:
430,100,276804,2,0,L|396:122,1,40.4999987640381,8|0,0:0|0:0,0:0:0:0:
197,23,277147,6,0,L|219:57,1,40.4999987640381,0|0,1:0|0:0,0:0:0:0:
174,133,277319,2,0,L|196:167,1,40.4999987640381
97,15,277490,2,0,L|119:49,1,40.4999987640381,8|0,0:0|0:0,0:0:0:0:
83,129,277661,1,0,0:0:0:0:
88,137,277746,1,0,0:0:0:0:
94,146,277832,1,0,0:0:0:0:
99,154,277918,1,0,0:0:0:0:
105,163,278004,2,0,L|127:197,1,40.4999987640381,8|0,0:0|0:0,0:0:0:0:
174,133,278176,1,0,0:0:0:0:
180,142,278261,1,0,0:0:0:0:
187,153,278347,1,0,0:0:0:0:
193,163,278433,1,0,0:0:0:0:
200,173,278519,2,0,L|226:213,1,40.4999987640381,8|0,0:0|0:0,0:0:0:0:
267,138,278690,1,0,0:0:0:0:
275,150,278775,1,0,0:0:0:0:
284,165,278861,1,0,0:0:0:0:
292,178,278947,1,0,0:0:0:0:
302,192,279033,6,0,L|337:246,1,40.4999987640381
295,22,279204,2,0,B|323:66|323:66|325:89|325:89|355:133,1,121.499996292114
432,120,279547,2,0,L|454:154,1,40.4999987640381
366,0,279719,2,0,L|388:34,1,40.4999987640381
403,231,279890,6,0,B|360:242|324:226,1,80.9999975280763,0|0,1:0|0:0,0:0:0:0:
281,88,280233,1,8,0:0:0:0:
190,180,280404,1,0,0:0:0:0:
193,203,280489,1,0,0:0:0:0:
205,224,280575,1,0,0:0:0:0:
224,239,280661,1,0,0:0:0:0:
247,246,280746,1,8,0:0:0:0:
107,198,280919,1,0,0:0:0:0:
96,219,281004,1,0,0:0:0:0:
95,242,281090,1,0,0:0:0:0:
103,265,281176,1,0,0:0:0:0:
118,283,281261,2,0,P|133:297|162:304,1,40.4999987640381,0|0,1:0|0:0,0:0:0:0:
68,116,281604,5,8,0:0:0:0:
190,180,281776,1,0,0:0:0:0:
208,195,281861,1,0,0:0:0:0:
220,216,281947,1,0,0:0:0:0:
225,240,282033,1,0,0:0:0:0:
222,264,282119,2,0,P|210:285|183:301,1,40.4999987640381,8|0,0:0|0:0,0:0:0:0:
295,108,282290,2,0,P|280:122|271:140,1,40.4999987640381,8|0,0:0|0:0,0:0:0:0:
512,179,282633,6,0,P|472:217|472:261,1,80.9999975280763,0|0,1:0|0:0,0:0:0:0:
483,346,282976,1,8,0:0:0:0:
388,302,283147,1,0,0:0:0:0:
367,294,283232,1,0,0:0:0:0:
345,291,283318,1,0,0:0:0:0:
323,293,283404,1,0,0:0:0:0:
302,300,283490,1,8,0:0:0:0:
231,372,283661,1,0,0:0:0:0:
210,380,283746,1,0,0:0:0:0:
188,383,283832,1,0,0:0:0:0:
166,381,283918,1,0,0:0:0:0:
145,374,284004,2,0,P|129:359|126:334,1,40.4999987640381,0|0,1:0|0:0,0:0:0:0:
83,163,284347,6,0,L|56:179,1,20.2499993820191
79,127,284433,2,0,L|52:127,1,20.2499993820191
92,93,284519,2,0,L|66:71,1,20.2499993820191
108,106,284604,1,0,0:0:0:0:
127,114,284690,1,0,0:0:0:0:
147,116,284776,1,0,0:0:0:0:
168,112,284861,2,0,P|185:98|196:76,1,40.4999987640381,8|0,0:0|0:0,0:0:0:0:
344,112,285033,2,0,P|327:98|316:76,1,40.4999987640381,8|0,0:0|0:0,0:0:0:0:
256,167,285204,2,0,P|252:191|256:208,1,40.4999987640381
276,356,285376,6,0,P|321:359|359:324,1,80.9999975280763,0|0,1:0|0:0,0:0:0:0:
420,236,285719,1,8,0:0:0:0:
313,255,285890,1,0,0:0:0:0:
294,263,285975,1,0,0:0:0:0:
274,266,286061,1,0,0:0:0:0:
254,263,286147,1,0,0:0:0:0:
235,256,286232,1,8,0:0:0:0:
334,168,286404,1,0,0:0:0:0:
315,160,286489,1,0,0:0:0:0:
295,157,286575,1,0,0:0:0:0:
275,160,286661,1,0,0:0:0:0:
256,169,286747,2,0,P|227:180|198:176,1,40.4999987640381,0|0,1:0|0:0,0:0:0:0:
76,12,287090,5,8,0:0:0:0:
139,107,287261,1,0,0:0:0:0:
158,113,287346,1,0,0:0:0:0:
178,115,287432,1,0,0:0:0:0:
198,112,287518,1,0,0:0:0:0:
217,106,287604,2,0,P|237:88|246:63,1,40.4999987640381,8|0,0:0|0:0,0:0:0:0:
254,246,287776,2,0,P|280:247|304:236,1,40.4999987640381,8|0,0:0|0:0,0:0:0:0:
399,10,288119,6,0,P|349:22|330:53,1,80.9999975280763,0|0,1:0|0:0,0:0:0:0:
281,161,288461,1,8,0:0:0:0:
420,140,288633,1,0,0:0:0:0:
439,144,288718,1,0,0:0:0:0:
457,153,288804,1,0,0:0:0:0:
473,166,288890,1,0,0:0:0:0:
486,181,288976,2,0,L|486:237,1,40.4999987640381,8|0,0:0|0:0,0:0:0:0:
388,210,289147,1,0,0:0:0:0:
407,214,289232,1,0,0:0:0:0:
425,223,289318,1,0,0:0:0:0:
441,236,289404,1,0,0:0:0:0:
454,251,289490,2,0,L|454:307,1,40.4999987640381,8|0,0:0|0:0,0:0:0:0:
352,280,289661,1,0,0:0:0:0:
371,284,289746,1,0,0:0:0:0:
389,293,289832,1,0,0:0:0:0:
405,306,289918,1,0,0:0:0:0:
418,321,290004,6,0,L|418:377,1,40.4999987640381
388,210,290176,2,0,P|334:180|270:185,1,121.499996292114
260,257,290519,2,0,P|279:260|299:254,1,40.4999987640381
291,107,290690,2,0,P|271:104|252:110,1,40.4999987640381
63,286,290861,6,0,P|103:286|139:262,1,80.9999975280763,0|0,1:0|0:0,0:0:0:0:
160,128,291204,1,8,0:0:0:0:
260,257,291376,1,0,0:0:0:0:
275,275,291461,1,0,0:0:0:0:
284,298,291547,1,0,0:0:0:0:
286,322,291633,1,0,0:0:0:0:
281,346,291718,1,8,0:0:0:0:
152,269,291890,1,0,0:0:0:0:
167,287,291975,1,0,0:0:0:0:
176,310,292061,1,0,0:0:0:0:
178,334,292147,1,0,0:0:0:0:
173,358,292233,2,0,P|145:370|121:370,1,40.4999987640381,0|0,1:0|0:0,0:0:0:0:
376,313,292576,5,8,0:0:0:0:
243,270,292747,1,0,0:0:0:0:
228,252,292832,1,0,0:0:0:0:
219,229,292918,1,0,0:0:0:0:
217,205,293004,1,0,0:0:0:0:
222,181,293090,2,0,P|250:169|274:169,1,40.4999987640381,8|0,0:0|0:0,0:0:0:0:
339,328,293261,2,0,P|358:324|376:314,1,40.4999987640381,8|0,0:0|0:0,0:0:0:0:
412,84,293604,6,0,P|359:83|323:106,1,80.9999975280763,0|0,1:0|0:0,0:0:0:0:
222,181,293947,1,8,0:0:0:0:
304,297,294119,1,0,0:0:0:0:
319,315,294204,1,0,0:0:0:0:
340,328,294290,1,0,0:0:0:0:
363,334,294376,1,0,0:0:0:0:
388,334,294461,1,8,0:0:0:0:
346,217,294633,1,0,0:0:0:0:
369,219,294718,1,0,0:0:0:0:
393,213,294804,1,0,0:0:0:0:
413,201,294890,1,0,0:0:0:0:
431,183,294976,2,0,P|440:167|439:146,1,40.4999987640381,0|0,1:0|0:0,0:0:0:0:
199,152,295319,5,8,0:0:0:0:
240,280,295490,1,0,0:0:0:0:
244,302,295575,1,0,0:0:0:0:
256,324,295661,1,0,0:0:0:0:
272,340,295747,1,0,0:0:0:0:
294,353,295833,2,0,P|312:346|331:322,1,40.4999987640381,8|0,0:0|0:0,0:0:0:0:
326,157,296004,2,0,P|344:163|363:187,1,40.4999987640381,8|0,0:0|0:0,0:0:0:0:
434,273,296176,2,0,P|404:270|383:273,1,40.4999987640381
240,280,296347,6,0,P|180:288|148:276,1,80.9999975280763,0|0,1:0|0:0,0:0:0:0:
52,232,296690,1,8,0:0:0:0:
197,205,296861,1,0,0:0:0:0:
193,183,296946,1,0,0:0:0:0:
181,161,297032,1,0,0:0:0:0:
165,145,297118,1,0,0:0:0:0:
145,133,297204,1,8,0:0:0:0:
241,101,297376,1,0,0:0:0:0:
237,79,297461,1,0,0:0:0:0:
225,57,297547,1,0,0:0:0:0:
209,41,297633,1,0,0:0:0:0:
187,28,297719,2,0,P|168:34|149:58,1,40.4999987640381,0|0,1:0|0:0,0:0:0:0:
355,129,298061,5,8,0:0:0:0:
262,219,298233,1,0,0:0:0:0:
266,241,298318,1,0,0:0:0:0:
278,263,298404,1,0,0:0:0:0:
294,279,298490,1,0,0:0:0:0:
316,292,298576,2,0,P|334:285|353:261,1,40.4999987640381,8|0,0:0|0:0,0:0:0:0:
471,196,298747,2,0,P|489:188|504:174,1,40.4999987640381,8|0,0:0|0:0,0:0:0:0:
280,377,299090,6,0,P|332:385|372:369,1,80.9999975280763,0|0,1:0|0:0,0:0:0:0:
436,264,299433,1,8,0:0:0:0:
329,168,299604,1,0,0:0:0:0:
309,179,299689,1,0,0:0:0:0:
293,198,299775,1,0,0:0:0:0:
284,219,299861,1,0,0:0:0:0:
280,244,299947,2,0,P|293:259|325:268,1,40.4999987640381,8|0,0:0|0:0,0:0:0:0:
216,184,300119,1,0,0:0:0:0:
196,195,300204,1,0,0:0:0:0:
180,214,300290,1,0,0:0:0:0:
171,235,300376,1,0,0:0:0:0:
167,260,300462,2,0,P|180:275|209:283,1,40.4999987640381,8|0,0:0|0:0,0:0:0:0:
100,200,300633,1,0,0:0:0:0:
80,211,300718,1,0,0:0:0:0:
64,230,300804,1,0,0:0:0:0:
55,251,300890,1,0,0:0:0:0:
50,276,300976,6,0,P|63:291|92:299,1,40.4999987640381
196,195,301147,2,0,P|176:144|112:108,1,121.499996292114
43,108,301490,2,0,P|34:136|35:156,1,40.4999987640381
100,200,301661,2,0,P|91:231|92:248,1,40.4999987640381
188,291,301833,6,0,P|168:330|125:352,1,80.9999975280763,0|0,1:0|0:0,0:0:0:0:
0,348,302176,1,8,0:0:0:0:
8,228,302347,1,0,0:0:0:0:
19,203,302432,1,0,0:0:0:0:
25,176,302518,1,0,0:0:0:0:
25,149,302604,1,0,0:0:0:0:
18,122,302690,1,8,0:0:0:0:
100,200,302861,1,0,0:0:0:0:
111,175,302947,1,0,0:0:0:0:
117,148,303033,1,0,0:0:0:0:
117,121,303119,1,0,0:0:0:0:
110,94,303204,2,0,P|104:76|84:52,1,40.4999987640381,0|0,1:0|0:0,0:0:0:0:
64,292,303547,5,8,0:0:0:0:
156,364,303719,1,0,0:0:0:0:
183,351,303804,1,0,0:0:0:0:
213,345,303890,1,0,0:0:0:0:
242,345,303976,1,0,0:0:0:0:
272,353,304061,2,0,P|298:366|313:381,1,40.4999987640381,8|0,0:0|0:0,0:0:0:0:
232,248,304233,2,0,P|257:239|277:239,1,40.4999987640381,8|0,0:0|0:0,0:0:0:0:
449,326,304576,6,0,P|425:282|377:262,1,80.9999975280763,0|0,1:0|0:0,0:0:0:0:
270,238,304919,1,8,0:0:0:0:
366,170,305090,1,0,0:0:0:0:
388,155,305175,1,0,0:0:0:0:
404,134,305261,1,0,0:0:0:0:
414,109,305347,1,0,0:0:0:0:
414,83,305432,1,8,0:0:0:0:
273,121,305604,1,0,0:0:0:0:
275,95,305689,1,0,0:0:0:0:
270,68,305775,1,0,0:0:0:0:
258,44,305861,1,0,0:0:0:0:
237,28,305947,2,0,P|203:16|168:24,1,40.4999987640381,0|0,1:0|0:0,0:0:0:0:
409,169,306290,6,0,L|387:151,1,20.2499993820191
393,215,306376,2,0,L|368:213,1,20.2499993820191
395,264,306461,2,0,L|362:281,1,20.2499993820191
426,266,306546,1,0,0:0:0:0:
457,260,306632,1,0,0:0:0:0:
486,244,306718,1,0,0:0:0:0:
505,221,306804,2,0,P|519:179|515:159,1,40.4999987640381,8|0,0:0|0:0,0:0:0:0:
313,113,306976,2,0,P|305:131|304:152,1,40.4999987640381,8|0,0:0|0:0,0:0:0:0:
395,264,307147,2,0,P|384:295|392:327,1,40.4999987640381
436,93,307319,6,0,P|452:45|444:1,1,80.9999975280763,0|0,1:0|0:0,0:0:0:0:
289,3,307661,1,8,0:0:0:0:
304,152,307833,1,0,0:0:0:0:
289,177,307918,1,0,0:0:0:0:
268,196,308004,1,0,0:0:0:0:
240,207,308090,1,0,0:0:0:0:
211,209,308175,1,8,0:0:0:0:
193,79,308347,1,0,0:0:0:0:
163,85,308432,1,0,0:0:0:0:
134,83,308518,1,0,0:0:0:0:
106,72,308604,1,0,0:0:0:0:
85,52,308690,2,0,P|66:19|66:-9,1,40.4999987640381,0|0,1:0|0:0,0:0:0:0:
304,20,309033,5,8,0:0:0:0:
340,141,309204,1,0,0:0:0:0:
354,166,309289,1,0,0:0:0:0:
377,184,309375,1,0,0:0:0:0:
403,196,309461,1,0,0:0:0:0:
432,198,309547,2,0,P|466:187|487:166,1,40.4999987640381,8|0,0:0|0:0,0:0:0:0:
431,51,309719,2,0,P|451:27|455:-5,1,40.4999987640381,8|0,0:0|0:0,0:0:0:0:
512,291,310061,6,0,P|471:313|420:307,1,80.9999975280763,0|0,1:0|0:0,0:0:0:0:
303,274,310404,1,8,0:0:0:0:
432,198,310576,1,0,0:0:0:0:
458,190,310661,1,0,0:0:0:0:
480,174,310747,1,0,0:0:0:0:
495,152,310833,1,0,0:0:0:0:
503,126,310919,2,0,P|504:101|496:79,1,40.4999987640381,8|0,0:0|0:0,0:0:0:0:
354,149,311090,1,0,0:0:0:0:
380,141,311175,1,0,0:0:0:0:
402,125,311261,1,0,0:0:0:0:
417,103,311347,1,0,0:0:0:0:
425,77,311433,2,0,P|428:51|420:29,1,40.4999987640381,8|0,0:0|0:0,0:0:0:0:
261,112,311604,1,0,0:0:0:0:
287,104,311689,1,0,0:0:0:0:
309,88,311775,1,0,0:0:0:0:
324,66,311861,1,0,0:0:0:0:
332,40,311947,6,0,P|333:20|321:-4,1,40.4999987640381
256,202,312119,2,0,P|240:254|264:330,1,121.499996292114
180,354,312461,2,0,P|172:322|160:310,1,40.4999987640381
327,358,312633,2,0,P|335:326|347:314,1,40.4999987640381
299,121,312804,6,0,P|255:108|218:119,1,80.9999975280763,0|0,1:0|0:0,0:0:0:0:
96,289,313147,1,8,0:0:0:0:
135,106,313319,1,0,0:0:0:0:
137,76,313404,1,0,0:0:0:0:
146,50,313490,1,0,0:0:0:0:
164,28,313576,1,0,0:0:0:0:
188,11,313661,1,8,0:0:0:0:
45,138,313833,1,0,0:0:0:0:
25,114,313918,1,0,0:0:0:0:
13,89,314004,1,0,0:0:0:0:
10,61,314090,1,0,0:0:0:0:
15,33,314176,2,0,P|31:3|52:-13,1,40.4999987640381,0|0,1:0|0:0,0:0:0:0:
139,325,314519,5,8,0:0:0:0:
202,158,314690,1,0,0:0:0:0:
224,137,314775,1,0,0:0:0:0:
249,125,314861,1,0,0:0:0:0:
277,122,314947,1,0,0:0:0:0:
305,127,315033,2,0,P|334:143|351:164,1,40.4999987640381,8|0,0:0|0:0,0:0:0:0:
250,279,315204,2,0,P|265:292|284:301,1,40.4999987640381,8|0,0:0|0:0,0:0:0:0:
493,302,315547,6,0,P|465:270|425:258,1,80.9999975280763,0|0,1:0|0:0,0:0:0:0:
284,301,315890,1,8,0:0:0:0:
181,188,316061,1,0,0:0:0:0:
168,164,316146,1,0,0:0:0:0:
149,148,316232,1,0,0:0:0:0:
126,137,316318,1,0,0:0:0:0:
101,134,316403,1,8,0:0:0:0:
222,101,316576,1,0,0:0:0:0:
209,77,316661,1,0,0:0:0:0:
190,61,316747,1,0,0:0:0:0:
167,50,316833,1,0,0:0:0:0:
142,46,316919,2,0,P|112:46|87:58,1,40.4999987640381,0|0,1:0|0:0,0:0:0:0:
69,234,317261,5,8,0:0:0:0:
208,200,317433,1,0,0:0:0:0:
232,207,317518,1,0,0:0:0:0:
256,205,317604,1,0,0:0:0:0:
278,197,317690,1,0,0:0:0:0:
298,183,317776,2,0,P|317:163|326:137,1,40.4999987640381,8|0,0:0|0:0,0:0:0:0:
354,0,317947,2,0,P|334:19|325:45,1,40.4999987640381,8|0,0:0|0:0,0:0:0:0:
447,103,318119,2,0,P|428:109|408:108,1,40.4999987640381
244,88,318290,6,0,P|196:72|132:80,1,80.9999975280763,0|0,1:0|0:0,0:0:0:0:
44,116,318633,1,8,0:0:0:0:
152,175,318804,1,0,0:0:0:0:
143,195,318889,1,0,0:0:0:0:
132,214,318975,1,0,0:0:0:0:
114,229,319061,1,0,0:0:0:0:
93,238,319146,1,8,0:0:0:0:
187,293,319319,1,0,0:0:0:0:
178,313,319404,1,0,0:0:0:0:
167,332,319490,1,0,0:0:0:0:
149,347,319576,1,0,0:0:0:0:
128,355,319661,2,0,P|102:363|73:363,1,40.4999987640381,0|0,1:0|0:0,0:0:0:0:
268,216,320004,5,8,0:0:0:0:
152,175,320176,1,0,0:0:0:0:
134,163,320261,1,0,0:0:0:0:
118,149,320347,1,0,0:0:0:0:
108,130,320433,1,0,0:0:0:0:
103,109,320518,2,0,P|99:83|104:56,1,40.4999987640381,8|0,0:0|0:0,0:0:0:0:
30,213,320690,2,0,P|13:201|0:186,1,40.4999987640381,8|0,0:0|0:0,0:0:0:0:
21,384,321033,6,0,P|49:328|97:300,1,80.9999975280763,0|0,1:0|0:0,0:0:0:0:
187,293,321376,1,8,0:0:0:0:
250,148,321547,1,0,0:0:0:0:
251,126,321632,1,0,0:0:0:0:
247,105,321718,1,0,0:0:0:0:
236,86,321804,1,0,0:0:0:0:
221,68,321890,2,0,P|201:50|194:29,1,40.4999987640381,8|0,0:0|0:0,0:0:0:0:
331,128,322061,1,0,0:0:0:0:
332,106,322146,1,0,0:0:0:0:
328,85,322232,1,0,0:0:0:0:
317,66,322318,1,0,0:0:0:0:
302,48,322404,2,0,P|284:34|275:10,1,40.4999987640381,8|0,0:0|0:0,0:0:0:0:
408,110,322576,1,0,0:0:0:0:
409,88,322661,1,0,0:0:0:0:
405,67,322747,1,0,0:0:0:0:
394,48,322833,1,0,0:0:0:0:
378,29,322919,6,0,P|357:15|346:-3,1,40.4999987640381,8|0,0:0|0:0,0:0:0:0:
504,128,323090,2,0,P|499:182|426:228,1,121.499996292114
372,212,323433,2,0,P|358:200|348:176,1,40.4999987640381
436,304,323604,2,0,P|415:306|380:288,1,40.4999987640381
408,163,323776,6,0,L|356:232,1,60.7499981460572,0|0,1:0|0:0,0:0:0:0:
296,316,324119,1,8,0:0:0:0:
292,166,324290,1,0,0:0:0:0:
281,178,324375,1,0,0:0:0:0:
272,189,324461,1,0,0:0:0:0:
262,201,324547,1,0,0:0:0:0:
252,213,324632,1,8,0:0:0:0:
331,268,324804,1,0,0:0:0:0:
322,280,324889,1,0,0:0:0:0:
313,292,324975,1,0,0:0:0:0:
304,305,325061,1,0,0:0:0:0:
296,316,325147,2,0,L|272:354,1,30.3749990730286,0|0,1:0|0:0,0:0:0:0:
133,384,325490,5,8,0:0:0:0:
200,286,325661,1,0,0:0:0:0:
209,274,325746,1,0,0:0:0:0:
218,262,325832,1,0,0:0:0:0:
227,249,325918,1,0,0:0:0:0:
235,238,326004,2,0,L|235:201,1,30.3749990730286,8|0,0:0|0:0,0:0:0:0:
344,196,326176,2,0,L|344:156,1,30.3749990730286,8|0,0:0|0:0,0:0:0:0:
104,197,326519,6,0,L|143:151,1,60.7499981460572
112,60,326861,1,8,0:0:0:0:
40,156,327033,1,0,0:0:0:0:
30,167,327118,1,0,0:0:0:0:
20,178,327204,1,0,0:0:0:0:
10,190,327290,1,0,0:0:0:0:
0,201,327375,1,8,0:0:0:0:
144,152,327547,1,0,0:0:0:0:
134,163,327632,1,0,0:0:0:0:
124,174,327718,1,0,0:0:0:0:
114,186,327804,1,0,0:0:0:0:
104,197,327890,2,0,L|76:232,1,30.3749990730286
248,12,328233,5,8,0:0:0:0:
248,128,328404,1,0,0:0:0:0:
248,143,328489,1,0,0:0:0:0:
248,158,328575,1,0,0:0:0:0:
248,173,328661,1,0,0:0:0:0:
248,188,328747,2,0,L|248:228,1,30.3749990730286,8|0,0:0|0:0,0:0:0:0:
329,124,328919,2,0,L|329:168,1,30.3749990730286,8|0,0:0|0:0,0:0:0:0:
104,197,329261,6,0,L|176:197,1,60.7499981460572
248,284,329604,1,8,0:0:0:0:
128,284,329776,1,0,0:0:0:0:
112,284,329861,1,0,0:0:0:0:
97,284,329947,1,0,0:0:0:0:
82,284,330033,1,0,0:0:0:0:
67,284,330118,1,8,0:0:0:0:
104,197,330290,1,0,0:0:0:0:
88,197,330375,1,0,0:0:0:0:
73,197,330461,1,0,0:0:0:0:
58,197,330547,1,0,0:0:0:0:
43,197,330633,2,0,L|3:197,1,30.3749990730286
160,360,330976,5,8,0:0:0:0:
248,284,331147,1,0,0:0:0:0:
263,284,331232,1,0,0:0:0:0:
278,284,331318,1,0,0:0:0:0:
293,284,331404,1,0,0:0:0:0:
308,284,331490,2,0,L|336:260,1,30.3749990730286,8|0,0:0|0:0,0:0:0:0:
392,352,331661,2,0,L|420:328,1,30.3749990730286,8|0,0:0|0:0,0:0:0:0:
460,136,332004,6,0,L|405:196,1,60.7499981460572
476,284,332347,1,8,0:0:0:0:
328,264,332519,1,0,0:0:0:0:
317,253,332604,1,0,0:0:0:0:
306,242,332690,1,0,0:0:0:0:
295,231,332776,1,0,0:0:0:0:
284,220,332861,2,0,L|253:189,1,30.3749990730286,8|0,0:0|0:0,0:0:0:0:
400,198,333033,1,0,0:0:0:0:
391,189,333118,1,0,0:0:0:0:
382,180,333204,1,0,0:0:0:0:
373,171,333290,1,0,0:0:0:0:
362,162,333376,2,0,L|334:134,1,23.6249992790222,8|0,0:0|0:0,0:0:0:0:
469,144,333547,1,0,0:0:0:0:
461,136,333632,1,0,0:0:0:0:
454,129,333718,1,0,0:0:0:0:
447,122,333804,1,0,0:0:0:0:
441,116,333890,6,0,L|405:80,1,50.625,8|0,0:0|0:0,0:0:0:0:
380,56,334233,1,8,0:0:0:0:
264,84,334404,2,0,P|276:112|292:120,1,33.75,0|0,1:0|0:0,0:0:0:0:
304,208,334747,2,0,P|324:212|344:204,1,33.75,0|0,1:0|0:0,0:0:0:0:
480,176,335090,6,0,L|476:221,1,33.75,8|0,0:0|0:0,0:0:0:0:
476,245,335347,1,0,0:0:0:0:
476,245,335433,1,0,0:0:0:0:
389,230,335604,2,0,L|385:275,1,33.75,8|0,0:0|0:0,0:0:0:0:
385,299,335861,1,0,0:0:0:0:
385,299,335947,2,0,L|382:322,2,16.875,0|0|0,0:0|0:0|1:0,0:0:0:0:
182,374,336461,6,0,L|179:348,1,27,8|0,0:0|0:0,0:0:0:0:
173,307,336719,1,0,0:0:0:0:
173,307,336804,1,0,0:0:0:0:
97,224,336976,2,0,L|95:205,1,13.5,8|0,0:0|0:0,0:0:0:0:
219,200,337147,2,0,L|217:181,1,13.5,8|0,0:0|0:0,0:0:0:0:
254,22,337490,5,0,1:0:0:0:
306,140,337833,2,0,L|315:165,1,20.2499993820191,8|0,0:0|0:0,0:0:0:0:
313,198,338090,1,0,0:0:0:0:
313,198,338176,2,0,L|322:223,1,20.2499993820191
267,296,338519,2,0,L|271:308,4,10.1249996910095,0|0|0|0|0,0:0|0:0|0:0|0:0|1:0,0:0:0:0:
391,180,339204,6,0,L|397:197,1,13.5,8|0,0:0|0:0,0:0:0:0:
395,230,339461,1,0,0:0:0:0:
395,230,339547,2,0,L|401:247,1,13.5,0|8,0:0|0:0,0:0:0:0:
256,352,339890,1,8,0:0:0:0:
256,224,340233,5,0,0:0:0:0:
256,224,341604,5,0,0:0:0:0:
256,352,342633,5,0,0:0:0:0:
256,224,342976,1,0,0:0:0:0:
256,352,344004,5,0,0:0:0:0:
256,224,344347,1,0,0:0:0:0:
256,352,345376,5,0,0:0:0:0:
256,192,345719,1,0,0:0:0:0:
256,192,347090,5,0,0:0:0:0:
256,192,348461,5,0,0:0:0:0:
256,192,349833,5,0,0:0:0:0:
