osu file format v14

[General]
AudioFilename: audio.mp3
AudioLeadIn: 0
PreviewTime: 60056
Countdown: 0
SampleSet: Soft
StackLeniency: 0.7
Mode: 0
LetterboxInBreaks: 0
WidescreenStoryboard: 0

[Editor]
Bookmarks: 33151,74531,77289,98324,101427,121427,140738,143496,156254,164531,187634
DistanceSpacing: 1.7
BeatDivisor: 4
GridSize: 4
TimelineZoom: 1.3

[Metadata]
Title:EOS
TitleUnicode:EOS
Artist:Keeno
ArtistUnicode:Keeno
Creator:Yoges
Version:Normal
Source:
Tags:Atsuro Futurist EP cbh Come[Back]Home electronic hybrid d n & b dnb d&b drum and & bass breakcore jungle idm jazz
BeatmapID:1038763
BeatmapSetID:453221

[Difficulty]
HPDrainRate:2
CircleSize:3.3
OverallDifficulty:2
ApproachRate:4.2
SliderMultiplier:0.600000005960464
SliderTickRate:1

[Events]
//Background and Video events
0,0,"bg.png",0,0
//Break Periods
2,16808,20829
2,27842,31780
2,74739,75657
2,101636,120140
2,140946,142125
2,164739,169795
//Storyboard Layer 0 (Background)
//Storyboard Layer 1 (Fail)
//Storyboard Layer 2 (Pass)
//Storyboard Layer 3 (Foreground)
//Storyboard Sound Samples

[TimingPoints]
1436,344.827586206897,4,2,1,40,1,0
11091,-200,4,2,1,35,0,0
11177,-200,4,2,1,5,0,0
13849,-200,4,2,1,35,0,0
13936,-200,4,2,1,5,0,0
16608,-200,4,2,1,35,0,0
16694,-200,4,2,1,5,0,0
22125,-200,4,2,1,35,0,0
22211,-200,4,2,1,5,0,0
24884,-200,4,2,1,35,0,0
24970,-200,4,2,1,5,0,0
27642,-200,4,2,1,35,0,0
33160,-100,4,2,1,55,0,0
55229,-100,4,2,1,55,0,1
74539,-100,4,2,1,55,0,0
77298,-100,4,2,1,60,0,1
86608,-100,4,2,1,60,0,0
87298,-100,4,2,1,65,0,1
87470,-100,4,2,0,60,0,1
88332,-100,4,2,1,60,0,1
98332,-100,4,2,1,65,0,0
99022,-100,4,2,1,50,0,0
99711,-100,4,2,1,35,0,0
100401,-100,4,2,1,20,0,0
101091,-100,4,2,1,5,0,0
101436,-100,4,2,1,5,0,0
121436,-100,4,2,1,30,0,0
124194,-100,4,2,1,35,0,0
126953,-100,4,2,1,40,0,0
132470,-100,4,2,1,45,0,0
136091,-100,4,2,1,50,0,0
137987,-100,4,2,1,55,0,0
140229,-100,4,2,0,55,0,0
140746,-100,4,2,1,35,0,0
143504,-100,4,2,1,60,0,1
152815,-100,4,2,1,60,0,0
153504,-100,4,2,1,65,0,1
153677,-100,4,2,0,60,0,1
154539,-100,4,2,1,60,0,1
164539,-100,4,2,1,65,0,0
171091,-100,4,2,1,60,0,0
184884,-100,4,2,1,55,0,0
185229,-100,4,2,1,60,0,0

[Colours]
Combo1 : 71,160,116
Combo2 : 160,177,95
Combo3 : 70,72,172
Combo4 : 210,106,77

[HitObjects]
92,48,11091,6,0,P|64:64|84:192,1,180.000001788139,2|0,0:0|0:0,0:0:0:0:
176,219,13849,6,0,B|228:211|228:211|256:243|300:247|300:247|348:239,1,180.000001788139,2|0,0:0|0:0,0:0:0:0:
444,217,16608,5,2,0:0:0:0:
420,48,22125,6,0,P|448:64|428:192,1,180.000001788139,2|0,0:0|0:0,0:0:0:0:
336,219,24884,6,0,B|284:211|284:211|256:243|212:247|212:247|164:239,1,180.000001788139,2|0,0:0|0:0,0:0:0:0:
68,217,27642,5,2,0:0:0:0:
482,184,33160,6,0,P|493:231|490:272,2,90.0000008940696,4|4|4,0:0|0:3|0:3,0:0:0:0:
442,88,34539,2,0,L|314:92,1,120.000001192093,0|8,0:0|0:0,0:0:0:0:
233,142,35573,1,8,0:0:0:0:
140,98,35918,2,0,P|143:133|110:178,1,90.0000008940696,4|4,0:3|0:3,0:0:0:0:
17,213,36780,2,0,L|22:315,2,90.0000008940696,8|8|8,0:0|0:0|0:0,0:0:0:0:
8,60,38332,1,4,0:3:0:0:
104,93,38677,6,0,P|147:101|197:96,1,90.0000008940696,4|4,0:0|0:3,0:0:0:0:
332,35,39711,1,4,0:3:0:0:
414,94,40056,2,0,L|409:193,1,90.0000008940696,4|8,0:3|0:0,0:0:0:0:
402,336,41091,1,8,0:0:0:0:
308,296,41436,2,0,L|211:304,1,90.0000008940696,4|4,0:3|0:3,0:0:0:0:
261,211,42298,2,0,L|350:203,2,90.0000008940696,8|8|8,0:0|0:0|0:0,0:0:0:0:
108,226,43849,1,4,0:3:0:0:
87,126,44194,6,0,P|82:109|41:47,2,90.0000008940696,4|4|4,0:3|0:3|0:3,0:0:0:0:
184,157,45573,2,0,P|202:163|308:152,1,120.000001192093,0|8,0:0|0:0,0:0:0:0:
394,114,46608,1,8,0:0:0:0:
465,186,46953,2,0,L|458:286,1,90.0000008940696,4|4,0:3|0:3,0:0:0:0:
358,254,47815,2,0,P|321:252|264:265,2,90.0000008940696,8|8|8,0:0|0:0|0:0,0:0:0:0:
451,376,49367,1,4,0:3:0:0:
458,275,49711,6,0,L|464:185,1,90.0000008940696,4|4,0:0|0:3,0:0:0:0:
403,44,50746,1,4,0:3:0:0:
307,80,51091,2,0,P|274:91|185:79,1,120.000001192093,0|8,0:0|0:0,0:0:0:0:
95,44,52125,1,8,0:0:0:0:
37,128,52470,2,0,P|38:176|47:226,1,90.0000008940696,4|4,0:3|0:3,0:0:0:0:
102,302,53332,2,0,P|61:318|11:313,2,90.0000008940696,8|8|0,0:0|0:0|0:0,0:0:0:0:
213,196,54884,1,4,0:1:0:0:
304,241,55229,6,0,L|312:340,1,90.0000008940696,6|6,0:0|0:3,0:0:0:0:
457,374,56263,1,2,3:0:0:0:
506,284,56608,2,0,L|496:154,1,120.000001192093,6|10,0:3|0:0,0:0:0:0:
485,62,57642,1,8,0:0:0:0:
397,114,57987,2,0,P|361:127|299:112,1,90.0000008940696,4|4,0:3|0:3,0:0:0:0:
229,58,58849,2,0,L|127:69,2,90.0000008940696,8|8|8,0:0|0:0|0:0,0:0:0:0:
381,40,60401,1,4,0:3:0:0:
362,140,60746,6,0,P|359:203|366:228,1,90.0000008940696,6|6,0:0|0:3,0:0:0:0:
456,351,61780,1,2,0:0:0:0:
354,340,62125,2,0,B|310:339|310:339|275:354|275:354|230:353,1,120.000001192093,6|10,0:3|0:0,0:0:0:0:
134,353,63160,1,8,0:0:0:0:
125,251,63504,2,0,P|112:209|81:160,1,90.0000008940696,4|4,0:3|0:3,0:0:0:0:
189,153,64367,2,0,P|228:143|261:96,2,90.0000008940696,8|8|0,0:0|0:0|0:0,0:0:0:0:
36,145,65918,1,4,0:1:0:0:
17,245,66263,6,0,L|29:344,1,90.0000008940696,6|6,0:0|0:3,0:0:0:0:
165,266,67298,1,2,0:0:0:0:
251,320,67642,2,0,P|295:337|374:315,1,120.000001192093,6|10,0:3|0:0,0:0:0:0:
443,257,68677,1,8,0:0:0:0:
411,159,69022,2,0,P|404:108|411:68,1,90.0000008940696,4|4,0:3|0:3,0:0:0:0:
309,88,69884,2,0,L|214:89,2,90.0000008940696,8|8|8,0:0|0:0|0:0,0:0:0:0:
256,231,71436,1,4,0:3:0:0:
169,177,71780,6,0,L|74:178,1,90.0000008940696,6|6,0:0|0:3,0:0:0:0:
24,321,72815,1,6,0:1:0:0:
118,359,73160,2,0,P|158:368|222:324,1,120.000001192093,2|10,0:0|0:3,0:0:0:0:
247,228,74194,1,8,0:0:0:0:
329,288,74539,1,4,0:0:0:0:
24,321,76953,5,4,0:3:0:0:
100,253,77298,6,0,P|97:208|111:165,2,90.0000008940696,4|4|4,0:3|0:3|0:3,0:0:0:0:
146,343,78677,1,8,0:0:0:0:
236,295,79022,1,0,3:0:0:0:
335,317,79367,2,0,P|360:319|399:311,1,60.0000005960464,8|8,0:0|0:0,0:0:0:0:
480,258,80056,6,0,P|492:288|488:347,2,90.0000008940696,4|4|4,0:3|0:3|0:3,0:0:0:0:
421,174,81436,1,8,0:0:0:0:
319,179,81780,2,0,L|255:181,2,60.0000005960464,0|8|8,3:0|0:0|0:0,0:0:0:0:
363,86,82815,6,0,P|380:46|382:-2,2,90.0000008940696,4|4|4,0:3|0:3|0:3,0:0:0:0:
319,179,84194,1,8,0:0:0:0:
251,102,84539,1,0,3:0:0:0:
211,195,84884,2,0,P|200:239|198:264,1,60.0000005960464,8|8,0:0|0:0,0:0:0:0:
99,227,85573,6,0,P|49:226|9:237,1,90.0000008940696,4|4,0:3|0:3,0:0:0:0:
120,342,86608,1,8,0:3:0:0:
193,151,87298,6,0,P|250:149|292:196,1,120.000001192093,8|2,1:0|0:3,0:0:0:0:
328,288,88332,6,0,P|325:331|341:381,2,90.0000008940696,4|4|4,0:3|0:3|0:3,0:0:0:0:
358,190,89711,1,8,0:0:0:0:
448,237,90056,1,0,3:0:0:0:
466,137,90401,2,0,P|470:118|488:80,1,60.0000005960464,8|8,0:0|0:0,0:0:0:0:
401,25,91091,6,0,L|303:26,1,90.0000008940696,4|4,0:3|0:3,0:0:0:0:
158,27,92125,1,4,0:3:0:0:
221,106,92470,2,0,P|239:154|240:174,2,60.0000005960464,8|0|8,0:0|3:0|0:0,0:0:0:0:
158,27,93504,1,8,0:0:0:0:
93,105,93849,6,0,P|55:89|2:85,2,90.0000008940696,4|4|4,0:3|0:3|0:3,0:0:0:0:
171,170,95229,1,8,0:0:0:0:
142,267,95573,2,0,P|145:295|151:333,1,60.0000005960464,0|8,3:0|0:0,0:0:0:0:
245,362,96263,1,8,0:0:0:0:
333,310,96608,6,0,P|372:315|433:298,2,90.0000008940696,4|4|4,0:3|0:3|0:3,0:0:0:0:
367,108,98332,5,8,1:0:0:0:
256,192,98504,12,0,101436,0:0:0:0:
379,100,121436,6,0,P|391:116|403:188,2,90.0000008940696,2|2|2,3:0|3:0|3:0,0:0:0:0:
306,28,122815,2,0,B|247:19|248:45|188:35,1,120.000001192093,2|10,0:0|0:0,0:0:0:0:
88,8,123849,1,8,0:0:0:0:
6,69,124194,2,0,L|10:161,1,90.0000008940696,0|0,3:0|3:0,0:0:0:0:
95,214,125056,2,0,P|134:196|185:198,2,90.0000008940696,8|8|8,0:0|0:0|0:0,0:0:0:0:
165,350,126608,1,0,3:0:0:0:
257,306,126953,6,0,P|294:295|347:299,1,90.0000008940696,6|2,0:0|0:3,0:0:0:0:
488,351,127987,1,2,0:0:0:0:
485,248,128332,2,0,L|482:124,1,120.000001192093,2|10,3:0|0:0,0:0:0:0:
422,44,129367,1,8,0:0:0:0:
346,112,129711,2,0,P|315:125|249:125,1,90.0000008940696,0|0,3:0|3:0,0:0:0:0:
160,102,130573,2,0,P|173:145|174:189,2,90.0000008940696,8|8|8,0:0|0:0|0:0,0:0:0:0:
25,174,132125,1,4,0:1:0:0:
58,270,132470,6,0,P|99:267|148:273,2,90.0000008940696,6|2|2,0:0|3:0|0:0,0:0:0:0:
31,368,133849,2,0,P|97:361|153:371,1,120.000001192093,2|10,3:0|0:0,0:0:0:0:
239,321,134884,1,8,0:0:0:0:
334,357,135229,2,0,P|367:357|420:340,1,90.0000008940696,0|0,3:0|0:0,0:0:0:0:
499,273,136091,2,0,P|503:322|513:365,2,90.0000008940696,8|8|8,0:0|0:0|0:0,0:0:0:0:
485,120,137642,1,0,3:0:0:0:
401,61,137987,6,0,L|301:68,1,90.0000008940696,6|6,0:0|0:3,0:0:0:0:
158,76,139022,1,6,0:0:0:0:
218,158,139367,2,0,P|235:194|220:273,1,120.000001192093,10|6,0:0|0:1,0:0:0:0:
153,346,140401,1,2,0:3:0:0:
67,290,140746,1,4,0:0:0:0:
67,290,143504,6,0,P|111:305|157:302,2,90.0000008940696,4|4|4,0:3|0:3|0:3,0:0:0:0:
125,206,144884,1,8,0:0:0:0:
78,115,145229,1,0,3:0:0:0:
146,39,145573,2,0,P|181:39|211:42,1,60.0000005960464,8|8,0:0|0:0,0:0:0:0:
306,59,146263,6,0,P|337:46|376:-3,2,90.0000008940696,4|4|4,0:3|0:3|0:3,0:0:0:0:
244,140,147642,1,8,0:0:0:0:
312,215,147987,1,0,0:3:0:0:
294,315,148332,2,0,P|288:344|277:376,1,60.0000005960464,8|8,0:0|0:0,0:0:0:0:
183,333,149022,6,0,P|145:332|94:340,2,90.0000008940696,4|4|4,0:3|0:3|0:3,0:0:0:0:
278,372,150401,1,8,0:0:0:0:
352,301,150746,1,0,3:0:0:0:
445,341,151091,2,0,P|477:338|508:330,1,60.0000005960464,8|8,0:0|0:0,0:0:0:0:
458,239,151780,2,0,P|449:196|449:150,1,90.0000008940696,4|4,0:3|0:3,0:0:0:0:
480,0,152815,1,4,0:3:0:0:
283,53,153504,6,0,P|323:58|344:130,1,120.000001192093,8|2,1:0|0:3,0:0:0:0:
303,219,154539,6,0,L|209:215,2,90.0000008940696,4|4|4,0:3|0:3|0:3,0:0:0:0:
404,226,155918,1,8,0:0:0:0:
435,323,156263,1,0,3:0:0:0:
343,368,156608,2,0,P|303:362|273:362,1,60.0000005960464,8|8,0:0|0:0,0:0:0:0:
181,365,157298,6,0,P|194:309|188:265,2,90.0000008940696,4|4|4,0:3|0:3|0:3,0:0:0:0:
94,310,158677,1,8,0:0:0:0:
115,210,159022,1,0,3:0:0:0:
35,145,159367,2,0,P|19:119|12:90,1,60.0000005960464,8|8,0:0|0:0,0:0:0:0:
88,23,160056,6,0,L|179:25,2,90.0000008940696,4|4|4,0:3|0:3|3:0,0:0:0:0:
12,90,161436,1,8,0:0:0:0:
73,171,161780,1,0,3:0:0:0:
44,269,162125,2,0,P|81:262|103:262,1,60.0000005960464,8|8,0:0|0:0,0:0:0:0:
200,293,162815,6,0,P|204:260|203:197,2,90.0000008940696,4|4|4,0:3|0:3|0:3,0:0:0:0:
263,99,164539,1,8,1:0:0:0:
462,238,171091,6,0,B|478:185|465:136,2,90.0000008940696,4|4|0,0:0|0:3|0:0,0:0:0:0:
386,306,172470,2,0,B|336:322|321:289|265:305,1,120.000001192093,4|0,0:3|3:0,0:0:0:0:
171,339,173504,1,8,0:0:0:0:
86,282,173849,2,0,P|97:244|90:183,1,90.0000008940696,0|4,0:3|0:3,0:0:0:0:
172,129,174711,2,0,L|269:133,2,90.0000008940696,8|8|8,0:0|0:0|0:0,0:0:0:0:
18,124,176263,1,4,0:3:0:0:
68,35,176608,6,0,L|157:38,1,90.0000008940696,4|4,0:0|0:3,0:0:0:0:
312,44,177642,1,0,0:0:0:0:
264,134,177987,2,0,P|250:170|265:255,1,120.000001192093,4|8,0:3|0:0,0:0:0:0:
319,332,179022,1,8,0:0:0:0:
392,261,179367,2,0,L|485:258,1,90.0000008940696,4|4,0:3|0:3,0:0:0:0:
457,159,180229,2,0,P|453:132|457:69,2,90.0000008940696,8|8|8,0:0|0:0|0:0,0:0:0:0:
502,305,181780,1,4,0:3:0:0:
410,349,182125,6,0,P|365:346|309:348,1,90.0000008940696,4|4,0:0|0:3,0:0:0:0:
168,366,183160,1,0,0:0:0:0:
133,270,183504,2,0,B|120:212|156:202|139:149,1,120.000001192093,4|8,0:3|0:0,0:0:0:0:
117,52,184539,1,8,0:0:0:0:
216,74,184884,6,0,P|266:82|309:71,2,90.0000008940696,4|4|4,0:0|0:3|0:0,0:0:0:0:
117,52,186263,2,0,P|71:58|32:122,1,120.000001192093,8|4,0:0|0:3,0:0:0:0:
59,214,187298,1,8,0:0:0:0:
53,314,187642,5,4,0:1:0:0:
