osu file format v14

[General]
AudioFilename: audio.mp3
AudioLeadIn: 0
PreviewTime: 60056
Countdown: 0
SampleSet: Soft
StackLeniency: 0.7
Mode: 0
LetterboxInBreaks: 0
WidescreenStoryboard: 0

[Editor]
Bookmarks: 33151,74531,77289,98324,101427,121427,140738,143496,164531,187634
DistanceSpacing: 0.7
BeatDivisor: 4
GridSize: 4
TimelineZoom: 1.3

[Metadata]
Title:EOS
TitleUnicode:EOS
Artist:Keeno
ArtistUnicode:Keeno
Creator:Yoges
Version:Insane
Source:
Tags:Atsuro Futurist EP cbh Come[Back]Home electronic hybrid d n & b dnb d&b drum and & bass breakcore jungle idm jazz
BeatmapID:971975
BeatmapSetID:453221

[Difficulty]
HPDrainRate:5
CircleSize:4.3
OverallDifficulty:8
ApproachRate:9
SliderMultiplier:1.5
SliderTickRate:1

[Events]
//Background and Video events
0,0,"bg.png",0,0
//Break Periods
2,101808,120836
//Storyboard Layer 0 (Background)
//Storyboard Layer 1 (Fail)
//Storyboard Layer 2 (Pass)
//Storyboard Layer 3 (Foreground)
//Storyboard Sound Samples

[TimingPoints]
1436,344.827586206897,4,2,1,40,1,0
11091,-400,4,2,1,35,0,0
11177,-400,4,2,1,5,0,0
13849,-400,4,2,1,35,0,0
13936,-400,4,2,1,5,0,0
16608,-400,4,2,1,35,0,0
16694,-400,4,2,1,5,0,0
22125,-400,4,2,1,35,0,0
22211,-400,4,2,1,5,0,0
24884,-400,4,2,1,35,0,0
24970,-400,4,2,1,5,0,0
27642,-400,4,2,1,35,0,0
33160,-100,4,2,1,55,0,0
36953,-100,4,2,1,30,0,0
37298,-100,4,2,1,55,0,0
37470,-100,4,2,1,30,0,0
37815,-100,4,2,1,55,0,0
37987,-100,4,2,1,30,0,0
38332,-100,4,2,1,55,0,0
42470,-100,4,2,1,30,0,0
42814,-100,4,2,1,55,0,0
42987,-100,4,2,1,30,0,0
43332,-100,4,2,1,55,0,0
43504,-100,4,2,1,30,0,0
43849,-100,4,2,1,55,0,0
47987,-100,4,2,1,30,0,0
48332,-100,4,2,1,55,0,0
48504,-100,4,2,1,30,0,0
48849,-100,4,2,1,55,0,0
49022,-100,4,2,1,30,0,0
49367,-100,4,2,1,55,0,0
53504,-100,4,2,1,30,0,0
53849,-100,4,2,1,55,0,0
54022,-100,4,2,1,30,0,0
54367,-100,4,2,1,55,0,0
55229,-100,4,2,1,55,0,1
59022,-100,4,2,1,30,0,1
59367,-100,4,2,1,55,0,1
59539,-100,4,2,1,30,0,1
59884,-100,4,2,1,55,0,1
60056,-100,4,2,1,30,0,1
60401,-100,4,2,1,55,0,1
64539,-100,4,2,1,30,0,1
64884,-100,4,2,1,55,0,1
65056,-100,4,2,1,30,0,1
65401,-100,4,2,1,55,0,1
65573,-100,4,2,1,30,0,1
65918,-100,4,2,1,55,0,1
70056,-100,4,2,1,30,0,1
70401,-100,4,2,1,55,0,1
70573,-100,4,2,1,30,0,1
70918,-100,4,2,1,55,0,1
71091,-100,4,2,1,30,0,1
71436,-100,4,2,1,55,0,1
74539,-100,4,2,1,55,0,0
77298,-100,4,2,1,60,0,1
78849,-100,4,2,1,40,0,1
79022,-100,4,2,1,60,0,1
79108,-100,4,2,1,35,0,1
79194,-100,4,2,1,60,0,1
79280,-100,4,2,1,35,0,1
79367,-100,4,2,1,60,0,1
79625,-100,4,2,1,35,0,1
79711,-100,4,2,1,60,0,1
79970,-100,4,2,1,35,0,1
80056,-100,4,2,1,60,0,1
81608,-100,4,2,1,35,0,1
81780,-100,4,2,1,60,0,1
81867,-100,4,2,1,35,0,1
81953,-100,4,2,1,60,0,1
82039,-100,4,2,1,35,0,1
82125,-100,4,2,1,60,0,1
82384,-100,4,2,1,35,0,1
82470,-100,4,2,1,60,0,1
82729,-100,4,2,1,35,0,1
82815,-100,4,2,1,60,0,1
84367,-100,4,2,1,35,0,1
84539,-100,4,2,1,60,0,1
84625,-100,4,2,1,35,0,1
84711,-100,4,2,1,60,0,1
84798,-100,4,2,1,35,0,1
84884,-100,4,2,1,60,0,1
85142,-100,4,2,1,35,0,1
85229,-100,4,2,1,60,0,1
85487,-100,4,2,1,35,0,1
85573,-100,4,2,1,60,0,1
86608,-133.333333333333,4,2,1,60,0,0
87298,-66.6666666666667,4,2,1,65,0,1
87470,-66.6666666666667,4,2,0,60,0,1
88332,-100,4,2,1,60,0,1
89884,-100,4,2,1,35,0,1
90056,-100,4,2,1,60,0,1
90142,-100,4,2,1,35,0,1
90229,-100,4,2,1,60,0,1
90315,-100,4,2,1,35,0,1
90401,-100,4,2,1,60,0,1
90660,-100,4,2,1,35,0,1
90746,-100,4,2,1,60,0,1
91004,-100,4,2,1,35,0,1
91091,-100,4,2,1,60,0,1
92642,-100,4,2,1,35,0,1
92815,-100,4,2,1,60,0,1
92901,-100,4,2,1,35,0,1
92987,-100,4,2,1,60,0,1
93073,-100,4,2,1,35,0,1
93160,-100,4,2,1,60,0,1
93418,-100,4,2,1,35,0,1
93504,-100,4,2,1,60,0,1
93763,-100,4,2,1,35,0,1
93849,-100,4,2,1,60,0,1
95401,-100,4,2,1,35,0,1
95573,-100,4,2,1,60,0,1
95660,-100,4,2,1,35,0,1
95746,-100,4,2,1,60,0,1
95832,-100,4,2,1,35,0,1
95918,-100,4,2,1,60,0,1
96177,-100,4,2,1,35,0,1
96263,-100,4,2,1,60,0,1
96522,-100,4,2,1,35,0,1
96608,-100,4,2,1,60,0,1
98332,-100,4,2,1,65,0,0
99022,-100,4,2,1,50,0,0
99711,-100,4,2,1,35,0,0
100401,-100,4,2,1,20,0,0
101091,-100,4,2,1,5,0,0
101436,-100,4,2,1,5,0,0
121436,-133.333333333333,4,2,1,30,0,0
124194,-133.333333333333,4,2,1,35,0,0
125229,-133.333333333333,4,2,1,20,0,0
125573,-133.333333333333,4,2,1,35,0,0
125746,-133.333333333333,4,2,1,20,0,0
126091,-133.333333333333,4,2,1,35,0,0
126263,-133.333333333333,4,2,1,20,0,0
126608,-133.333333333333,4,2,1,35,0,0
126953,-133.333333333333,4,2,1,40,0,0
130746,-133.333333333333,4,2,1,25,0,0
131091,-133.333333333333,4,2,1,40,0,0
131263,-133.333333333333,4,2,1,25,0,0
131608,-133.333333333333,4,2,1,40,0,0
131780,-133.333333333333,4,2,1,25,0,0
132125,-133.333333333333,4,2,1,40,0,0
132470,-125,4,2,1,45,0,0
136091,-125,4,2,1,50,0,0
136263,-125,4,2,1,30,0,0
136608,-125,4,2,1,50,0,0
136780,-125,4,2,1,30,0,0
137125,-125,4,2,1,50,0,0
137298,-125,4,2,1,30,0,0
137642,-125,4,2,1,50,0,0
137987,-100,4,2,1,55,0,0
140229,-100,4,2,0,55,0,0
140746,-133.333333333333,4,2,1,35,0,0
142125,-100,4,2,1,40,0,0
142642,-100,4,2,1,45,0,0
143160,-100,4,2,1,50,0,0
143504,-100,4,2,1,60,0,1
145056,-100,4,2,1,35,0,1
145229,-100,4,2,1,60,0,1
145315,-100,4,2,1,35,0,1
145401,-100,4,2,1,60,0,1
145487,-100,4,2,1,35,0,1
145573,-100,4,2,1,60,0,1
145746,-100,4,2,1,35,0,1
145918,-100,4,2,1,60,0,1
146177,-100,4,2,1,35,0,1
146263,-100,4,2,1,60,0,1
147815,-100,4,2,1,35,0,1
147987,-100,4,2,1,60,0,1
148073,-100,4,2,1,35,0,1
148160,-100,4,2,1,60,0,1
148246,-100,4,2,1,35,0,1
148332,-100,4,2,1,60,0,1
148504,-100,4,2,1,35,0,1
148677,-100,4,2,1,60,0,1
148936,-100,4,2,1,35,0,1
149022,-100,4,2,1,60,0,1
150573,-100,4,2,1,35,0,1
150746,-100,4,2,1,60,0,1
150832,-100,4,2,1,35,0,1
150918,-100,4,2,1,60,0,1
151004,-100,4,2,1,35,0,1
151091,-100,4,2,1,60,0,1
151263,-100,4,2,1,35,0,1
151436,-100,4,2,1,60,0,1
151694,-100,4,2,1,35,0,1
151780,-100,4,2,1,60,0,1
152815,-133.333333333333,4,2,1,60,0,0
153504,-66.6666666666667,4,2,1,65,0,1
153677,-66.6666666666667,4,2,0,60,0,1
154539,-100,4,2,1,60,0,1
156091,-100,4,2,1,35,0,1
156263,-100,4,2,1,60,0,1
156349,-100,4,2,1,35,0,1
156436,-100,4,2,1,60,0,1
156522,-100,4,2,1,35,0,1
156608,-100,4,2,1,60,0,1
156780,-100,4,2,1,35,0,1
156953,-100,4,2,1,60,0,1
157211,-100,4,2,1,35,0,1
157298,-100,4,2,1,60,0,1
158849,-100,4,2,1,35,0,1
159022,-100,4,2,1,60,0,1
159108,-100,4,2,1,35,0,1
159194,-100,4,2,1,60,0,1
159280,-100,4,2,1,35,0,1
159367,-100,4,2,1,60,0,1
159539,-100,4,2,1,35,0,1
159711,-100,4,2,1,60,0,1
159970,-100,4,2,1,35,0,1
160056,-100,4,2,1,60,0,1
161608,-100,4,2,1,35,0,1
161780,-100,4,2,1,60,0,1
161867,-100,4,2,1,35,0,1
161953,-100,4,2,1,60,0,1
162039,-100,4,2,1,35,0,1
162125,-100,4,2,1,60,0,1
162298,-100,4,2,1,35,0,1
162470,-100,4,2,1,60,0,1
162729,-100,4,2,1,35,0,1
162815,-100,4,2,1,60,0,1
164539,-400,4,2,1,65,0,0
165229,-400,4,2,1,20,0,0
165573,-133.333333333333,4,2,1,30,0,0
166953,-125,4,2,1,30,0,0
167125,-125,4,2,1,40,0,0
168332,-125,4,2,1,50,0,0
170056,-125,4,2,1,55,0,0
171091,-100,4,2,1,60,0,0
174884,-100,4,2,1,35,0,0
175229,-100,4,2,1,60,0,0
175401,-100,4,2,1,35,0,0
175746,-100,4,2,1,60,0,0
175918,-100,4,2,1,35,0,0
176263,-100,4,2,1,60,0,0
180401,-100,4,2,1,35,0,0
180746,-100,4,2,1,60,0,0
180918,-100,4,2,1,35,0,0
181263,-100,4,2,1,60,0,0
181436,-100,4,2,1,35,0,0
181780,-100,4,2,1,60,0,0
184022,-100,4,2,1,40,0,0
184194,-100,4,2,1,60,0,0
184884,-133.333333333333,4,2,1,55,0,0
185229,-133.333333333333,4,2,1,60,0,0
186004,-133.333333333333,4,2,1,45,0,0
186091,-133.333333333333,4,2,1,60,0,0
186177,-133.333333333333,4,2,1,45,0,0
186263,-133.333333333333,4,2,1,60,0,0
186522,-133.333333333333,4,2,1,45,0,0
186608,-133.333333333333,4,2,1,60,0,0
186694,-133.333333333333,4,2,1,45,0,0
186780,-133.333333333333,4,2,1,60,0,0
187125,-133.333333333333,4,2,1,45,0,0
187211,-133.333333333333,4,2,1,60,0,0

[Colours]
Combo1 : 71,160,116
Combo2 : 160,177,95
Combo3 : 70,72,172
Combo4 : 210,106,77

[HitObjects]
364,92,11091,6,0,B|340:129|340:140|364:176|360:192|348:238|300:260|252:236,1,225,2|0,0:0|0:0,0:0:0:0:
284,176,13849,6,0,P|321:240|211:289,1,225,2|0,0:0|0:0,0:0:0:0:
254,237,16608,6,0,P|272:56|180:224,1,525,2|0,0:0|0:0,0:0:0:0:
220,164,22125,6,0,P|176:152|140:284,1,225,2|0,0:0|0:0,0:0:0:0:
196,324,24884,6,0,B|240:296|292:296|320:352|372:352|416:320,1,225,2|0,0:0|0:0,0:0:0:0:
452,272,27642,5,2,0:0:0:0:
256,192,27815,12,0,31780,0:0:0:0:
109,131,33160,6,0,P|67:145|29:151,1,75,4|0,0:0|0:0,0:0:0:0:
180,83,33504,1,8,0:0:0:0:
208,233,33677,2,0,P|166:218|128:213,1,75,4|0,0:3|0:0,0:0:0:0:
279,281,34022,1,8,0:0:0:0:
325,167,34194,5,4,0:3:0:0:
339,144,34280,1,0,0:0:0:0:
364,135,34367,1,0,0:0:0:0:
390,138,34453,1,0,0:0:0:0:
414,146,34539,1,4,0:3:0:0:
439,152,34625,1,0,0:0:0:0:
465,150,34711,1,0,0:0:0:0:
490,141,34798,1,0,0:0:0:0:
503,118,34884,5,4,0:3:0:0:
507,92,34970,1,0,0:0:0:0:
500,66,35056,1,0,3:0:0:0:
486,43,35142,1,0,3:0:0:0:
461,34,35229,2,0,L|424:38,1,37.5,8|0,0:0|0:0,0:0:0:0:
301,139,35401,2,0,L|339:144,1,37.5,0|0,3:0|0:0,0:0:0:0:
394,270,35573,2,0,L|398:307,2,37.5,8|0|0,0:0|0:0|0:0,0:0:0:0:
161,187,35918,6,0,P|146:243|177:293,1,112.5,4|0,0:3|0:0,0:0:0:0:
197,310,36263,1,8,0:0:0:0:
345,215,36436,2,0,L|228:226,1,112.5,4|0,0:3|0:0,0:0:0:0:
260,244,36780,5,8,0:0:0:0:
392,140,36953,2,0,L|435:136,2,37.5,0|8|0,3:0|0:0|0:0,0:0:0:0:
273,258,37298,5,8,0:0:0:0:
163,157,37470,2,0,L|122:158,2,37.5,0|8|0,3:0|0:0|0:0,0:0:0:0:
287,270,37815,5,8,0:0:0:0:
388,181,37987,2,0,L|429:179,2,37.5,0|8|0,3:0|0:0|0:0,0:0:0:0:
221,337,38332,5,4,0:3:0:0:
221,337,38418,1,0,0:0:0:0:
221,337,38504,1,0,0:0:0:0:
336,216,38677,6,0,P|396:218|431:222,1,75,4|0,0:0|0:0,0:0:0:0:
292,311,39022,1,8,0:0:0:0:
228,112,39194,2,0,P|219:171|222:199,1,75,4|0,0:3|0:0,0:0:0:0:
177,44,39539,1,8,0:0:0:0:
324,125,39711,5,0,0:3:0:0:
350,129,39798,1,0,0:0:0:0:
376,127,39884,1,0,0:0:0:0:
401,123,39970,1,0,0:0:0:0:
426,115,40056,2,0,P|444:107|468:88,3,37.5,4|0|0|0,0:3|0:0|0:0|0:0,0:0:0:0:
462,219,40401,5,0,3:0:0:0:
460,244,40487,1,0,3:0:0:0:
457,271,40573,2,0,P|455:302|459:330,1,37.5,8|0,0:0|0:0,0:0:0:0:
331,341,40746,2,0,P|312:342|293:344,1,37.5,0|0,3:0|0:0,0:0:0:0:
235,211,40918,2,0,P|216:209|197:207,1,37.5,4|0,0:3|0:0,0:0:0:0:
128,316,41091,2,0,P|120:364|120:380,2,37.5,8|0|0,0:0|0:0|0:0,0:0:0:0:
44,110,41436,6,0,P|51:165|48:222,1,112.5,4|0,0:3|0:0,0:0:0:0:
44,248,41780,1,8,0:0:0:0:
262,125,41953,2,0,P|214:133|178:189,1,112.5,4|0,0:3|0:0,0:0:0:0:
174,209,42298,5,8,0:0:0:0:
158,47,42470,2,0,L|154:10,2,37.5,0|8|0,3:0|0:0|0:0,0:0:0:0:
291,150,42815,5,8,0:0:0:0:
275,297,42987,2,0,L|271:334,2,37.5,0|8|0,3:0|0:0|0:0,0:0:0:0:
510,218,43332,6,0,P|460:206|428:209,1,75,8|0,0:0|3:0,0:0:0:0:
417,226,43591,2,0,P|367:238|335:235,1,75,8|0,0:0|0:0,0:0:0:0:
392,336,43849,2,0,P|403:364|406:392,2,37.5,4|0|0,0:3|0:0|0:0,0:0:0:0:
157,305,44194,6,0,P|120:320|72:312,1,75,4|0,0:0|0:0,0:0:0:0:
102,149,44539,1,8,0:0:0:0:
246,252,44711,2,0,P|242:301|254:331,1,75,4|0,0:3|0:0,0:0:0:0:
277,165,45056,1,8,0:0:0:0:
360,287,45229,6,0,L|398:291,3,37.5,0|0|0|0,0:0|0:0|0:0|0:0,0:0:0:0:
446,169,45573,2,0,L|408:172,3,37.5,4|0|0|0,0:3|0:0|0:0|0:0,0:0:0:0:
317,94,45918,1,4,0:3:0:0:
307,69,46004,1,0,0:0:0:0:
300,43,46091,1,0,3:0:0:0:
297,16,46177,1,0,3:0:0:0:
270,18,46263,6,0,P|241:21|222:20,1,37.5,8|0,0:0|0:0,0:0:0:0:
63,99,46436,2,0,P|81:99|100:101,1,37.5,4|0,0:3|0:0,0:0:0:0:
225,237,46608,2,0,P|207:237|188:235,2,37.5,8|0|0,0:0|0:0|0:0,0:0:0:0:
390,204,46953,6,0,B|383:243|383:243|395:274|395:274|384:333,1,112.5,4|0,0:3|0:0,0:0:0:0:
383,339,47298,1,8,0:0:0:0:
333,144,47470,2,0,P|395:124|444:142,1,112.5,4|0,0:3|0:0,0:0:0:0:
460,151,47815,5,8,0:0:0:0:
389,35,47987,2,0,P|382:22|374:-1,2,37.5,0|8|0,3:0|0:0|0:0,0:0:0:0:
215,198,48332,5,8,0:0:0:0:
260,87,48504,2,0,P|264:72|267:48,2,37.5,0|8|0,3:0|0:0|0:0,0:0:0:0:
295,295,48849,5,8,0:0:0:0:
386,241,49022,2,0,L|433:244,2,37.5,0|8|0,3:0|0:0|0:0,0:0:0:0:
230,343,49367,5,4,0:3:0:0:
230,343,49453,1,0,0:0:0:0:
230,343,49539,1,0,0:0:0:0:
114,223,49711,6,0,P|75:205|33:197,1,75,4|0,0:0|0:0,0:0:0:0:
215,198,50056,1,8,0:0:0:0:
186,53,50229,2,0,P|147:70|105:78,1,75,4|0,0:3|0:0,0:0:0:0:
287,78,50573,1,8,0:0:0:0:
333,189,50746,5,0,0:0:0:0:
322,213,50832,1,0,0:0:0:0:
324,239,50918,1,0,0:0:0:0:
335,262,51004,1,0,0:0:0:0:
352,281,51091,1,4,0:3:0:0:
369,300,51177,1,0,0:0:0:0:
380,323,51263,1,0,0:0:0:0:
380,349,51349,1,0,0:0:0:0:
367,372,51436,6,0,P|335:375|312:378,1,37.5,4|0,0:3|0:0,0:0:0:0:
438,240,51608,2,0,P|456:242|475:243,1,37.5,0|0,3:0|3:0,0:0:0:0:
364,100,51780,2,0,P|363:126|359:154,1,37.5,8|0,0:0|0:0,0:0:0:0:
245,235,51953,2,0,P|243:216|242:197,1,37.5,4|0,0:3|0:0,0:0:0:0:
116,128,52125,2,0,P|97:130|79:134,2,37.5,8|0|0,0:0|0:0|0:0,0:0:0:0:
136,309,52470,6,0,P|91:304|52:246,1,112.5,4|0,0:3|0:0,0:0:0:0:
50,226,52815,1,8,0:0:0:0:
245,235,52987,2,0,P|195:228|130:231,1,112.5,4|0,0:3|0:0,0:0:0:0:
151,211,53332,5,8,0:0:0:0:
264,319,53504,2,0,P|260:349|256:363,2,37.5,0|8|0,3:0|0:0|0:0,0:0:0:0:
431,266,53849,5,8,0:0:0:0:
367,140,54022,2,0,P|371:110|375:96,2,37.5,0|8|0,3:0|0:0|0:0,0:0:0:0:
206,217,54367,5,8,0:0:0:0:
226,131,54539,1,8,0:3:0:0:
278,270,54711,1,4,0:3:0:0:
119,209,54884,2,0,P|76:208|39:210,1,75,4|0,0:1|0:0,0:0:0:0:
380,40,55229,6,0,P|384:84|334:122,1,112.5,6|0,0:0|0:0,0:0:0:0:
307,122,55573,1,8,0:0:0:0:
120,53,55746,2,0,P|128:108|128:164,1,112.5,6|0,0:3|0:0,0:0:0:0:
124,190,56091,1,8,0:0:0:0:
248,48,56263,1,2,3:0:0:0:
369,224,56436,5,0,0:0:0:0:
371,235,56522,1,0,0:0:0:0:
372,246,56608,1,6,0:3:0:0:
372,257,56694,1,0,0:0:0:0:
372,268,56780,1,0,0:0:0:0:
372,279,56867,1,0,0:0:0:0:
400,322,56953,5,4,0:3:0:0:
400,333,57039,1,0,0:0:0:0:
399,344,57125,1,2,3:0:0:0:
397,355,57211,1,0,3:0:0:0:
473,371,57298,6,0,P|495:375|515:375,1,37.5,10|0,0:0|0:0,0:0:0:0:
332,229,57470,2,0,P|354:225|374:225,1,37.5,4|0,0:3|0:0,0:0:0:0:
229,369,57642,2,0,P|251:373|271:373,1,37.5,8|0,0:0|0:0,0:0:0:0:
166,249,57815,1,4,0:3:0:0:
15,361,57987,6,0,B|35:354|59:352|77:375|100:376|137:360,1,112.5,4|0,0:3|0:0,0:0:0:0:
149,353,58332,1,8,0:0:0:0:
94,158,58504,2,0,P|57:194|67:261,1,112.5,4|0,0:3|0:0,0:0:0:0:
72,274,58849,5,8,0:0:0:0:
270,259,59022,2,0,P|288:260|306:266,2,37.5,0|8|0,3:0|0:0|0:0,0:0:0:0:
136,139,59367,5,8,0:0:0:0:
311,157,59539,2,0,P|329:155|347:149,2,37.5,0|8|0,3:0|0:0|0:0,0:0:0:0:
239,20,59884,5,8,0:0:0:0:
392,2,60056,2,0,P|410:3|428:9,2,37.5,0|8|0,3:0|0:0|0:0,0:0:0:0:
305,192,60401,5,4,0:3:0:0:
303,210,60487,1,0,0:0:0:0:
303,228,60573,1,0,0:0:0:0:
466,291,60746,6,0,L|471:170,1,112.5,6|0,0:0|0:0,0:0:0:0:
472,152,61091,1,8,0:0:0:0:
386,323,61263,2,0,B|359:340|338:334|321:316|297:315|267:331,1,112.5,6|0,0:3|0:0,0:0:0:0:
254,339,61608,1,8,0:0:0:0:
197,213,61780,6,0,P|166:202|148:200,3,37.5,2|0|0|0,0:0|0:0|0:0|0:0,0:0:0:0:
33,124,62125,2,0,P|50:116|68:112,3,37.5,6|0|0|0,0:3|0:0|0:0|0:0,0:0:0:0:
177,17,62470,2,0,P|194:24|212:28,3,37.5,4|0|2|0,0:3|0:0|3:0|3:0,0:0:0:0:
347,125,62815,2,0,P|311:127|292:132,1,37.5,10|0,0:0|0:0,0:0:0:0:
384,249,62987,1,4,0:3:0:0:
392,265,63073,1,0,0:0:0:0:
399,282,63160,2,0,P|408:318|410:332,1,37.5,8|0,0:0|0:0,0:0:0:0:
475,144,63332,2,0,P|478:125|484:107,1,37.5,4|0,0:3|0:0,0:0:0:0:
287,211,63504,6,0,P|250:194|226:119,1,112.5,4|0,0:3|0:0,0:0:0:0:
228,104,63849,1,8,0:0:0:0:
123,227,64022,2,0,L|133:348,1,112.5,4|0,0:3|0:0,0:0:0:0:
203,327,64367,6,0,P|244:329|283:338,1,75,8|0,0:0|3:0,0:0:0:0:
334,293,64625,2,0,P|379:300|412:297,1,75,8|0,0:0|0:0,0:0:0:0:
456,244,64884,2,0,L|456:162,1,75,8|0,0:0|3:0,0:0:0:0:
409,115,65142,2,0,L|409:190,1,75,8|0,0:0|0:0,0:0:0:0:
334,293,65401,1,8,0:0:0:0:
237,262,65573,2,0,P|195:262|181:263,2,37.5,8|8|0,0:0|3:0|3:0,0:0:0:0:
116,344,65918,2,0,P|90:317|87:261,1,75,4|0,0:1|0:0,0:0:0:0:
181,106,66263,6,0,P|154:142|90:150,1,112.5,6|0,0:0|0:0,0:0:0:0:
65,139,66608,1,8,0:0:0:0:
266,95,66780,2,0,B|307:92|307:92|342:108|342:108|384:106,1,112.5,6|0,0:3|0:0,0:0:0:0:
401,104,67125,1,8,0:0:0:0:
355,253,67298,5,2,0:0:0:0:
353,264,67384,1,0,0:0:0:0:
353,275,67470,1,0,0:0:0:0:
355,285,67556,1,0,0:0:0:0:
396,317,67642,5,6,0:3:0:0:
398,328,67729,1,0,0:0:0:0:
398,339,67815,1,0,0:0:0:0:
396,349,67901,1,0,0:0:0:0:
472,361,67987,6,0,P|490:362|509:359,1,37.5,4|0,0:3|0:0,0:0:0:0:
318,244,68160,2,0,P|336:243|355:246,1,37.5,2|0,3:0|3:0,0:0:0:0:
186,355,68332,2,0,P|204:355|223:353,1,37.5,10|0,0:0|0:0,0:0:0:0:
120,186,68504,2,0,P|138:185|157:188,1,37.5,4|0,0:3|0:0,0:0:0:0:
32,309,68677,2,0,P|28:331|27:352,2,37.5,8|0|0,0:0|0:0|0:0,0:0:0:0:
238,150,69022,6,0,P|252:97|232:45,1,112.5,4|0,0:3|0:0,0:0:0:0:
213,27,69367,1,8,0:0:0:0:
420,244,69539,2,0,B|382:238|382:238|351:264|306:276,1,112.5,4|0,0:3|0:0,0:0:0:0:
291,277,69884,5,8,0:0:0:0:
158,167,70056,2,0,P|133:177|119:185,2,37.5,0|8|0,3:0|0:0|0:0,0:0:0:0:
346,210,70401,5,8,0:0:0:0:
438,92,70573,2,0,P|464:95|480:99,2,37.5,0|8|0,3:0|0:0|0:0,0:0:0:0:
274,161,70918,5,8,0:0:0:0:
173,84,71091,2,0,P|148:94|134:102,2,37.5,0|8|0,3:0|0:0|0:0,0:0:0:0:
342,113,71436,5,4,0:3:0:0:
342,113,71522,1,0,0:0:0:0:
342,113,71608,1,0,0:0:0:0:
222,246,71780,6,0,P|154:225|112:229,1,112.5,6|0,0:0|0:0,0:0:0:0:
88,235,72125,1,8,0:0:0:0:
217,345,72298,2,0,B|263:348|293:320|293:320|330:322,1,112.5,6|0,0:3|0:0,0:0:0:0:
349,326,72642,1,8,0:0:0:0:
441,216,72815,2,0,P|471:207|491:203,3,37.5,6|0|0|0,0:1|0:0|0:0|0:0,0:0:0:0:
354,97,73160,2,0,P|324:88|304:84,3,37.5,2|0|0|0,0:0|0:0|0:0|0:0,0:0:0:0:
242,204,73504,1,0,0:0:0:0:
228,217,73591,1,0,0:0:0:0:
215,230,73677,6,0,P|208:260|208:275,1,37.5,10|0,0:0|0:0,0:0:0:0:
90,164,73849,2,0,P|88:145|82:127,1,37.5,10|0,0:3|0:0,0:0:0:0:
194,57,74022,2,0,P|239:69|247:70,1,37.5,4|0,0:3|0:0,0:0:0:0:
256,192,74194,1,8,0:0:0:0:
423,79,74367,1,4,0:3:0:0:
114,32,74539,5,4,0:0:0:0:
256,192,74711,12,0,76436,0:0:0:0:
294,200,76953,5,4,0:3:0:0:
302,212,77298,6,0,P|258:215|221:226,1,75,4|0,0:3|3:0,0:0:0:0:
357,150,77642,1,8,0:0:0:0:
156,265,77815,2,0,P|124:254|95:224,1,75,4|0,0:3|3:0,0:0:0:0:
164,184,78160,1,8,0:0:0:0:
184,344,78332,1,4,0:3:0:0:
32,272,78504,1,0,3:0:0:0:
168,100,78677,2,0,L|252:102,1,75,8|8,0:0|0:0,0:0:0:0:
334,216,79022,5,0,3:0:0:0:
352,218,79108,1,8,0:0:0:0:
388,198,79194,1,0,3:0:0:0:
406,200,79280,1,8,0:0:0:0:
457,149,79367,2,0,B|452:187|452:187|472:222|472:222|468:260,1,112.5,8|8,0:0|0:0,0:0:0:0:
507,314,79711,2,0,P|456:297|415:315,1,75,8|0,0:0|3:0,0:0:0:0:
374,343,79970,1,8,0:0:0:0:
374,343,80056,6,0,P|332:358|296:354,1,75,4|0,0:3|3:0,0:0:0:0:
274,165,80401,1,8,0:0:0:0:
187,269,80573,2,0,P|224:267|258:281,1,75,4|0,0:3|3:0,0:0:0:0:
155,359,80918,1,8,0:0:0:0:
118,200,81091,2,0,P|76:215|40:211,1,75,4|0,0:3|3:0,0:0:0:0:
152,85,81436,1,8,0:0:0:0:
187,269,81608,1,8,0:0:0:0:
334,216,81780,5,0,3:0:0:0:
352,218,81867,1,8,0:0:0:0:
388,198,81953,1,0,3:0:0:0:
406,200,82039,1,8,0:0:0:0:
460,246,82125,2,0,P|451:205|453:131,1,112.5,8|8,0:0|0:0,0:0:0:0:
498,78,82470,2,0,P|460:64|412:74,1,75,8|0,0:0|3:0,0:0:0:0:
359,93,82729,1,8,0:0:0:0:
359,93,82815,6,0,P|312:103|268:105,1,75,4|0,0:3|3:0,0:0:0:0:
196,27,83160,1,8,0:0:0:0:
147,181,83332,2,0,P|184:184|220:193,1,75,4|0,0:3|3:0,0:0:0:0:
54,187,83677,1,8,0:0:0:0:
134,93,83849,1,4,0:3:0:0:
173,290,84022,1,0,3:0:0:0:
294,141,84194,2,0,P|294:188|298:225,1,75,8|8,0:0|0:0,0:0:0:0:
439,68,84539,5,0,3:0:0:0:
437,86,84625,1,8,0:0:0:0:
457,122,84711,1,0,3:0:0:0:
455,140,84798,1,8,0:0:0:0:
463,210,84884,2,0,P|405:191|385:145,1,112.5,8|8,0:0|0:0,0:0:0:0:
391,218,85229,2,0,P|390:262|383:299,1,75,8|0,0:0|3:0,0:0:0:0:
362,360,85487,1,8,0:0:0:0:
362,360,85573,6,0,P|305:353|274:351,1,75,4|0,0:3|3:0,0:0:0:0:
136,352,85918,1,8,0:0:0:0:
224,192,86091,2,0,P|223:229|213:265,1,75,4|0,0:3|3:0,0:0:0:0:
220,96,86436,1,8,0:0:0:0:
386,193,86608,6,0,L|448:195,1,56.2500021457673,8|0,0:3|3:0,0:0:0:0:
468,219,87298,6,0,B|465:179|465:179|481:138|481:138|474:102,1,112.500004291535,8|0,1:0|0:0,0:0:0:0:
394,32,87556,2,0,L|449:26,1,56.2500021457673,2|0,0:3|0:0,0:0:0:0:
389,122,87729,1,2,0:3:0:0:
389,122,87815,2,0,L|334:116,1,56.2500021457673,2|0,0:3|0:0,0:0:0:0:
242,48,87987,2,0,P|252:96|252:117,1,56.2500021457673,2|0,0:3|0:0,0:0:0:0:
149,151,88160,2,0,P|151:123|159:95,1,56.2500021457673,4|0,0:3|0:0,0:0:0:0:
177,242,88332,6,0,P|127:234|94:233,1,75,4|0,0:3|3:0,0:0:0:0:
174,330,88677,1,8,0:0:0:0:
272,176,88849,2,8,P|306:191|344:200,1,75,4|0,0:3|3:0,0:0:0:0:
484,212,89194,1,8,0:0:0:0:
344,108,89367,1,4,0:3:0:0:
304,292,89539,1,0,3:0:0:0:
192,68,89711,2,0,P|196:120|192:152,1,75,8|8,0:0|0:0,0:0:0:0:
144,284,90056,5,0,3:0:0:0:
126,286,90142,1,8,0:0:0:0:
90,266,90229,1,0,3:0:0:0:
72,268,90315,1,8,0:0:0:0:
36,208,90401,2,0,P|40:152|96:120,1,112.5,8|8,0:0|0:0,0:0:0:0:
108,52,90746,2,0,P|112:104|128:120,1,75,8|0,0:0|3:0,0:0:0:0:
188,164,91004,1,8,0:0:0:0:
188,164,91091,6,0,P|232:156|268:156,1,75,4|0,0:3|3:0,0:0:0:0:
392,168,91436,1,8,0:0:0:0:
480,8,91608,2,0,P|428:12|400:12,1,75,4|0,0:3|3:0,0:0:0:0:
276,4,91953,1,8,0:0:0:0:
384,120,92125,2,0,P|392:168|392:208,1,75,0|0,0:3|3:0,0:0:0:0:
468,96,92470,1,8,0:0:0:0:
344,260,92642,1,8,0:0:0:0:
192,212,92815,5,0,3:0:0:0:
174,210,92901,1,8,0:0:0:0:
138,230,92987,1,0,3:0:0:0:
120,228,93073,1,8,0:0:0:0:
52,208,93160,2,0,P|64:272|24:308,1,112.5,8|8,0:0|0:0,0:0:0:0:
76,360,93504,2,0,P|113:361|152:368,1,75,8|0,0:0|3:0,0:0:0:0:
212,332,93763,1,8,0:0:0:0:
212,332,93849,6,0,P|251:330|286:324,1,75,4|0,0:3|3:0,0:0:0:0:
342,223,94194,1,8,0:0:0:0:
436,365,94367,2,0,P|399:358|361:356,1,75,4|0,0:3|3:0,0:0:0:0:
503,321,94711,1,8,0:0:0:0:
425,164,94884,1,4,0:3:0:0:
331,265,95056,1,0,3:0:0:0:
482,103,95229,2,0,P|503:146|507:180,1,75,8|8,0:0|0:0,0:0:0:0:
325,110,95573,5,0,3:0:0:0:
307,112,95660,1,8,0:0:0:0:
271,92,95746,1,0,3:0:0:0:
253,94,95832,1,8,0:0:0:0:
194,51,95918,2,0,P|206:135|207:171,1,112.5,8|8,0:0|0:0,0:0:0:0:
139,186,96263,2,0,L|215:178,1,75,8|0,0:0|3:0,0:0:0:0:
278,220,96522,1,8,0:0:0:0:
278,220,96608,6,0,L|202:212,1,75,4|0,0:3|3:0,0:0:0:0:
266,325,96953,1,8,0:0:0:0:
380,114,97125,2,0,P|380:172|378:193,1,75,4|0,0:3|3:0,0:0:0:0:
327,33,97470,1,8,0:0:0:0:
407,276,97642,2,0,P|370:282|332:287,1,75,4|0,0:3|3:0,0:0:0:0:
414,288,98332,5,8,1:0:0:0:
256,192,98504,12,0,101608,0:0:0:0:
174,2,121436,6,0,L|170:126,1,112.500004291535,2|0,3:0|0:0,0:0:0:0:
86,182,121953,2,0,B|130:186|130:186|158:206|158:206|206:210,1,112.500004291535,2|0,3:0|3:0,0:0:0:0:
286,158,122470,2,0,L|282:226,1,56.2500021457673,2|0,3:0|0:0,0:0:0:0:
378,318,122815,6,0,P|406:318|430:322,3,28.1250010728836,2|0|0|0,0:0|0:0|0:0|0:0,0:0:0:0:
506,222,123160,2,0,P|478:222|454:226,3,28.1250010728836,0|0|2|0,3:0|0:0|0:0|0:0,0:0:0:0:
414,134,123504,2,0,L|410:90,1,28.1250010728836,10|0,0:0|0:0,0:0:0:0:
360,29,123677,2,0,L|358:58,1,28.1250010728836,0|0,0:0|0:0,0:0:0:0:
350,174,123849,1,8,0:0:0:0:
466,58,124022,1,0,0:0:0:0:
278,148,124194,6,0,P|241:149|174:136,1,84.3750032186509,0|0,3:0|0:0,0:0:0:0:
166,134,124539,1,8,0:0:0:0:
391,239,124711,2,0,P|354:238|287:251,1,84.3750032186509,0|0,3:0|0:0,0:0:0:0:
279,253,125056,6,0,L|287:328,1,56.2500021457673,8|0,0:0|0:0,0:0:0:0:
257,302,125315,2,0,P|198:301|175:302,1,56.2500021457673,8|0,0:0|0:0,0:0:0:0:
121,277,125573,6,0,L|129:352,1,56.2500021457673,8|0,0:0|3:0,0:0:0:0:
99,326,125832,2,0,P|40:325|17:326,1,56.2500021457673,8|0,0:0|0:0,0:0:0:0:
14,325,126091,1,8,0:0:0:0:
188,371,126263,2,0,P|210:372|227:370,2,28.1250010728836,0|8|0,3:0|0:0|0:0,0:0:0:0:
315,248,126608,2,0,P|315:279|309:307,1,56.2500021457673,0|0,3:0|0:0,0:0:0:0:
265,144,126953,6,0,P|326:138|391:135,1,112.500004291535,6|8,0:0|0:0,0:0:0:0:
450,57,127470,2,0,P|462:123|510:141,1,112.500004291535,2|8,0:3|0:0,0:0:0:0:
340,48,127987,5,2,0:0:0:0:
323,46,128073,1,0,0:0:0:0:
306,42,128160,1,0,0:0:0:0:
290,35,128246,1,0,0:0:0:0:
273,30,128332,2,0,P|256:21|247:13,3,28.1250010728836,2|0|0|0,3:0|0:0|0:0|0:0,0:0:0:0:
248,172,128677,2,0,P|236:180|224:186,3,28.1250010728836,0|0|2|0,3:0|0:0|0:0|0:0,0:0:0:0:
92,176,129022,2,0,L|43:181,1,28.1250010728836,10|0,0:0|0:0,0:0:0:0:
120,320,129194,2,0,L|148:322,1,28.1250010728836,0|0,3:0|0:0,0:0:0:0:
292,260,129367,2,0,P|320:260|346:268,1,56.2500021457673,8|0,0:0|3:0,0:0:0:0:
435,118,129711,6,0,P|432:182|434:207,1,84.3750032186509,0|0,3:0|0:0,0:0:0:0:
436,230,130056,1,8,0:0:0:0:
323,28,130229,2,0,P|326:92|324:117,1,84.3750032186509,0|0,3:0|0:0,0:0:0:0:
322,140,130573,6,0,P|294:144|260:146,1,56.2500021457673,8|0,0:0|3:0,0:0:0:0:
239,136,130832,2,0,P|205:129|169:128,1,56.2500021457673,8|0,0:0|0:0,0:0:0:0:
71,223,131091,6,0,P|99:225|126:231,1,56.2500021457673,8|0,0:0|3:0,0:0:0:0:
152,242,131349,2,0,P|180:239|207:235,1,56.2500021457673,8|0,0:0|0:0,0:0:0:0:
235,231,131608,1,8,0:0:0:0:
346,297,131780,2,0,P|359:308|371:313,2,28.1250010728836,0|0|0,3:0|0:0|0:0,0:0:0:0:
464,240,132125,1,4,0:1:0:0:
258,353,132470,6,0,B|223:357|223:357|175:334|175:334|135:338,1,120,6|8,0:0|0:0,0:0:0:0:
39,213,132987,2,0,P|100:217|133:277,1,120,2|8,3:0|0:0,0:0:0:0:
236,168,133504,6,0,P|216:171|203:173,3,30,2|0|0|0,0:0|0:0|0:0|0:0,0:0:0:0:
325,69,133849,2,0,P|339:70|354:73,3,30,2|0|0|0,3:0|0:0|0:0|0:0,0:0:0:0:
411,187,134194,1,0,3:0:0:0:
403,204,134280,1,0,0:0:0:0:
400,222,134367,1,2,3:0:0:0:
397,240,134453,1,0,0:0:0:0:
397,257,134539,6,0,L|443:271,1,30,10|0,0:0|0:0,0:0:0:0:
290,127,134711,2,0,L|336:141,1,30,0|0,3:0|0:0,0:0:0:0:
147,232,134884,2,0,L|219:254,1,60,8|0,0:0|0:0,0:0:0:0:
17,114,135229,6,0,P|26:160|27:230,1,90,0|0,3:0|0:0,0:0:0:0:
27,232,135573,1,8,0:0:0:0:
228,83,135746,2,0,B|199:94|182:82|165:69|129:84,1,90,0|0,0:0|0:0,0:0:0:0:
110,88,136091,5,8,0:0:0:0:
270,158,136263,2,0,P|305:153|322:154,2,30,0|8|0,3:0|0:0|0:0,0:0:0:0:
179,331,136608,5,8,0:0:0:0:
328,266,136780,2,0,P|363:271|380:270,2,30,0|8|0,3:0|0:0|0:0,0:0:0:0:
234,79,137125,5,8,0:0:0:0:
373,137,137298,2,0,P|408:132|425:133,2,30,0|8|0,3:0|0:0|0:0,0:0:0:0:
200,238,137642,5,0,3:0:0:0:
200,238,137729,1,0,0:0:0:0:
200,238,137815,1,0,0:0:0:0:
307,67,137987,6,0,P|262:80|225:78,1,75,6|0,0:0|0:0,0:0:0:0:
383,26,138332,1,8,0:0:0:0:
172,152,138504,2,0,P|209:152|244:164,1,75,6|0,0:3|0:0,0:0:0:0:
86,168,138849,1,8,0:0:0:0:
122,303,139022,6,0,P|120:338|116:355,3,37.5,6|0|0|0,0:0|0:0|0:0|0:0,0:0:0:0:
247,201,139367,2,0,P|244:182|244:163,3,37.5,10|0|0|0,0:0|0:0|0:0|0:0,0:0:0:0:
348,328,139711,1,0,0:0:0:0:
377,344,139798,1,0,0:0:0:0:
410,344,139884,1,10,0:0:0:0:
442,333,139970,1,0,0:0:0:0:
471,316,140056,6,0,P|496:307|522:305,1,37.5,6|0,0:1|0:0,0:0:0:0:
435,181,140229,2,0,L|387:189,1,37.5,2|0,0:3|0:0,0:0:0:0:
277,96,140401,2,0,L|325:104,1,37.5,2|0,0:3|0:0,0:0:0:0:
209,211,140573,1,4,0:3:0:0:
91,75,140746,6,0,P|79:39|78:8,2,56.2500021457673,4|0|0,0:0|0:0|0:0,0:0:0:0:
152,200,141263,2,0,P|143:241|128:266,1,56.2500021457673,4|0,0:3|0:0,0:0:0:0:
166,117,141608,1,8,3:3:0:0:
68,292,141780,2,0,P|68:320|73:347,1,56.2500021457673,4|0,3:0|3:0,0:0:0:0:
232,134,142125,5,0,3:0:0:0:
302,233,142298,1,0,3:0:0:0:
142,176,142470,1,8,0:0:0:0:
291,64,142642,2,0,P|330:81|366:86,1,75,0|0,3:0|0:0,0:0:0:0:
232,134,142987,1,8,0:0:0:0:
474,46,143160,2,0,P|493:81|493:131,1,75,4|0,0:3|0:0,0:0:0:0:
357,290,143504,5,4,0:3:0:0:
425,206,143677,1,2,3:0:0:0:
453,346,143849,1,8,0:0:0:0:
269,198,144022,2,0,P|277:258|273:282,1,75,4|2,0:3|3:0,0:0:0:0:
153,170,144367,1,8,0:0:0:0:
345,138,144539,1,4,0:3:0:0:
261,346,144711,1,2,3:0:0:0:
97,98,144884,5,8,0:0:0:0:
92,269,145056,1,8,0:0:0:0:
16,54,145229,1,0,3:0:0:0:
20,76,145315,1,8,0:0:0:0:
22,98,145401,1,0,3:0:0:0:
20,120,145487,1,8,0:0:0:0:
11,31,145573,2,0,P|48:29|91:15,1,75,8|0,0:0|3:0,0:0:0:0:
198,94,145832,1,8,0:0:0:0:
198,94,145918,2,0,B|161:86|161:86|131:113|82:119,1,112.5,8|8,0:0|0:0,0:0:0:0:
60,124,146263,5,4,0:3:0:0:
197,19,146436,1,2,3:0:0:0:
217,221,146608,1,8,0:0:0:0:
332,138,146780,2,0,P|385:143|420:137,1,75,4|2,0:3|3:0,0:0:0:0:
219,119,147125,1,8,0:0:0:0:
301,285,147298,1,4,0:3:0:0:
454,79,147470,1,2,3:0:0:0:
472,256,147642,6,0,P|434:252|397:258,1,75,8|8,0:0|0:0,0:0:0:0:
281,346,147987,2,0,P|298:342|318:344,1,37.5,0|8,0:3|0:0,0:0:0:0:
214,295,148160,2,0,P|194:297|176:296,1,37.5,0|8,3:0|0:0,0:0:0:0:
114,192,148332,2,0,P|107:254|111:283,1,75,8|0,0:0|3:0,0:0:0:0:
29,100,148591,1,8,0:0:0:0:
29,100,148677,2,0,P|32:162|21:212,1,112.5,8|8,0:0|0:0,0:0:0:0:
11,243,149022,5,4,0:3:0:0:
211,187,149194,1,2,3:0:0:0:
103,116,149367,1,8,0:0:0:0:
159,271,149539,2,0,P|199:266|238:269,1,75,4|2,0:3|3:0,0:0:0:0:
115,344,149884,1,8,0:0:0:0:
303,219,150056,1,4,0:3:0:0:
405,348,150229,1,2,0:3:0:0:
408,109,150401,5,8,0:0:0:0:
372,269,150573,1,8,0:0:0:0:
213,127,150746,1,0,3:0:0:0:
217,148,150832,1,8,0:0:0:0:
221,170,150918,1,0,3:0:0:0:
223,192,151004,1,8,0:0:0:0:
205,105,151091,2,0,P|245:101|276:85,1,75,8|0,0:0|3:0,0:0:0:0:
124,97,151349,1,8,0:0:0:0:
124,97,151436,2,0,B|120:132|120:132|145:168|145:168|139:218,1,112.5,8|8,0:0|0:0,0:0:0:0:
137,234,151780,5,4,0:3:0:0:
23,131,151953,1,2,3:0:0:0:
223,192,152125,1,8,0:0:0:0:
62,278,152298,2,0,P|75:325|79:361,1,75,4|2,0:3|3:0,0:0:0:0:
105,156,152642,1,8,0:0:0:0:
162,351,152815,6,0,L|223:350,1,56.2500021457673,4|2,0:3|3:0,0:0:0:0:
265,215,153504,6,0,B|272:249|265:286|265:286|286:290|310:306,1,112.500004291535,8|0,1:0|0:0,0:0:0:0:
399,242,153763,2,0,P|368:239|341:240,1,56.2500021457673,2|0,0:3|0:0,0:0:0:0:
418,324,153936,1,2,0:3:0:0:
418,324,154022,2,0,P|419:360|424:387,1,56.2500021457673,2|0,0:3|0:0,0:0:0:0:
499,254,154194,2,0,P|498:290|493:317,1,56.2500021457673,2|0,0:3|0:0,0:0:0:0:
454,129,154367,2,0,P|455:165|460:192,1,56.2500021457673,4|0,0:3|0:0,0:0:0:0:
335,63,154539,6,0,L|260:66,1,75,4|2,0:3|3:0,0:0:0:0:
419,59,154884,1,8,0:0:0:0:
275,192,155056,1,4,0:3:0:0:
375,262,155229,1,2,3:0:0:0:
201,142,155401,1,8,0:0:0:0:
124,281,155573,2,0,P|89:312|48:319,1,75,4|2,0:3|3:0,0:0:0:0:
18,93,155918,5,8,0:0:0:0:
60,236,156091,1,8,0:0:0:0:
126,111,156263,2,0,L|122:150,1,37.5,0|8,3:0|0:0,0:0:0:0:
183,29,156436,2,0,L|187:68,1,37.5,0|8,3:0|0:0,0:0:0:0:
333,87,156608,2,0,L|247:93,1,75,8|0,0:0|3:0,0:0:0:0:
346,169,156867,1,8,0:0:0:0:
346,169,156953,2,0,P|386:171|432:223,1,112.5,8|8,0:0|0:0,0:0:0:0:
441,255,157298,5,4,0:3:0:0:
435,64,157470,1,2,3:0:0:0:
268,205,157642,1,8,0:0:0:0:
173,55,157815,2,0,P|175:92|170:129,1,75,4|2,0:3|3:0,0:0:0:0:
124,279,158160,1,8,0:0:0:0:
342,201,158332,2,0,P|303:198|265:205,1,75,4|2,0:3|3:0,0:0:0:0:
414,114,158677,5,8,0:0:0:0:
385,297,158849,1,8,0:0:0:0:
274,75,159022,1,0,3:0:0:0:
270,97,159108,1,8,0:0:0:0:
269,120,159194,1,0,3:0:0:0:
272,143,159280,1,8,0:0:0:0:
282,54,159367,2,0,P|243:57|205:50,1,75,8|0,0:0|3:0,0:0:0:0:
82,101,159625,1,8,0:0:0:0:
82,101,159711,2,0,B|125:95|125:95|145:138|189:147,1,112.5,8|8,0:0|0:0,0:0:0:0:
206,148,160056,6,0,L|219:238,1,75,4|2,0:3|3:0,0:0:0:0:
189,45,160401,1,8,0:0:0:0:
396,124,160573,1,4,0:3:0:0:
290,183,160746,1,2,3:0:0:0:
466,84,160918,1,8,0:0:0:0:
263,0,161091,2,0,L|276:90,1,75,4|2,3:0|3:0,0:0:0:0:
398,47,161436,5,8,0:0:0:0:
388,228,161608,1,8,0:0:0:0:
256,147,161780,2,0,L|208:148,1,37.5,0|8,3:0|0:0,0:0:0:0:
127,214,161953,2,0,L|175:215,1,37.5,0|8,3:0|0:0,0:0:0:0:
302,223,162125,2,0,L|301:303,1,75,8|0,0:0|3:0,0:0:0:0:
399,326,162384,1,8,0:0:0:0:
399,326,162470,2,0,L|281:322,1,112.5,8|8,0:0|0:0,0:0:0:0:
270,351,162815,5,4,0:3:0:0:
255,114,162987,1,2,3:0:0:0:
327,238,163160,1,8,0:0:0:0:
187,0,163332,2,0,P|183:46|184:80,1,75,4|2,0:3|3:0,0:0:0:0:
193,247,163677,1,8,0:0:0:0:
257,39,163849,2,0,P|258:80|254:119,1,75,4|2,0:3|3:0,0:0:0:0:
247,136,164539,6,0,P|286:138|327:145,1,75,8|0,1:0|0:0,0:0:0:0:
422,279,165573,5,8,3:0:0:0:
473,211,165746,2,0,P|490:210|514:214,2,28.1250010728836,0|0|0,0:0|0:0|0:0,0:0:0:0:
358,211,166091,1,4,3:3:0:0:
293,155,166263,2,0,P|275:154|252:158,2,28.1250010728836,0|0|0,0:0|0:0|0:0,0:0:0:0:
356,59,166608,2,0,P|370:60|384:59,3,28.1250010728836,0|0|0|0,0:0|0:0|0:0|0:0,0:0:0:0:
268,16,166953,6,0,P|269:54|273:83,1,60,4|0,3:0|0:0,0:0:0:0:
188,188,167298,2,0,P|191:158|191:128,1,60,4|0,0:3|0:0,0:0:0:0:
308,156,167642,1,0,0:0:0:0:
323,157,167729,1,0,3:0:0:0:
337,158,167815,1,0,3:0:0:0:
445,20,167987,1,0,3:0:0:0:
440,168,168160,1,0,3:0:0:0:
220,39,168332,5,4,0:3:0:0:
275,139,168504,2,0,P|285:174|287:190,2,30,0|0|8,3:0|0:0|0:0,0:0:0:0:
402,161,168849,1,4,0:3:0:0:
347,261,169022,2,0,P|337:296|335:312,2,30,0|0|8,3:0|3:0|0:0,0:0:0:0:
240,352,169367,1,4,0:3:0:0:
140,248,169539,1,0,3:0:0:0:
125,248,169625,1,0,3:0:0:0:
110,247,169711,6,0,P|124:273|132:302,1,60,8|0,0:0|0:0,0:0:0:0:
26,214,170056,1,4,0:3:0:0:
226,166,170229,1,8,0:0:0:0:
108,104,170401,1,0,0:0:0:0:
105,118,170487,1,8,0:0:0:0:
103,132,170573,1,0,0:0:0:0:
290,105,170746,2,0,P|306:56|307:41,1,60,4|0,0:3|0:0,0:0:0:0:
387,134,171004,1,0,3:0:0:0:
387,134,171091,6,0,P|386:173|391:214,1,75,4|0,0:0|0:0,0:0:0:0:
473,83,171436,1,8,0:0:0:0:
225,132,171608,2,0,P|247:163|280:176,1,75,4|0,0:3|0:0,0:0:0:0:
189,48,171953,1,8,0:0:0:0:
148,185,172125,5,0,0:0:0:0:
131,204,172211,1,0,0:0:0:0:
108,218,172298,1,0,0:0:0:0:
84,230,172384,1,0,0:0:0:0:
59,237,172470,2,0,P|33:244|13:244,3,37.5,4|0|0|0,0:3|0:0|0:0|0:0,0:0:0:0:
147,290,172815,5,0,3:0:0:0:
154,315,172901,1,0,3:0:0:0:
160,340,172987,2,0,P|163:364|162:384,1,37.5,8|0,0:0|0:0,0:0:0:0:
271,286,173160,2,0,L|308:287,1,37.5,0|0,3:0|0:0,0:0:0:0:
399,370,173332,2,0,L|436:368,1,37.5,4|0,0:3|0:0,0:0:0:0:
495,225,173504,2,0,L|491:270,2,37.5,8|0|0,0:0|3:0|3:0,0:0:0:0:
325,94,173849,6,0,P|383:107|459:101,1,112.5,0|0,0:3|0:0,0:0:0:0:
469,100,174194,1,8,0:0:0:0:
211,197,174367,2,0,P|269:184|345:190,1,112.5,4|0,0:3|0:0,0:0:0:0:
355,191,174711,5,8,0:0:0:0:
231,109,174884,2,0,P|210:73|207:59,2,37.5,0|8|0,3:0|0:0|0:0,0:0:0:0:
328,282,175229,5,8,0:0:0:0:
452,200,175401,2,0,P|473:164|476:150,2,37.5,0|8|0,3:0|0:0|0:0,0:0:0:0:
245,280,175746,6,0,L|161:278,1,75,8|0,0:0|3:0,0:0:0:0:
150,250,176004,2,0,P|156:295|159:333,1,75,8|0,0:0|0:0,0:0:0:0:
60,260,176263,2,0,L|13:261,2,37.5,4|0|0,0:3|0:0|0:0,0:0:0:0:
292,232,176608,6,0,P|286:277|283:315,1,75,4|0,0:0|0:0,0:0:0:0:
252,156,176953,1,8,0:0:0:0:
482,142,177125,2,0,P|458:178|423:185,1,75,4|0,0:3|0:0,0:0:0:0:
477,37,177470,1,8,0:0:0:0:
332,70,177642,5,0,0:0:0:0:
306,78,177729,1,0,0:0:0:0:
279,77,177815,1,0,0:0:0:0:
253,69,177901,1,0,0:0:0:0:
230,55,177987,1,4,0:3:0:0:
211,36,178073,1,0,0:0:0:0:
185,28,178160,1,0,0:0:0:0:
158,29,178246,1,0,0:0:0:0:
134,37,178332,6,0,P|117:45|96:49,1,37.5,4|0,0:3|0:0,0:0:0:0:
13,145,178504,2,0,P|31:148|48:156,1,37.5,0|0,3:0|3:0,0:0:0:0:
132,260,178677,2,0,L|126:298,1,37.5,8|0,0:0|0:0,0:0:0:0:
248,182,178849,2,0,L|251:144,1,37.5,4|0,0:3|0:0,0:0:0:0:
367,255,179022,2,0,P|386:255|408:252,2,37.5,8|0|0,0:0|3:0|3:0,0:0:0:0:
286,349,179367,6,0,B|255:340|241:338|216:357|203:357|165:346,1,112.5,4|0,0:3|0:0,0:0:0:0:
144,336,179711,1,8,0:0:0:0:
150,127,179884,2,0,P|138:167|194:205,1,112.5,4|0,0:3|0:0,0:0:0:0:
221,202,180229,5,8,0:0:0:0:
252,52,180401,2,0,P|255:27|255:10,2,37.5,0|8|0,3:0|0:0|0:0,0:0:0:0:
319,153,180746,2,0,L|413:150,1,75,8|0,0:0|3:0,0:0:0:0:
412,122,181004,2,0,P|409:173|417:200,1,75,8|0,0:0|0:0,0:0:0:0:
427,227,181263,1,8,0:0:0:0:
445,56,181436,2,0,L|487:57,2,37.5,0|8|0,3:0|0:0|0:0,0:0:0:0:
284,183,181780,2,0,L|203:185,1,75,4|0,0:3|0:0,0:0:0:0:
368,296,182125,6,0,P|354:330|353:368,1,75,4|0,0:0|0:0,0:0:0:0:
427,227,182470,1,8,0:0:0:0:
249,217,182642,2,0,P|262:251|264:288,1,75,4|0,0:3|0:0,0:0:0:0:
190,147,182987,1,8,0:0:0:0:
61,114,183160,6,0,L|103:108,3,37.5,0|0|0|0,0:0|0:0|0:0|0:0,0:0:0:0:
181,29,183504,2,0,L|218:34,3,37.5,4|0|0|0,0:3|0:0|0:0|0:0,0:0:0:0:
306,113,183849,2,0,L|343:107,1,37.5,4|0,0:3|0:0,0:0:0:0:
432,24,184022,5,4,0:3:0:0:
433,42,184108,1,8,0:3:0:0:
434,60,184194,2,0,L|436:102,1,37.5,8|0,0:0|0:0,0:0:0:0:
382,252,184367,2,0,L|384:215,1,37.5,4|0,0:3|0:0,0:0:0:0:
512,177,184539,2,0,L|474:176,1,37.5,8|0,0:0|0:0,0:0:0:0:
379,340,184711,2,0,L|334:342,1,37.5,0|0,3:0|3:0,0:0:0:0:
189,147,184884,6,0,P|197:184|197:223,1,56.2500021457673,4|0,0:0|0:0,0:0:0:0:
124,80,185229,1,8,0:0:0:0:
247,85,185401,2,0,L|308:87,1,56.2500021457673,4|0,0:3|0:0,0:0:0:0:
145,269,185746,1,8,0:0:0:0:
289,179,185918,5,4,0:0:0:0:
316,183,186004,1,8,0:0:0:0:
344,181,186091,1,0,0:0:0:0:
371,174,186177,1,8,0:0:0:0:
430,136,186263,5,8,0:0:0:0:
415,160,186349,1,0,0:0:0:0:
408,187,186436,1,0,0:0:0:0:
406,215,186522,1,8,0:0:0:0:
407,243,186608,1,0,0:0:0:0:
413,270,186694,1,8,0:0:0:0:
420,296,186780,6,0,L|441:344,1,28.1250010728836,8|0,0:0|0:0,0:0:0:0:
296,203,186953,2,0,L|317:251,1,28.1250010728836,4|4,0:3|0:1,0:0:0:0:
447,115,187125,2,0,L|468:163,1,28.1250010728836,8|0,0:0|0:0,0:0:0:0:
258,306,187298,1,8,0:0:0:0:
285,118,187470,1,4,0:3:0:0:
348,384,187642,5,4,0:1:0:0:
