osu file format v14

[General]
AudioFilename: audio.mp3
AudioLeadIn: 0
PreviewTime: 60056
Countdown: 0
SampleSet: Soft
StackLeniency: 0.7
Mode: 0
LetterboxInBreaks: 0
WidescreenStoryboard: 0

[Editor]
Bookmarks: 33151,74531,77289,98324,101427,121427,140738,143496,164531,187634
DistanceSpacing: 1.2
BeatDivisor: 4
GridSize: 4
TimelineZoom: 1.3

[Metadata]
Title:EOS
TitleUnicode:EOS
Artist:Keeno
ArtistUnicode:Keeno
Creator:Yoges
Version:Advanced
Source:
Tags:Atsuro Futurist EP cbh Come[Back]Home electronic hybrid d n & b dnb d&b drum and & bass breakcore jungle idm jazz
BeatmapID:1009219
BeatmapSetID:453221

[Difficulty]
HPDrainRate:3
CircleSize:3.8
OverallDifficulty:4
ApproachRate:6
SliderMultiplier:0.800000005960464
SliderTickRate:1

[Events]
//Background and Video events
0,0,"bg.png",0,0
//Break Periods
2,16808,20918
2,27842,31780
2,74739,75746
2,101636,120229
2,140946,141953
2,165573,169711
//Storyboard Layer 0 (Background)
//Storyboard Layer 1 (Fail)
//Storyboard Layer 2 (Pass)
//Storyboard Layer 3 (Foreground)
//Storyboard Sound Samples

[TimingPoints]
1436,344.827586206897,4,2,1,40,1,0
11091,-200,4,2,1,35,0,0
11177,-200,4,2,1,5,0,0
13849,-200,4,2,1,35,0,0
13936,-200,4,2,1,5,0,0
16608,-200,4,2,1,35,0,0
16694,-200,4,2,1,5,0,0
22125,-200,4,2,1,35,0,0
22211,-200,4,2,1,5,0,0
24884,-200,4,2,1,35,0,0
24970,-200,4,2,1,5,0,0
27642,-200,4,2,1,35,0,0
33160,-100,4,2,1,55,0,0
55229,-100,4,2,1,55,0,1
74539,-100,4,2,1,55,0,0
77298,-100,4,2,1,60,0,1
78849,-100,4,2,1,40,0,1
79022,-100,4,2,1,60,0,1
81608,-100,4,2,1,35,0,1
81780,-100,4,2,1,60,0,1
84367,-100,4,2,1,35,0,1
84539,-100,4,2,1,60,0,1
86608,-100,4,2,1,60,0,0
87298,-100,4,2,1,65,0,1
87470,-100,4,2,0,60,0,1
88332,-100,4,2,1,60,0,1
89884,-100,4,2,1,35,0,1
90056,-100,4,2,1,60,0,1
92642,-100,4,2,1,35,0,1
92815,-100,4,2,1,60,0,1
95401,-100,4,2,1,35,0,1
95573,-100,4,2,1,60,0,1
98332,-100,4,2,1,65,0,0
99022,-100,4,2,1,50,0,0
99711,-100,4,2,1,35,0,0
100401,-100,4,2,1,20,0,0
101091,-100,4,2,1,5,0,0
121436,-100,4,2,1,30,0,0
124194,-100,4,2,1,35,0,0
125229,-100,4,2,1,20,0,0
125573,-100,4,2,1,35,0,0
125746,-100,4,2,1,20,0,0
126091,-100,4,2,1,35,0,0
126263,-100,4,2,1,20,0,0
126608,-100,4,2,1,35,0,0
126953,-100,4,2,1,40,0,0
130746,-100,4,2,1,25,0,0
131091,-100,4,2,1,40,0,0
131608,-100,4,2,1,40,0,0
131780,-100,4,2,1,25,0,0
132125,-100,4,2,1,40,0,0
132470,-100,4,2,1,45,0,0
136091,-100,4,2,1,50,0,0
136263,-100,4,2,1,30,0,0
136608,-100,4,2,1,50,0,0
136780,-100,4,2,1,30,0,0
137125,-100,4,2,1,50,0,0
137298,-100,4,2,1,30,0,0
137642,-100,4,2,1,50,0,0
137987,-100,4,2,1,55,0,0
140229,-100,4,2,0,55,0,0
140746,-100,4,2,1,35,0,0
143160,-100,4,2,1,50,0,0
143504,-100,4,2,1,60,0,1
145056,-100,4,2,1,35,0,1
145229,-100,4,2,1,60,0,1
147815,-100,4,2,1,35,0,1
147987,-100,4,2,1,60,0,1
150573,-100,4,2,1,35,0,1
150746,-100,4,2,1,60,0,1
152815,-100,4,2,1,60,0,0
153504,-100,4,2,1,65,0,1
153677,-100,4,2,0,60,0,1
154539,-100,4,2,1,60,0,1
156091,-100,4,2,1,35,0,1
156263,-100,4,2,1,60,0,1
158849,-100,4,2,1,35,0,1
159022,-100,4,2,1,60,0,1
161608,-100,4,2,1,35,0,1
161780,-100,4,2,1,60,0,1
164539,-100,4,2,1,65,0,0
171091,-100,4,2,1,60,0,0
184884,-100,4,2,1,55,0,0
185229,-100,4,2,1,60,0,0
187125,-100,4,2,1,45,0,0
187211,-100,4,2,1,60,0,0

[Colours]
Combo1 : 71,160,116
Combo2 : 160,177,95
Combo3 : 70,72,172
Combo4 : 210,106,77

[HitObjects]
120,34,11091,6,0,P|66:16|98:125,1,240.000001788139,2|0,0:0|0:0,0:0:0:0:
185,113,13849,6,0,B|194:176|194:176|250:216|250:216|261:286|208:316,1,240.000001788139,2|0,0:0|0:0,0:0:0:0:
134,362,16608,5,2,0:0:0:0:
392,34,22125,6,0,P|446:16|414:125,1,240.000001788139,2|0,0:0|0:0,0:0:0:0:
327,113,24884,6,0,B|318:176|318:176|262:216|262:216|251:286|304:316,1,240.000001788139,2|0,0:0|0:0,0:0:0:0:
378,362,27642,5,2,0:0:0:0:
265,43,33160,6,0,P|221:65|176:63,1,80.0000005960464,4|8,0:0|0:0,0:0:0:0:
144,53,33677,2,0,L|141:135,1,80.0000005960464,4|8,0:3|0:0,0:0:0:0:
139,181,34194,2,0,P|99:189|113:284,1,160.000001192093,4|4,0:3|0:3,0:0:0:0:
204,310,35229,1,8,0:0:0:0:
296,286,35573,1,8,0:0:0:0:
372,344,35918,6,0,P|418:350|450:344,1,80.0000005960464,4|8,0:3|0:0,0:0:0:0:
495,326,36436,1,4,0:3:0:0:
483,230,36780,2,0,L|476:140,1,80.0000005960464,8|0,0:0|0:0,0:0:0:0:
431,166,37298,2,0,P|393:171|345:165,1,80.0000005960464,8|0,0:0|0:0,0:0:0:0:
304,156,37815,2,0,P|266:151|218:157,1,80.0000005960464,8|0,0:0|0:0,0:0:0:0:
178,168,38332,1,4,0:3:0:0:
83,149,38677,6,0,L|70:60,1,80.0000005960464,4|8,0:0|0:0,0:0:0:0:
29,46,39194,2,0,P|70:45|123:36,1,80.0000005960464,4|8,0:3|0:0,0:0:0:0:
155,29,39711,1,0,0:3:0:0:
188,119,40056,2,0,P|226:161|288:154,1,120.00000089407,4|8,0:3|0:0,0:0:0:0:
328,136,40746,2,0,L|379:141,1,40.0000002980232,0|4,3:0|0:3,0:0:0:0:
415,143,41091,1,8,0:0:0:0:
441,235,41436,6,0,P|445:280|440:321,1,80.0000005960464,4|8,0:3|0:0,0:0:0:0:
435,362,41953,1,4,0:3:0:0:
341,343,42298,2,0,P|303:351|251:348,1,80.0000005960464,8|0,0:0|0:0,0:0:0:0:
217,332,42815,2,0,L|209:241,1,80.0000005960464,8|0,0:0|0:0,0:0:0:0:
245,220,43332,2,0,L|249:128,1,80.0000005960464,8|0,0:0|0:0,0:0:0:0:
251,91,43849,1,4,0:3:0:0:
161,126,44194,6,0,L|77:130,1,80.0000005960464,4|8,0:0|0:0,0:0:0:0:
39,104,44711,2,0,P|54:147|59:191,1,80.0000005960464,4|8,0:3|0:0,0:0:0:0:
61,230,45229,2,0,P|9:258|36:351,1,160.000001192093,0|4,0:0|0:3,0:0:0:0:
121,334,46263,1,8,0:0:0:0:
214,353,46608,1,8,0:0:0:0:
296,303,46953,6,0,P|326:301|377:302,1,80.0000005960464,4|8,0:3|0:0,0:0:0:0:
423,307,47470,1,4,0:3:0:0:
459,217,47815,2,0,P|458:189|462:135,1,80.0000005960464,8|0,0:0|0:0,0:0:0:0:
499,106,48332,2,0,L|413:113,1,80.0000005960464,8|0,0:0|0:0,0:0:0:0:
389,74,48849,2,0,L|303:67,1,80.0000005960464,8|0,0:0|0:0,0:0:0:0:
278,104,49367,1,4,0:3:0:0:
217,177,49711,6,0,L|137:183,1,80.0000005960464,4|8,0:0|0:0,0:0:0:0:
94,205,50229,2,0,L|87:121,1,80.0000005960464,4|8,0:3|0:0,0:0:0:0:
53,91,50746,2,0,P|91:94|140:0,1,160.000001192093,0|4,0:0|0:3,0:0:0:0:
233,28,51780,1,8,0:0:0:0:
328,16,52125,1,8,0:0:0:0:
335,111,52470,6,0,P|341:157|353:195,1,80.0000005960464,4|8,0:3|0:0,0:0:0:0:
371,232,52987,1,4,0:3:0:0:
416,315,53332,2,0,L|334:314,1,80.0000005960464,8|0,0:0|0:0,0:0:0:0:
314,357,53849,2,0,L|232:356,1,80.0000005960464,8|0,0:0|0:0,0:0:0:0:
141,329,54539,2,0,L|135:370,2,40.0000002980232,8|4|4,0:3|0:3|0:1,0:0:0:0:
128,233,55229,6,0,P|164:245|208:245,1,80.0000005960464,6|8,0:0|0:0,0:0:0:0:
236,207,55746,2,0,L|242:294,1,80.0000005960464,6|8,0:3|0:0,0:0:0:0:
245,334,56263,1,2,3:0:0:0:
341,334,56608,2,0,P|396:330|424:263,1,120.00000089407,6|2,0:3|3:0,0:0:0:0:
418,231,57298,2,0,L|362:228,1,40.0000002980232,10|4,0:0|0:3,0:0:0:0:
332,242,57642,2,0,L|276:239,1,40.0000002980232,8|4,0:0|0:3,0:0:0:0:
254,270,57987,6,0,P|248:218|240:177,1,80.0000005960464,4|8,0:3|0:0,0:0:0:0:
226,145,58504,1,4,0:3:0:0:
321,137,58849,2,0,L|414:131,1,80.0000005960464,8|0,0:0|0:0,0:0:0:0:
436,98,59367,2,0,P|427:142|426:177,1,80.0000005960464,8|0,0:0|0:0,0:0:0:0:
457,213,59884,2,0,L|377:218,1,80.0000005960464,8|0,0:0|0:0,0:0:0:0:
329,222,60401,1,4,0:3:0:0:
234,238,60746,6,0,P|217:273|227:312,1,80.0000005960464,6|8,0:0|0:0,0:0:0:0:
257,349,61263,2,0,L|166:348,1,80.0000005960464,6|8,0:3|0:0,0:0:0:0:
129,344,61780,1,2,0:0:0:0:
59,277,62125,2,0,P|40:246|67:165,1,120.00000089407,6|2,0:3|3:0,0:0:0:0:
101,143,62815,2,0,L|149:144,1,40.0000002980232,10|4,0:0|0:3,0:0:0:0:
189,145,63160,1,8,0:0:0:0:
195,49,63504,6,0,P|150:56|109:58,1,80.0000005960464,4|8,0:3|0:0,0:0:0:0:
67,53,64022,1,4,0:3:0:0:
6,128,64367,2,0,L|11:217,1,80.0000005960464,8|0,0:0|0:0,0:0:0:0:
58,202,64884,2,0,L|52:290,1,80.0000005960464,8|0,0:0|0:0,0:0:0:0:
44,377,65573,1,8,0:0:0:0:
131,337,65918,1,4,0:1:0:0:
226,328,66263,6,0,P|268:327|313:330,1,80.0000005960464,6|8,0:0|0:0,0:0:0:0:
327,286,66780,2,0,P|369:287|414:284,1,80.0000005960464,6|8,0:3|0:0,0:0:0:0:
454,277,67298,1,2,0:0:0:0:
492,189,67642,2,0,P|502:141|466:82,1,120.00000089407,6|2,0:3|3:0,0:0:0:0:
424,59,68332,2,0,L|368:62,1,40.0000002980232,10|4,0:0|0:3,0:0:0:0:
336,65,68677,1,8,0:0:0:0:
258,122,69022,6,0,P|215:108|194:62,1,80.0000005960464,4|8,0:3|0:0,0:0:0:0:
185,33,69539,1,4,0:3:0:0:
89,33,69884,2,0,L|85:118,1,80.0000005960464,8|0,0:0|0:0,0:0:0:0:
53,148,70401,2,0,L|61:235,1,80.0000005960464,8|0,0:0|0:0,0:0:0:0:
39,270,70918,2,0,P|80:264|128:265,1,80.0000005960464,8|0,0:0|0:0,0:0:0:0:
166,271,71436,1,4,0:3:0:0:
254,306,71780,6,0,P|258:267|265:227,1,80.0000005960464,6|8,0:0|0:0,0:0:0:0:
293,187,72298,2,0,L|203:180,1,80.0000005960464,6|8,0:3|0:0,0:0:0:0:
165,176,72815,1,6,0:1:0:0:
69,168,73160,2,0,P|75:228|119:267,1,120.00000089407,2|10,0:0|0:0,0:0:0:0:
164,273,73849,2,0,L|211:267,1,40.0000002980232,10|4,0:3|0:3,0:0:0:0:
245,292,74194,2,0,L|292:286,1,40.0000002980232,8|4,0:0|0:3,0:0:0:0:
322,256,74539,5,4,0:0:0:0:
55,360,76953,5,4,0:3:0:0:
103,277,77298,6,0,P|150:294|184:296,1,80.0000005960464,4|8,0:3|0:0,0:0:0:0:
227,290,77815,2,0,L|235:202,1,80.0000005960464,4|8,0:3|0:0,0:0:0:0:
240,162,78332,1,4,0:3:0:0:
335,167,78677,2,0,L|381:170,1,40.0000002980232,8|8,0:0|0:0,0:0:0:0:
398,211,79022,2,0,L|444:214,1,40.0000002980232,0|0,3:0|3:0,0:0:0:0:
484,201,79367,1,8,0:0:0:0:
476,296,79711,1,8,0:0:0:0:
380,290,80056,6,0,L|291:285,1,80.0000005960464,4|8,0:3|0:0,0:0:0:0:
258,261,80573,2,0,P|245:322|233:341,1,80.0000005960464,4|8,0:3|0:0,0:0:0:0:
201,370,81091,1,4,0:3:0:0:
153,286,81436,2,0,L|107:287,1,40.0000002980232,8|8,0:0|0:0,0:0:0:0:
83,324,81780,2,0,L|37:323,1,40.0000002980232,0|0,3:0|3:0,0:0:0:0:
5,292,82125,1,8,0:0:0:0:
8,196,82470,1,8,0:0:0:0:
104,196,82815,6,0,P|132:177|155:124,1,80.0000005960464,4|8,0:3|0:0,0:0:0:0:
137,91,83332,2,0,L|220:91,1,80.0000005960464,4|8,0:3|0:0,0:0:0:0:
265,92,83849,1,4,0:3:0:0:
273,187,84194,2,0,P|277:228|280:242,1,40.0000002980232,8|8,0:0|0:0,0:0:0:0:
312,258,84539,2,0,P|308:299|305:313,1,40.0000002980232,0|0,3:0|3:0,0:0:0:0:
294,343,84884,1,8,0:0:0:0:
389,348,85229,1,8,0:0:0:0:
411,254,85573,6,0,P|421:220|449:178,1,80.0000005960464,4|8,0:3|0:0,0:0:0:0:
477,146,86091,2,0,L|472:66,1,80.0000005960464,4|8,0:3|0:0,0:0:0:0:
497,25,86608,1,8,0:3:0:0:
310,69,87298,6,0,P|381:48|375:107,1,160.000001192093,8|2,1:0|0:3,0:0:0:0:
296,164,88332,6,0,P|260:163|203:174,1,80.0000005960464,4|8,0:3|0:0,0:0:0:0:
181,203,88849,2,0,L|173:123,1,80.0000005960464,4|8,0:3|0:0,0:0:0:0:
168,75,89367,1,4,0:3:0:0:
77,105,89711,2,0,L|74:150,1,40.0000002980232,8|8,0:0|0:0,0:0:0:0:
85,191,90056,2,0,L|82:236,1,40.0000002980232,0|0,3:0|3:0,0:0:0:0:
81,279,90401,1,8,0:0:0:0:
174,258,90746,1,8,0:0:0:0:
221,341,91091,6,0,P|256:368|296:364,1,80.0000005960464,4|8,0:3|0:0,0:0:0:0:
335,349,91608,2,0,L|328:260,1,80.0000005960464,4|8,0:3|0:0,0:0:0:0:
294,235,92125,1,0,0:3:0:0:
346,154,92470,2,0,L|392:157,1,40.0000002980232,8|8,0:0|0:0,0:0:0:0:
417,193,92815,2,0,L|463:196,1,40.0000002980232,0|0,3:0|3:0,0:0:0:0:
491,162,93160,1,8,0:0:0:0:
511,255,93504,1,8,0:0:0:0:
445,324,93849,6,0,P|417:313|363:329,1,80.0000005960464,4|8,0:3|0:0,0:0:0:0:
321,318,94367,2,0,P|303:338|235:343,1,80.0000005960464,4|8,0:3|0:0,0:0:0:0:
206,336,94884,1,4,0:3:0:0:
137,269,95229,2,0,L|134:217,1,40.0000002980232,8|8,0:0|0:0,0:0:0:0:
164,191,95573,2,0,L|161:139,1,40.0000002980232,0|0,3:0|3:0,0:0:0:0:
159,102,95918,1,8,0:0:0:0:
63,93,96263,1,8,0:0:0:0:
11,173,96608,6,0,L|14:253,1,80.0000005960464,4|8,0:3|0:0,0:0:0:0:
2,299,97125,2,0,P|42:292|90:297,1,80.0000005960464,4|8,0:3|0:0,0:0:0:0:
127,306,97642,1,4,0:3:0:0:
208,132,98332,5,8,1:0:0:0:
256,192,98504,12,0,101436,0:0:0:0:
484,8,121436,6,0,L|490:99,1,80.0000005960464,2|0,3:0|0:0,0:0:0:0:
493,135,121953,2,0,P|472:195|447:212,1,80.0000005960464,2|0,3:0|3:0,0:0:0:0:
416,222,122470,1,2,3:0:0:0:
369,137,122815,2,0,P|343:127|289:191,1,120.00000089407,2|2,0:0|0:0,0:0:0:0:
300,230,123504,2,0,L|310:276,1,40.0000002980232,10|0,0:0|0:0,0:0:0:0:
345,299,123849,2,0,L|335:345,1,40.0000002980232,8|0,0:0|0:0,0:0:0:0:
365,376,124194,6,0,P|306:364|275:363,1,80.0000005960464,0|8,3:0|0:0,0:0:0:0:
238,365,124711,1,0,3:0:0:0:
186,284,125056,2,0,P|173:251|165:202,1,80.0000005960464,8|0,0:0|0:0,0:0:0:0:
196,170,125573,2,0,L|106:168,1,80.0000005960464,8|0,0:0|0:0,0:0:0:0:
75,141,126091,2,0,P|68:180|54:217,1,80.0000005960464,8|0,0:0|0:0,0:0:0:0:
30,259,126608,1,0,3:0:0:0:
89,334,126953,6,0,L|179:329,1,80.0000005960464,6|8,0:0|0:0,0:0:0:0:
216,327,127470,2,0,P|238:365|275:370,1,80.0000005960464,2|8,0:3|0:0,0:0:0:0:
318,361,127987,1,2,0:0:0:0:
380,288,128332,2,0,P|408:304|478:253,1,120.00000089407,2|2,3:0|0:0,0:0:0:0:
491,218,129022,2,0,L|485:176,1,40.0000002980232,10|0,0:0|3:0,0:0:0:0:
478,130,129367,1,8,0:0:0:0:
382,130,129711,6,0,P|334:130|288:140,1,80.0000005960464,0|8,3:0|0:0,0:0:0:0:
255,148,130229,1,0,3:0:0:0:
169,105,130573,2,0,L|164:21,1,80.0000005960464,8|0,0:0|0:0,0:0:0:0:
211,35,131091,2,0,P|279:40|340:26,1,120.00000089407,8|8,0:0|0:0,0:0:0:0:
375,17,131780,1,0,3:0:0:0:
376,113,132125,1,4,0:1:0:0:
451,171,132470,6,0,P|424:196|374:207,1,80.0000005960464,6|8,0:0|0:0,0:0:0:0:
335,208,132987,2,0,P|347:260|345:289,1,80.0000005960464,2|8,3:0|0:0,0:0:0:0:
337,333,133504,1,2,0:0:0:0:
243,317,133849,2,0,P|212:345|139:329,1,120.00000089407,2|2,3:0|3:0,0:0:0:0:
104,298,134539,2,0,L|55:295,1,40.0000002980232,10|0,0:0|3:0,0:0:0:0:
22,320,134884,1,8,0:0:0:0:
16,224,135229,6,0,B|13:174|13:174|22:135,1,80.0000005960464,0|8,3:0|0:0,0:0:0:0:
33,98,135746,1,0,0:0:0:0:
126,76,136091,2,0,P|189:66|222:70,1,80.0000005960464,8|0,0:0|0:0,0:0:0:0:
205,115,136608,2,0,P|268:121|299:134,1,80.0000005960464,8|0,0:0|0:0,0:0:0:0:
269,172,137125,2,0,P|328:194|355:214,1,80.0000005960464,8|0,0:0|0:0,0:0:0:0:
373,239,137642,1,0,3:0:0:0:
459,197,137987,6,0,P|475:179|483:118,1,80.0000005960464,6|8,0:0|0:0,0:0:0:0:
476,77,138504,2,0,L|378:71,1,80.0000005960464,6|8,0:3|0:0,0:0:0:0:
347,69,139022,1,6,0:0:0:0:
264,117,139367,2,0,P|222:120|182:57,1,120.00000089407,10|10,0:0|0:0,0:0:0:0:
191,14,140056,2,0,L|239:10,1,40.0000002980232,6|2,0:1|0:3,0:0:0:0:
272,35,140401,2,0,L|320:31,1,40.0000002980232,2|4,0:3|0:3,0:0:0:0:
359,28,140746,5,4,0:0:0:0:
359,28,143160,5,4,0:3:0:0:
390,118,143504,6,0,B|400:154|400:154|396:201,1,80.0000005960464,4|8,0:3|0:0,0:0:0:0:
391,244,144022,2,0,L|302:239,1,80.0000005960464,4|8,0:3|0:0,0:0:0:0:
263,236,144539,1,4,0:3:0:0:
233,144,144884,2,0,P|227:113|226:94,1,40.0000002980232,8|8,0:0|0:0,0:0:0:0:
226,56,145229,2,0,L|170:59,1,40.0000002980232,0|0,3:0|3:0,0:0:0:0:
138,58,145573,1,8,0:0:0:0:
41,60,145918,1,8,0:0:0:0:
41,156,146263,6,0,P|35:192|4:226,1,80.0000005960464,4|8,0:3|0:0,0:0:0:0:
51,243,146780,2,0,P|79:269|89:320,1,80.0000005960464,4|8,0:3|0:0,0:0:0:0:
89,356,147298,1,4,0:3:0:0:
181,332,147642,2,0,L|229:331,1,40.0000002980232,8|8,0:0|0:0,0:0:0:0:
238,286,147987,2,0,P|243:266|245:244,1,40.0000002980232,0|0,0:3|3:0,0:0:0:0:
247,198,148332,1,8,0:0:0:0:
240,102,148677,1,8,0:0:0:0:
335,107,149022,6,0,L|423:112,1,80.0000005960464,4|8,0:3|0:0,0:0:0:0:
399,157,149539,2,0,P|392:187|401:243,1,80.0000005960464,4|8,0:3|0:0,0:0:0:0:
414,280,150056,1,4,0:3:0:0:
317,291,150401,2,0,L|268:290,1,40.0000002980232,8|8,0:0|0:0,0:0:0:0:
237,317,150746,2,0,L|188:316,1,40.0000002980232,0|0,3:0|3:0,0:0:0:0:
152,298,151091,1,8,0:0:0:0:
76,358,151436,1,8,0:0:0:0:
14,284,151780,6,0,P|11:239|14:201,1,80.0000005960464,4|8,0:3|0:0,0:0:0:0:
18,156,152298,2,0,L|104:161,1,80.0000005960464,4|8,0:3|0:0,0:0:0:0:
137,132,152815,1,4,0:3:0:0:
313,207,153504,6,0,P|244:212|259:289,1,160.000001192093,8|2,1:0|0:3,0:0:0:0:
336,332,154539,6,0,L|416:327,1,80.0000005960464,4|8,0:3|0:0,0:0:0:0:
441,286,155056,2,0,B|460:244|460:244|455:202,1,80.0000005960464,4|8,0:3|0:0,0:0:0:0:
446,163,155573,1,4,0:3:0:0:
401,77,155918,2,0,P|381:84|357:88,1,40.0000002980232,8|8,0:0|0:0,0:0:0:0:
334,126,156263,2,0,P|314:119|290:115,1,40.0000002980232,0|0,3:0|3:0,0:0:0:0:
247,115,156608,1,8,0:0:0:0:
279,206,156953,1,8,0:0:0:0:
223,284,157298,6,0,P|200:293|141:275,1,80.0000005960464,4|8,0:3|0:0,0:0:0:0:
107,253,157815,2,0,P|106:211|99:173,1,80.0000005960464,4|8,0:3|0:0,0:0:0:0:
84,127,158332,1,4,0:3:0:0:
169,83,158677,2,0,L|217:83,1,40.0000002980232,8|8,0:0|0:0,0:0:0:0:
239,120,159022,2,0,L|287:120,1,40.0000002980232,0|0,3:0|3:0,0:0:0:0:
323,102,159367,1,8,0:0:0:0:
368,186,159711,1,8,0:0:0:0:
343,278,160056,6,0,P|312:271|258:275,1,80.0000005960464,4|8,0:3|0:0,0:0:0:0:
231,309,160573,2,0,B|197:331|197:331|143:329,1,80.0000005960464,4|8,0:3|0:0,0:0:0:0:
109,326,161091,1,4,3:0:0:0:
76,235,161436,2,0,P|88:219|95:195,1,40.0000002980232,8|8,0:0|0:0,0:0:0:0:
94,152,161780,2,0,L|138:148,1,40.0000002980232,0|0,3:0|3:0,0:0:0:0:
181,146,162125,1,8,0:0:0:0:
253,209,162470,1,8,0:0:0:0:
330,152,162815,6,0,L|419:152,1,80.0000005960464,4|8,0:3|0:0,0:0:0:0:
453,131,163332,2,0,P|446:178|448:216,1,80.0000005960464,4|8,0:3|0:0,0:0:0:0:
462,256,163849,2,0,L|421:256,1,40.0000002980232,4|2,0:3|3:0,0:0:0:0:
277,259,164539,5,8,1:0:0:0:
263,243,171091,6,0,P|220:241|184:249,1,80.0000005960464,4|8,0:0|0:0,0:0:0:0:
140,268,171608,2,0,L|127:187,1,80.0000005960464,4|8,0:3|0:0,0:0:0:0:
118,141,172125,1,0,0:0:0:0:
213,144,172470,2,0,P|268:122|272:64,1,120.00000089407,4|8,0:3|0:0,0:0:0:0:
250,24,173160,2,0,L|203:28,1,40.0000002980232,0|4,3:0|0:3,0:0:0:0:
162,32,173504,1,8,0:0:0:0:
69,5,173849,6,0,P|80:41|85:88,1,80.0000005960464,0|8,0:3|0:0,0:0:0:0:
90,131,174367,1,4,0:3:0:0:
51,218,174711,2,0,L|136:215,1,80.0000005960464,8|0,0:0|0:0,0:0:0:0:
179,216,175229,2,0,P|173:257|189:302,1,80.0000005960464,8|0,0:0|0:0,0:0:0:0:
214,330,175746,2,0,L|299:333,1,80.0000005960464,8|0,0:0|0:0,0:0:0:0:
342,336,176263,1,4,0:3:0:0:
402,261,176608,6,0,P|433:246|486:251,1,80.0000005960464,4|8,0:0|0:0,0:0:0:0:
482,199,177125,2,0,L|488:117,1,80.0000005960464,4|8,0:3|0:0,0:0:0:0:
451,87,177642,2,0,B|373:56|370:121|283:89,1,160.000001192093,0|4,0:0|0:3,0:0:0:0:
208,51,178677,1,8,0:0:0:0:
180,142,179022,1,8,0:0:0:0:
251,206,179367,6,0,P|222:232|182:238,1,80.0000005960464,4|8,0:3|0:0,0:0:0:0:
134,238,179884,1,4,0:3:0:0:
60,175,180229,2,0,B|43:145|43:145|44:98,1,80.0000005960464,8|0,0:0|0:0,0:0:0:0:
20,57,180746,2,0,L|103:50,1,80.0000005960464,8|0,0:0|0:0,0:0:0:0:
143,70,181263,2,0,L|226:63,1,80.0000005960464,8|0,0:0|0:0,0:0:0:0:
270,58,181780,1,4,0:3:0:0:
311,144,182125,6,0,P|322:187|318:229,1,80.0000005960464,4|8,0:0|0:0,0:0:0:0:
300,266,182642,2,0,L|389:271,1,80.0000005960464,4|8,0:3|0:0,0:0:0:0:
375,318,183160,2,0,P|387:358|495:356,1,160.000001192093,0|4,0:0|0:3,0:0:0:0:
506,269,184194,1,8,0:0:0:0:
474,178,184539,1,8,0:0:0:0:
381,202,184884,6,0,P|357:208|295:208,1,80.0000005960464,4|8,0:0|0:0,0:0:0:0:
254,200,185401,2,0,L|242:120,1,80.0000005960464,4|8,0:3|0:0,0:0:0:0:
231,73,185918,1,4,0:0:0:0:
153,129,186263,2,0,P|97:147|43:112,1,120.00000089407,8|8,0:0|0:0,0:0:0:0:
49,166,186953,2,0,L|52:205,1,40.0000002980232,4|8,0:3|0:0,0:0:0:0:
80,244,187298,2,0,L|83:283,1,40.0000002980232,8|4,0:0|0:3,0:0:0:0:
61,326,187642,5,4,0:1:0:0:
