osu file format v14

[General]
AudioFilename: audio.mp3
AudioLeadIn: 0
PreviewTime: 98520
Countdown: 0
SampleSet: Soft
StackLeniency: 0.4
Mode: 0
LetterboxInBreaks: 0
WidescreenStoryboard: 0

[Editor]
Bookmarks: 2275,32257,51377,98518,122255,138738,144013,157199,167749,175991,183903,199727,239947
DistanceSpacing: 0.9
BeatDivisor: 4
GridSize: 4
TimelineZoom: 1.5

[Metadata]
Title:Ange du Blanc Pur
TitleUnicode:Ange du Blanc Pur
Artist:ke-ji feat. Nanahira
ArtistUnicode:ke-ji feat. ななひら
Creator:Astronic
Version:Purity
Source:
Tags:japanese metal colory starry confetto しらこいし shirakoishi rock jrock j-rock
BeatmapID:2477069
BeatmapSetID:1188740

[Difficulty]
HPDrainRate:6
CircleSize:4.5
OverallDifficulty:9.5
ApproachRate:9.6
SliderMultiplier:1.8
SliderTickRate:1

[Events]
//Background and Video events
0,0,"bg.jpg",0,0
//Break Periods
2,122456,137570
//Storyboard Layer 0 (Background)
//Storyboard Layer 1 (Fail)
//Storyboard Layer 2 (Pass)
//Storyboard Layer 3 (Foreground)
//Storyboard Layer 4 (Overlay)
//Storyboard Sound Samples

[TimingPoints]
2275,333.333333333333,4,2,1,60,1,0
16274,372.670807453416,4,2,1,60,1,0
16646,483.870967741935,4,2,1,60,1,0
16887,545.454545454546,4,2,1,60,1,0
17159,416.666666666667,4,2,1,60,1,0
17367,600,4,2,1,60,1,0
17967,833.333333333333,4,2,1,60,1,0
18383,869.565217391304,4,2,1,60,1,0
19252,1016.94915254237,4,2,1,60,1,0
20268,1000,4,2,1,60,1,0
24268,333.333333333333,4,2,1,60,1,0
31767,-100,4,2,1,5,0,0
32257,329.67032967033,4,2,1,60,1,0
32586,-117.647058823529,4,2,1,60,0,0
42806,329.67032967033,3,2,2,60,1,0
43135,-117.647058823529,3,2,2,60,0,0
46432,329.67032967033,3,2,2,60,1,0
48410,329.67032967033,4,2,2,60,1,0
51377,-111.111111111111,4,2,1,70,0,0
61596,329.67032967033,3,2,1,70,1,0
61596,-111.111111111111,3,2,1,70,0,0
61843,-111.111111111111,3,2,1,5,0,0
61925,-111.111111111111,3,2,1,50,0,0
62255,-125,3,2,1,50,0,0
65552,329.67032967033,4,2,1,60,1,0
65552,-111.111111111111,4,2,1,60,0,0
70744,-111.111111111111,4,2,1,5,0,0
70826,-100,4,2,1,70,0,0
81376,329.67032967033,3,2,1,70,1,0
81705,-100,3,2,1,50,0,0
82035,-125,3,2,1,50,0,0
85332,329.67032967033,4,2,1,50,1,0
85332,-125,4,2,1,50,0,0
85661,-111.111111111111,4,2,1,60,0,0
86980,-100,4,2,1,60,0,0
90524,-100,4,2,1,5,0,0
90606,-100,4,2,1,70,0,0
98106,-100,4,2,1,5,0,0
98189,-100,4,2,1,100,0,0
98518,-100,4,2,2,85,0,1
98848,-90.9090909090909,4,2,2,85,0,1
102062,-111.111111111111,4,2,2,85,0,1
103793,-90.9090909090909,4,2,2,85,0,1
119452,-90.9090909090908,4,2,2,85,0,1
120606,-90.9090909090909,4,2,2,85,0,1
122255,329.67032967033,6,2,1,85,1,0
136101,329.67032967033,4,2,1,85,1,0
138079,-125,4,2,1,60,0,0
138738,-100,4,2,1,60,0,0
143683,-90.9090909090909,4,2,1,70,0,0
144013,-90.9090909090909,4,2,2,85,0,0
152749,-83.3333333333333,4,2,2,85,0,0
153738,-90.9090909090909,4,2,2,85,0,0
154562,-90.9090909090909,4,2,1,85,0,0
156210,-100,4,2,1,85,0,0
157199,-117.647058823529,4,2,1,60,0,0
167749,329.67032967033,3,2,2,60,1,0
168078,-117.647058823529,3,2,2,60,0,0
171376,329.67032967033,3,2,2,60,1,0
173354,329.67032967033,4,2,2,60,1,0
175991,-90.9090909090909,4,2,1,70,0,0
183491,-90.9090909090909,4,2,1,5,0,0
183573,-90.9090909090909,4,2,1,70,0,0
183903,-250.000000000001,4,2,1,50,0,0
195771,-200.000000000001,4,2,1,50,0,0
196430,-166.666666666667,4,2,1,50,0,0
198408,-142.857142857143,4,2,1,50,0,0
199068,-100,4,2,1,50,0,0
199315,-100,4,2,1,5,0,0
199397,-100,4,2,1,100,0,0
199727,-100,4,2,2,85,0,1
200057,-90.9090909090909,4,2,2,85,0,1
200634,-90.9090909090908,4,2,2,85,0,1
201705,-90.9090909090909,4,2,2,85,0,1
208299,-76.9230769230769,4,2,2,85,0,1
220002,-90.9090909090909,4,2,2,85,0,1
227914,-76.9230769230769,4,2,2,85,0,1
228738,-76.9230769230769,4,2,2,95,0,1
231375,-90.9090909090909,4,2,1,85,0,0
236650,-250,4,2,1,85,0,0
239946,-250,4,2,1,5,0,0

[Colours]
Combo1 : 255,128,192
Combo2 : 128,255,255
Combo3 : 255,255,128
Combo4 : 128,255,128

[HitObjects]
256,192,29601,12,0,31767,2:0:0:0:
256,192,32257,5,6,2:0:0:0:
256,192,32586,2,0,B|288:200|288:200|328:192,2,51.1351509727481,2|2|2,2:0|2:0|2:0,2:0:0:0:
184,152,32916,2,0,B|112:160|112:160|94:183,1,102.270301945496,10|0,2:0|2:0,2:0:0:0:
64,256,33246,2,0,P|33:234|18:162,1,102.270301945496,2|0,2:0|2:0,2:0:0:0:
152,72,33575,5,10,2:0:0:0:
152,72,33905,2,0,L|96:64,2,51.1351509727481,2|2|2,2:0|2:0|2:0,2:0:0:0:
236,82,34235,2,0,P|292:82|332:42,1,102.270301945496,10|0,2:0|2:0,2:0:0:0:
400,16,34564,2,0,L|408:128,1,102.270301945496,2|0,2:0|2:0,2:0:0:0:
416,264,34894,5,10,2:0:0:0:
416,264,35224,2,0,L|472:272,2,51.1351509727481,2|2|2,2:0|2:0|2:0,2:0:0:0:
368,336,35553,2,0,B|344:360|344:360|272:368,1,102.270301945496,10|0,2:0|2:0,2:0:0:0:
200,336,35883,2,0,P|232:288|224:240,1,102.270301945496,2|0,2:0|2:0,2:0:0:0:
176,120,36213,5,10,2:0:0:0:
176,120,36542,2,0,L|184:64,2,51.1351509727481,2|2|2,2:0|2:0|2:0,2:0:0:0:
154,202,36872,2,0,L|48:192,1,102.270301945496,10|0,2:0|2:0,2:0:0:0:
0,256,37202,5,8,2:0:0:0:
7,340,37311,1,8,2:0:0:0:
79,284,37421,1,8,2:0:0:0:
89,365,37531,6,0,P|148:358|205:373,1,102.270301945496,10|0,2:0|2:0,2:0:0:0:
320,375,37861,5,8,2:0:0:0:
343,290,37971,1,8,2:0:0:0:
403,352,38081,1,8,2:0:0:0:
422,264,38191,6,0,B|446:240|446:240|438:168,1,102.270301945496,10|0,2:0|2:0,2:0:0:0:
416,30,38520,5,8,2:0:0:0:
374,103,38630,1,8,2:0:0:0:
332,24,38740,1,8,2:0:0:0:
292,100,38850,6,0,L|300:204,1,102.270301945496,10|0,2:0|2:0,2:0:0:0:
154,202,39180,5,8,2:0:0:0:
128,120,39289,1,8,2:0:0:0:
212,140,39399,1,8,2:0:0:0:
188,56,39509,6,0,B|178:30|178:30|186:6,2,51.1351509727481,10|8|8,2:0|2:0|2:0,2:0:0:0:
154,202,39839,5,10,2:0:0:0:
104,272,39949,1,8,2:0:0:0:
78,192,40059,1,8,2:0:0:0:
129,349,40169,6,0,P|81:352|31:307,1,102.270301945496,10|0,2:0|2:0,2:0:0:0:
188,282,40498,5,8,2:0:0:0:
270,260,40608,1,8,2:0:0:0:
345,293,40718,1,8,2:0:0:0:
262,361,40828,6,0,L|270:257,1,102.270301945496,10|0,2:0|2:0,2:0:0:0:
280,64,41158,5,8,2:0:0:0:
324,137,41267,1,8,2:0:0:0:
364,60,41377,1,8,2:0:0:0:
412,133,41487,6,0,L|420:237,1,102.270301945496,10|0,2:0|2:0,2:0:0:0:
424,348,41817,5,8,2:0:0:0:
486,288,41927,1,8,2:0:0:0:
419,234,42037,1,8,2:0:0:0:
345,293,42147,6,0,L|337:337,3,38.3707007295609,10|2|2|10,2:0|2:0|2:0|1:0,2:0:0:0:
271,226,42476,2,0,L|264:188,3,38.3707007295609,10|10|10|10,2:0|1:0|1:0|1:0,2:0:0:0:
224,336,42806,5,6,2:0:0:0:
189,352,42888,1,0,1:0:0:0:
151,351,42970,1,0,1:0:0:0:
118,334,43053,1,0,1:0:0:0:
96,304,43135,2,0,L|88:256,1,38.5254007295609,0|0,1:0|1:0,1:0:0:0:
8,168,43300,5,2,1:0:0:0:
33,139,43382,1,0,1:0:0:0:
68,125,43465,1,0,1:0:0:0:
106,127,43547,1,0,1:0:0:0:
144,144,43630,2,0,L|148:192,1,38.5254007295609,0|0,1:0|1:0,1:0:0:0:
168,64,43795,5,2,1:0:0:0:
197,39,43877,1,0,1:0:0:0:
233,29,43959,1,0,1:0:0:0:
272,32,44042,1,0,1:0:0:0:
304,56,44124,2,0,L|312:96,1,38.5254007295609,0|0,1:0|1:0,1:0:0:0:
400,232,44289,5,2,1:0:0:0:
431,210,44371,1,0,1:0:0:0:
450,177,44454,1,0,1:0:0:0:
451,140,44536,1,0,1:0:0:0:
432,96,44619,2,0,L|384:104,1,38.5254007295609,0|0,1:0|1:0,1:0:0:0:
232,120,44784,5,2,1:0:0:0:
235,158,44866,1,0,1:0:0:0:
239,196,44948,1,0,1:0:0:0:
242,234,45031,1,0,1:0:0:0:
248,272,45113,2,0,L|288:280,1,38.5254007295609,0|0,1:0|1:0,1:0:0:0:
440,352,45278,5,2,1:0:0:0:
404,337,45360,1,0,1:0:0:0:
366,334,45443,1,0,1:0:0:0:
330,344,45525,1,0,1:0:0:0:
296,368,45608,2,0,L|248:360,1,38.5254007295609,0|0,1:0|1:0,1:0:0:0:
104,336,45773,5,2,1:0:0:0:
104,336,45855,1,0,1:0:0:0:
104,336,45937,2,0,L|112:288,1,38.5254007295609,0|0,1:0|1:0,1:0:0:0:
114,119,46102,5,2,1:0:0:0:
114,119,46185,1,0,1:0:0:0:
114,119,46267,2,0,L|151:149,1,38.5254007295609,0|0,1:0|1:0,1:0:0:0:
320,216,46432,5,6,2:0:0:0:
353,186,46514,1,0,1:0:0:0:
367,144,46596,1,0,1:0:0:0:
359,100,46679,1,0,1:0:0:0:
328,64,46761,2,0,L|280:72,1,45.324,0|0,1:0|1:0,1:0:0:0:
144,136,46926,5,2,1:0:0:0:
110,165,47008,1,0,1:0:0:0:
96,207,47091,1,0,1:0:0:0:
104,251,47173,1,0,1:0:0:0:
136,288,47256,2,0,L|184:280,1,45.324,0|0,1:0|1:0,1:0:0:0:
304,344,47421,5,2,1:0:0:0:
347,352,47503,1,0,1:0:0:0:
390,338,47585,1,0,1:0:0:0:
420,306,47668,1,0,1:0:0:0:
432,264,47750,2,0,L|424:216,1,45.324,0|0,1:0|1:0,1:0:0:0:
462,86,47915,5,2,1:0:0:0:
417,82,47997,1,0,1:0:0:0:
372,78,48080,1,0,1:0:0:0:
328,72,48162,1,0,1:0:0:0:
283,71,48245,2,0,L|275:127,1,45.324,0|0,1:0|1:0,1:0:0:0:
264,280,48410,5,2,1:0:0:0:
264,280,48492,1,0,1:0:0:0:
264,280,48574,2,0,L|216:272,1,45.324,0|0,1:0|1:0,1:0:0:0:
160,344,48739,5,2,1:0:0:0:
144,328,48822,1,0,1:0:0:0:
128,312,48904,2,0,L|136:264,1,45.324,0|0,1:0|1:0,1:0:0:0:
56,232,49069,5,2,1:0:0:0:
72,200,49151,1,0,1:0:0:0:
88,168,49234,2,0,L|144:176,1,45.324,0|0,1:0|1:0,1:0:0:0:
168,96,49399,5,2,1:0:0:0:
200,128,49481,1,0,1:0:0:0:
232,160,49563,2,0,L|224:208,1,45.324,0|0,1:0|1:0,1:0:0:0:
84,88,49728,6,0,L|76:24,2,60.1530000000002,2|0|0,1:0|1:0|1:0,1:0:0:0:
216,32,50058,2,0,L|205:96,2,60.1530000000002,2|0|0,1:0|1:0|1:0,1:0:0:0:
14,124,50388,5,6,2:0:0:0:
14,124,51047,5,6,1:0:0:0:
14,124,51377,2,0,L|22:204,1,81.0917975280774,10|2,2:0|2:0,2:0:0:0:
128,312,51706,1,2,2:0:0:0:
128,312,51871,2,0,L|136:232,1,81.0917975280774,10|8,1:0|2:0,2:0:0:0:
152,72,52201,2,0,B|200:48|240:72|240:72|280:96|320:72,1,162.183595056153,10|8,1:0|1:0,2:0:0:0:
416,176,52695,2,0,L|408:88,1,81.0917975280774,10|8,2:0|1:0,2:0:0:0:
288,240,53025,2,0,L|296:160,1,81.0917975280774,2|8,2:0|1:0,2:0:0:0:
496,216,53355,2,0,L|488:128,1,81.0917975280774,10|8,2:0|1:0,2:0:0:0:
352,288,53684,5,10,1:0:0:0:
296,159,53849,1,8,1:0:0:0:
424,256,54014,1,8,2:0:0:0:
280,322,54179,2,0,P|241:306|214:265,1,81.0917975280774,8|0,1:0|2:0,2:0:0:0:
200,112,54508,1,10,1:0:0:0:
288,240,54673,1,8,2:0:0:0:
137,298,54838,2,0,B|113:266|113:266|129:138,1,162.183595056153,10|8,1:0|1:0,2:0:0:0:
192,31,55333,1,8,2:0:0:0:
192,31,55497,2,0,L|200:119,1,81.0917975280774,8|0,1:0|2:0,2:0:0:0:
49,167,55827,1,10,1:0:0:0:
208,192,55992,1,10,2:0:0:0:
72,88,56157,1,10,1:0:0:0:
32,248,56322,6,0,L|112:240,1,81.0917975280774,10|8,1:0|1:0,2:0:0:0:
288,224,56651,1,8,2:0:0:0:
288,224,56816,2,0,L|296:128,1,81.0917975280774,8|0,1:0|2:0,2:0:0:0:
304,24,57146,1,2,2:0:0:0:
376,160,57311,1,10,2:0:0:0:
512,64,57475,2,0,P|480:24|376:40,1,162.183595056153,10|8,1:0|1:0,2:0:0:0:
294,143,57970,1,8,2:0:0:0:
294,143,58135,2,0,L|208:136,1,81.0917975280774,8|0,1:0|2:0,2:0:0:0:
96,128,58464,1,10,1:0:0:0:
224,16,58629,1,10,2:0:0:0:
148,185,58794,1,2,2:0:0:0:
40,73,58959,6,0,P|76:49|133:59,1,81.0917975280774,10|8,1:0|1:0,2:0:0:0:
294,143,59289,1,10,2:0:0:0:
155,265,59453,2,0,L|147:177,1,81.0917975280774,10|0,1:0|2:0,2:0:0:0:
336,288,59783,2,0,L|344:208,1,81.0917975280774,10|8,1:0|2:0,2:0:0:0:
137,298,60113,2,0,L|129:218,1,81.0917975280774,10|0,1:0|2:0,2:0:0:0:
344,312,60442,2,0,L|352:232,1,81.3347975280771,10|10,1:0|2:0,2:0:0:0:
60,311,60772,2,0,P|89:361|197:346,1,162.183595056153,2|8,2:0|1:0,2:0:0:0:
128,216,61267,1,10,2:0:0:0:
128,216,61349,1,8,2:0:0:0:
128,216,61431,2,0,L|80:224,1,40.7915987640381,8|8,2:0|2:0,2:0:0:0:
229,296,61596,6,0,B|267:284|267:284|355:316,1,121.883396292114,6|0,2:0|2:0,2:0:0:0:
376,328,61925,1,8,1:0:0:0:
415,199,62090,1,2,1:0:0:0:
415,199,62255,2,0,L|343:207,1,72.0816000000011,10|2,1:0|2:0,2:0:0:0:
439,278,62585,1,2,2:0:0:0:
461,132,62749,2,0,L|467:91,2,36.0408,10|8|8,2:0|2:0|2:0,2:0:0:0:
415,199,63079,1,8,1:0:0:0:
320,72,63244,2,0,P|360:64|392:80,1,72.0816000000011,8|8,1:0|1:0,2:0:0:0:
267,217,63574,6,0,B|227:233|195:217|195:217|163:201|123:217,1,144.1632,6|8,1:0|2:0,2:0:0:0:
231,148,64068,1,2,2:0:0:0:
160,289,64233,1,2,2:0:0:0:
127,215,64398,1,2,2:0:0:0:
267,217,64563,1,6,1:0:0:0:
323,331,64727,1,10,2:0:0:0:
323,331,64810,1,8,2:0:0:0:
323,331,64892,2,0,P|363:339|403:323,1,72.0816000000011,8|10,2:0|1:0,2:0:0:0:
243,293,65222,2,0,P|235:333|251:373,1,72.0816000000011,8|8,1:0|1:0,2:0:0:0:
439,278,65552,6,0,P|441:237|412:194,1,81.0917975280774,6|0,1:0|2:0,2:0:0:0:
275,136,65881,2,0,L|267:216,1,81.0917975280774,8|0,1:0|2:0,2:0:0:0:
400,128,66211,2,0,L|392:48,1,81.0917975280774,8|0,1:0|2:0,2:0:0:0:
248,136,66541,2,0,L|240:216,1,81.0917975280774,8|0,1:0|2:0,2:0:0:0:
373,128,66870,6,0,L|365:48,1,81.0917975280774,8|0,1:0|2:0,2:0:0:0:
216,136,67200,2,0,P|184:160|136:160,1,81.0917975280774,10|0,1:0|2:0,2:0:0:0:
88,216,67530,2,0,P|64:184|64:136,1,81.0917975280774,10|0,1:0|2:0,2:0:0:0:
6,90,67859,2,0,P|38:66|86:66,1,81.0917975280774,10|0,1:0|2:0,2:0:0:0:
240,56,68189,5,10,1:0:0:0:
61,144,68354,1,8,1:0:0:0:
239,216,68519,1,8,1:0:0:0:
162,53,68683,1,10,1:0:0:0:
88,216,68848,5,8,1:0:0:0:
275,136,69013,1,8,1:0:0:0:
77,63,69178,1,10,1:0:0:0:
108,292,69343,1,8,1:0:0:0:
325,197,69508,5,14,1:0:0:0:
61,144,69672,1,14,1:0:0:0:
356,123,69837,1,14,1:0:0:0:
131,367,70002,1,14,1:0:0:0:
131,367,70332,5,8,2:0:0:0:
131,367,70414,1,8,2:0:0:0:
131,367,70497,2,0,P|176:352|256:368,1,121.883396292114,8|0,2:0|2:0,2:0:0:0:
272,352,70826,6,0,P|224:328|169:332,1,90.1020000000011,4|0,2:0|2:0,2:0:0:0:
392,240,71156,1,10,2:0:0:0:
352,368,71321,1,10,1:0:0:0:
248,256,71486,2,0,L|256:160,1,90.1020000000011,2|10,2:0|1:0,2:0:0:0:
387,95,71815,1,8,2:0:0:0:
387,95,71980,2,0,B|347:119|299:95|299:95|259:71|211:95,1,180.204,10|8,1:0|1:0,2:0:0:0:
88,168,72475,2,0,P|128:152|184:168,1,90.1020000000011,10|8,2:0|1:0,2:0:0:0:
56,241,72804,2,0,P|22:214|8:157,1,90.1020000000011,2|8,2:0|1:0,2:0:0:0:
135,235,73134,2,0,P|128:277|87:318,1,90.1020000000011,10|8,2:0|1:0,2:0:0:0:
7,171,73464,5,10,1:0:0:0:
138,75,73628,1,8,1:0:0:0:
56,241,73793,1,8,2:0:0:0:
56,241,73958,2,0,L|64:336,1,90.1020000000011,8|0,1:0|2:0,2:0:0:0:
208,280,74288,1,10,1:0:0:0:
88,168,74453,1,10,2:0:0:0:
169,348,74617,2,0,P|261:337|284:258,1,180.204,10|8,1:0|1:0,2:0:0:0:
256,120,75112,1,8,2:0:0:0:
256,120,75277,2,0,P|304:104|352:128,1,90.1020000000011,8|0,1:0|2:0,2:0:0:0:
285,263,75606,1,10,1:0:0:0:
135,235,75771,1,10,2:0:0:0:
299,185,75936,1,10,1:0:0:0:
108,243,76101,6,0,L|100:147,1,90.1020000000011,10|8,1:0|1:0,2:0:0:0:
263,30,76431,1,8,2:0:0:0:
263,30,76595,2,0,L|255:126,1,90.1020000000011,8|0,1:0|2:0,2:0:0:0:
91,76,76925,1,10,1:0:0:0:
255,119,77090,1,10,2:0:0:0:
101,155,77255,2,0,P|52:144|18:106,1,90.1020000000011,10|0,1:0|2:0,2:0:0:0:
248,200,77584,2,0,L|240:296,1,90.1020000000011,8|8,1:0|2:0,2:0:0:0:
108,244,77914,2,0,L|100:148,1,90.1020000000011,8|0,1:0|2:0,2:0:0:0:
117,323,78244,1,10,1:0:0:0:
319,265,78409,1,10,2:0:0:0:
182,156,78573,1,10,1:0:0:0:
200,360,78738,6,0,P|248:368|296:344,1,90.1020000000011,10|8,1:0|1:0,2:0:0:0:
448,192,79068,1,10,2:0:0:0:
448,192,79233,2,0,B|413:217|368:192|368:192|325:169|265:195,1,180.378,10|10,1:0|1:0,2:0:0:0:
108,244,79727,1,8,2:0:0:0:
281,100,79892,2,0,L|275:198,1,90.4620000000007,10|0,1:0|2:0,2:0:0:0:
120,160,80222,1,10,1:0:0:0:
240,32,80387,1,8,2:0:0:0:
368,191,80552,2,0,B|344:223|344:223|184:207,1,180.204,10|8,1:0|1:0,2:0:0:0:
26,139,81046,1,10,2:0:0:0:
70,135,81128,1,8,2:0:0:0:
115,131,81211,1,8,2:0:0:0:
160,127,81293,1,8,2:0:0:0:
204,124,81376,6,0,P|216:168|204:212,1,90.4620000000007,12|0,2:0|2:0,2:0:0:0:
88,288,81705,1,8,1:0:0:0:
56,216,81870,1,10,1:0:0:0:
169,280,82035,2,0,L|161:352,1,72.0816000000011,10|10,1:0|1:0,2:0:0:0:
8,288,82365,1,14,1:0:0:0:
136,208,82529,1,8,2:0:0:0:
136,208,82612,1,8,2:0:0:0:
136,208,82694,2,0,P|176:200|216:216,1,72.0816000000011,8|10,2:0|1:0,2:0:0:0:
312,336,83024,2,0,L|232:344,1,72.0816000000011,8|8,1:0|1:0,2:0:0:0:
280,192,83354,6,0,B|320:176|320:176|426:210,1,144.3024,14|8,1:0|1:0,2:0:0:0:
464,272,83848,1,10,1:0:0:0:
312,336,84013,2,0,L|320:264,1,72.0816000000011,10|10,1:0|1:0,2:0:0:0:
336,104,84343,1,14,1:0:0:0:
208,192,84507,1,8,2:0:0:0:
208,192,84590,1,8,2:0:0:0:
208,192,84672,2,0,P|168:208|128:200,1,72.0816000000011,8|10,2:0|1:0,2:0:0:0:
160,48,85002,2,0,L|168:128,1,72.0816000000011,8|8,1:0|1:0,2:0:0:0:
56,248,85332,6,0,L|66:164,1,72.3696000000007,10|0,1:0|2:0,2:0:0:0:
248,40,85661,2,0,L|256:120,1,81.0917975280774,8|0,1:0|2:0,2:0:0:0:
200,276,85991,2,0,L|208:192,1,81.0917975280774,8|0,1:0|2:0,2:0:0:0:
272,48,86321,2,0,L|281:132,1,81.415797528077,8|0,1:0|2:0,2:0:0:0:
224,280,86650,6,0,L|232:200,1,81.0917975280774,8|0,1:0|2:0,2:0:0:0:
308,320,86980,2,0,P|348:336|404:320,1,90.1020000000011,10|0,1:0|2:0,2:0:0:0:
403,184,87310,2,0,P|369:210|355:269,1,90.4620000000007,10|0,1:0|2:0,2:0:0:0:
474,329,87639,2,0,P|467:286|426:245,1,90.1020000000011,10|0,1:0|2:0,2:0:0:0:
231,199,87969,5,10,1:0:0:0:
308,320,88134,1,8,1:0:0:0:
437,252,88299,1,8,1:0:0:0:
236,280,88463,1,10,1:0:0:0:
408,104,88628,5,8,1:0:0:0:
396,327,88793,1,8,1:0:0:0:
231,199,88958,1,10,1:0:0:0:
480,184,89123,1,8,1:0:0:0:
248,360,89288,5,14,1:0:0:0:
264,120,89452,1,14,1:0:0:0:
474,330,89617,1,14,1:0:0:0:
488,80,89782,1,14,1:0:0:0:
488,80,90112,5,8,2:0:0:0:
488,80,90194,1,8,2:0:0:0:
488,80,90277,2,0,P|432:56|360:88,1,135.426,8|0,2:0|2:0,2:0:0:0:
336,72,90606,6,0,P|376:44|440:41,1,90.1020000000011,14|0,2:0|2:0,2:0:0:0:
403,184,90936,1,8,2:0:0:0:
264,120,91101,1,10,1:0:0:0:
224,280,91266,2,0,P|272:288|320:268,1,90.4620000000007,10|8,1:0|1:0,2:0:0:0:
334,153,91595,1,10,2:0:0:0:
151,253,91760,1,2,2:0:0:0:
318,366,91925,2,0,L|310:270,1,90.1020000000011,10|8,1:0|1:0,2:0:0:0:
158,163,92255,2,0,L|149:264,1,90.4620000000007,10|0,2:0|2:0,2:0:0:0:
272,208,92584,1,10,1:0:0:0:
272,208,92667,1,8,1:0:0:0:
272,208,92749,1,8,1:0:0:0:
80,136,92914,2,0,L|72:232,1,90.1020000000011,10|0,2:0|2:0,2:0:0:0:
60,360,93244,5,10,2:0:0:0:
224,280,93408,1,8,1:0:0:0:
72,225,93573,1,10,2:0:0:0:
216,360,93738,1,8,1:0:0:0:
272,208,93903,5,10,2:0:0:0:
60,360,94068,1,8,1:0:0:0:
80,136,94233,1,10,2:0:0:0:
224,280,94397,1,8,1:0:0:0:
72,226,94562,5,10,2:0:0:0:
288,128,94727,1,8,1:0:0:0:
288,328,94892,1,8,2:0:0:0:
72,225,95057,1,10,1:0:0:0:
280,48,95222,5,10,2:0:0:0:
216,360,95386,1,8,1:0:0:0:
158,163,95551,1,8,2:0:0:0:
384,280,95716,1,8,1:0:0:0:
288,128,95881,5,10,2:0:0:0:
427,349,96046,1,8,1:0:0:0:
142,339,96211,1,8,1:0:0:0:
384,280,96375,5,8,2:0:0:0:
142,261,96540,1,8,1:0:0:0:
400,136,96705,1,10,1:0:0:0:
216,360,96870,5,10,2:0:0:0:
151,104,97035,1,10,1:0:0:0:
400,136,97200,2,0,L|464:148,3,45.142,8|8|8|8,2:0|2:0|2:0|2:0,2:0:0:0:
384,56,97529,5,8,2:0:0:0:
346,32,97612,1,8,2:0:0:0:
302,24,97694,1,8,2:0:0:0:
258,32,97777,1,8,2:0:0:0:
216,56,97859,2,0,P|144:80|90:44,1,135.426,8|0,2:0|2:0,2:0:0:0:
157,3,98189,1,8,2:0:0:0:
157,3,98518,5,4,1:0:0:0:
152,29,98601,1,0,1:0:0:0:
148,56,98683,1,10,1:0:0:0:
144,83,98766,1,0,1:0:0:0:
140,112,98848,2,0,L|88:116,3,49.6562015106202,0|0|8|0,1:0|1:0|1:0|1:0,1:0:0:0:
128,192,99178,5,2,1:0:0:0:
168,219,99260,1,0,1:0:0:0:
217,221,99342,1,8,1:0:0:0:
260,198,99425,1,2,1:0:0:0:
288,160,99507,1,0,1:0:0:0:
316,120,99590,1,0,1:0:0:0:
361,100,99672,1,10,1:0:0:0:
409,107,99755,1,0,1:0:0:0:
448,136,99837,6,0,L|504:128,3,49.6562015106202,2|0|8|0,1:0|1:0|1:0|1:0,1:0:0:0:
408,208,100167,2,0,L|358:200,3,49.6562015106202,2|0|8|0,1:0|1:0|1:0|1:0,1:0:0:0:
456,272,100496,2,0,L|512:264,3,49.6562015106202,2|0|8|0,1:0|1:0|1:0|1:0,1:0:0:0:
416,344,100826,2,0,L|366:336,3,49.6562015106202,2|0|8|0,1:0|1:0|1:0|1:0,1:0:0:0:
320,272,101156,5,2,1:0:0:0:
287,248,101238,1,0,1:0:0:0:
248,240,101321,1,8,1:0:0:0:
209,249,101403,1,0,1:0:0:0:
176,272,101485,1,0,1:0:0:0:
146,299,101568,1,0,1:0:0:0:
107,307,101650,1,8,1:0:0:0:
70,298,101733,1,0,1:0:0:0:
48,264,101815,6,0,L|40:208,1,49.7046015106204,2|0,1:0|1:0,1:0:0:0:
120,144,101980,1,8,1:0:0:0:
120,144,102062,2,0,L|112:184,1,40.7915987640381,2|0,1:0|1:0,1:0:0:0:
192,80,102227,1,0,1:0:0:0:
192,80,102310,2,0,L|170:43,1,40.9535987640381,10|0,1:0|1:0,1:0:0:0:
208,160,102474,5,2,1:0:0:0:
250,146,102557,1,0,1:0:0:0:
280,113,102639,1,8,1:0:0:0:
289,70,102722,1,0,1:0:0:0:
272,24,102804,5,2,1:0:0:0:
299,59,102886,1,0,1:0:0:0:
338,80,102969,1,8,1:0:0:0:
383,85,103051,1,0,1:0:0:0:
424,72,103134,5,2,1:0:0:0:
464,90,103216,1,0,1:0:0:0:
492,125,103299,1,8,1:0:0:0:
501,169,103381,1,0,1:0:0:0:
490,212,103463,1,2,1:0:0:0:
461,246,103546,1,0,1:0:0:0:
420,263,103628,1,8,1:0:0:0:
375,260,103711,1,0,1:0:0:0:
336,232,103793,6,0,L|344:176,3,49.6562015106202,2|0|8|0,1:0|1:0|1:0|1:0,1:0:0:0:
424,296,104123,2,0,L|431:345,3,49.6562015106202,0|0|8|0,1:0|1:0|1:0|1:0,1:0:0:0:
288,352,104452,5,2,1:0:0:0:
239,348,104535,1,0,1:0:0:0:
200,319,104617,1,8,1:0:0:0:
182,274,104700,1,2,1:0:0:0:
192,224,104782,1,0,1:0:0:0:
187,175,104864,1,0,1:0:0:0:
157,136,104947,1,10,1:0:0:0:
112,118,105029,1,0,1:0:0:0:
64,120,105112,5,2,1:0:0:0:
101,151,105194,1,0,1:0:0:0:
149,161,105277,1,8,1:0:0:0:
196,148,105359,1,0,1:0:0:0:
232,112,105441,1,2,1:0:0:0:
256,69,105524,1,0,1:0:0:0:
299,46,105606,1,8,1:0:0:0:
348,48,105689,1,0,1:0:0:0:
388,76,105771,1,2,1:0:0:0:
408,120,105853,1,0,1:0:0:0:
402,169,105936,1,8,1:0:0:0:
371,207,106018,1,0,1:0:0:0:
328,224,106101,6,0,L|320:280,3,49.6562015106202,2|0|8|0,1:0|1:0|1:0|1:0,1:0:0:0:
320,136,106430,5,2,1:0:0:0:
363,114,106513,1,0,1:0:0:0:
412,114,106595,1,8,1:0:0:0:
456,137,106678,1,0,1:0:0:0:
484,177,106760,1,2,1:0:0:0:
491,225,106842,1,0,1:0:0:0:
475,272,106925,1,8,1:0:0:0:
440,306,107007,1,0,1:0:0:0:
392,320,107090,5,2,1:0:0:0:
354,287,107172,1,0,1:0:0:0:
307,275,107255,1,8,1:0:0:0:
259,284,107337,1,0,1:0:0:0:
216,312,107419,1,2,1:0:0:0:
173,335,107502,1,0,1:0:0:0:
124,334,107584,1,8,1:0:0:0:
81,310,107667,1,0,1:0:0:0:
56,264,107749,5,2,1:0:0:0:
61,233,107832,1,0,1:0:0:0:
67,202,107914,1,8,1:0:0:0:
73,171,107996,1,0,1:0:0:0:
80,136,108079,6,0,L|121:102,1,50.0544015106203,0|0,1:0|1:0,1:0:0:0:
192,39,108244,2,0,L|201:91,1,50.0544015106203,10|2,1:0|1:0,1:0:0:0:
216,184,108408,2,0,L|165:163,1,50.0544015106203,10|8,1:0|1:0,1:0:0:0:
280,128,108573,5,8,1:0:0:0:
280,128,108656,1,8,1:0:0:0:
280,128,108738,5,8,1:0:0:0:
298,182,108821,1,8,1:0:0:0:
277,235,108903,1,8,1:0:0:0:
227,263,108985,1,8,1:0:0:0:
172,252,109068,5,14,1:0:0:0:
207,218,109150,1,0,1:0:0:0:
255,208,109233,1,8,1:0:0:0:
302,222,109315,1,0,1:0:0:0:
332,256,109397,1,0,1:0:0:0:
368,288,109480,1,0,1:0:0:0:
416,297,109562,1,8,1:0:0:0:
463,281,109645,1,0,1:0:0:0:
496,240,109727,6,0,L|488:176,1,49.8564015106205,2|0,1:0|1:0,1:0:0:0:
416,104,109892,1,10,1:0:0:0:
416,104,109974,2,0,L|408:160,1,49.8564015106205,2|0,1:0|1:0,1:0:0:0:
332,256,110139,1,2,1:0:0:0:
332,256,110222,2,0,L|337:202,1,50.0544015106203,8|0,1:0|1:0,1:0:0:0:
360,40,110386,5,2,1:0:0:0:
316,17,110469,1,0,1:0:0:0:
267,18,110551,1,8,1:0:0:0:
225,44,110634,1,0,1:0:0:0:
200,88,110716,1,2,1:0:0:0:
170,126,110799,1,0,1:0:0:0:
125,146,110881,1,8,1:0:0:0:
76,140,110963,1,0,1:0:0:0:
32,112,111046,5,2,1:0:0:0:
80,103,111128,1,0,1:0:0:0:
125,120,111211,1,8,1:0:0:0:
155,158,111293,1,0,1:0:0:0:
160,208,111375,6,0,L|216:200,3,49.6562015106203,2|0|8|0,1:0|1:0|1:0|1:0,1:0:0:0:
128,280,111705,2,0,L|72:272,3,49.6562015106202,2|0|8|0,1:0|1:0|1:0|1:0,1:0:0:0:
168,352,112035,5,0,1:0:0:0:
176,352,112117,1,0,1:0:0:0:
184,352,112200,1,8,1:0:0:0:
192,352,112282,1,0,1:0:0:0:
200,352,112364,5,2,1:0:0:0:
246,367,112447,1,0,1:0:0:0:
293,355,112529,1,8,1:0:0:0:
320,320,112612,2,0,L|311:265,1,50.0544015106203,2|0,1:0|1:0,1:0:0:0:
256,168,112777,1,0,1:0:0:0:
256,168,112859,2,0,L|248:225,1,50.0544015106203,10|0,1:0|1:0,1:0:0:0:
392,272,113024,5,2,1:0:0:0:
419,231,113106,1,0,1:0:0:0:
429,183,113189,1,8,1:0:0:0:
419,135,113271,1,0,1:0:0:0:
392,96,113353,5,2,1:0:0:0:
353,126,113436,1,0,1:0:0:0:
305,136,113518,1,8,1:0:0:0:
257,124,113601,1,0,1:0:0:0:
216,88,113683,5,2,1:0:0:0:
177,58,113766,1,0,1:0:0:0:
128,54,113848,1,8,1:0:0:0:
84,76,113930,1,0,1:0:0:0:
59,117,114013,1,2,1:0:0:0:
60,166,114095,1,0,1:0:0:0:
86,207,114178,1,8,1:0:0:0:
131,228,114260,1,0,1:0:0:0:
176,224,114342,6,0,L|168:168,3,49.6562015106203,2|0|8|0,1:0|1:0|1:0|1:0,1:0:0:0:
256,256,114672,5,0,1:0:0:0:
256,264,114755,1,0,1:0:0:0:
256,272,114837,1,8,1:0:0:0:
256,280,114919,1,0,1:0:0:0:
256,288,115002,5,2,1:0:0:0:
229,323,115084,1,0,1:0:0:0:
188,340,115167,1,8,1:0:0:0:
144,336,115249,2,0,L|96:328,1,49.8564015106205,2|0,1:0|1:0,1:0:0:0:
0,264,115414,1,0,1:0:0:0:
0,264,115496,2,0,L|64:256,1,49.8564015106205,10|0,1:0|1:0,1:0:0:0:
176,224,115661,5,2,1:0:0:0:
219,211,115744,1,0,1:0:0:0:
250,180,115826,1,8,1:0:0:0:
262,137,115908,1,0,1:0:0:0:
252,94,115991,1,2,1:0:0:0:
222,61,116073,1,0,1:0:0:0:
179,46,116156,1,8,1:0:0:0:
136,54,116238,1,0,1:0:0:0:
96,80,116321,5,2,1:0:0:0:
120,117,116403,1,0,1:0:0:0:
160,136,116485,1,8,1:0:0:0:
204,131,116568,1,0,1:0:0:0:
240,104,116650,1,2,1:0:0:0:
276,77,116733,1,0,1:0:0:0:
320,70,116815,1,8,1:0:0:0:
362,84,116897,1,0,1:0:0:0:
392,112,116980,6,0,L|400:64,3,49.6562015106202,2|0|8|0,1:0|1:0|1:0|1:0,1:0:0:0:
448,172,117310,2,0,L|456:220,3,49.6562015106202,2|0|8|0,1:0|1:0|1:0|1:0,1:0:0:0:
408,288,117639,5,2,1:0:0:0:
371,326,117722,1,0,1:0:0:0:
318,336,117804,1,8,1:0:0:0:
270,315,117886,1,0,1:0:0:0:
240,264,117969,1,2,1:0:0:0:
207,221,118051,1,0,1:0:0:0:
158,201,118134,1,8,1:0:0:0:
105,210,118216,1,0,1:0:0:0:
64,248,118299,5,2,1:0:0:0:
112,251,118381,1,0,1:0:0:0:
157,231,118463,1,8,1:0:0:0:
188,193,118546,1,0,1:0:0:0:
197,145,118628,1,0,1:0:0:0:
183,98,118711,1,0,1:0:0:0:
148,63,118793,1,10,1:0:0:0:
102,48,118875,1,2,1:0:0:0:
56,56,118958,5,10,1:0:0:0:
86,104,119040,1,8,1:0:0:0:
138,129,119123,1,8,1:0:0:0:
196,123,119205,1,8,1:0:0:0:
240,88,119288,5,8,1:0:0:0:
272,96,119370,1,8,1:0:0:0:
304,104,119452,2,0,L|312:168,1,49.8564015106205,8|8,1:0|1:0,1:0:0:0:
352,336,119617,5,10,1:0:0:0:
413,360,119700,1,0,1:0:0:0:
476,341,119782,1,0,1:0:0:0:
512,287,119864,1,0,1:0:0:0:
508,221,119947,1,8,1:0:0:0:
463,172,120029,1,0,1:0:0:0:
397,164,120112,1,0,1:0:0:0:
336,184,120194,1,0,1:0:0:0:
274,208,120277,5,8,1:0:0:0:
211,189,120359,1,0,1:0:0:0:
173,135,120441,1,0,1:0:0:0:
179,69,120524,1,0,1:0:0:0:
224,16,120606,2,0,L|288:24,1,49.8564015106205,8|0,1:0|1:0,1:0:0:0:
96,96,120771,5,2,1:0:0:0:
80,104,120853,1,2,1:0:0:0:
64,112,120936,5,10,1:0:0:0:
26,160,121018,1,0,1:0:0:0:
28,222,121101,1,0,1:0:0:0:
70,267,121183,1,0,1:0:0:0:
128,272,121266,1,8,1:0:0:0:
188,255,121348,1,0,1:0:0:0:
249,267,121430,1,0,1:0:0:0:
298,305,121513,1,0,1:0:0:0:
320,360,121595,5,8,1:0:0:0:
255,322,121678,1,8,1:0:0:0:
233,251,121760,1,8,1:0:0:0:
264,183,121842,1,8,1:0:0:0:
312,120,121925,5,8,1:0:0:0:
292,61,122007,1,8,1:0:0:0:
239,31,122090,1,8,1:0:0:0:
179,45,122172,1,8,1:0:0:0:
144,96,122255,1,12,2:0:0:0:
258,188,138079,6,0,L|202:196,2,48.1272000000002,8|8|8,2:0|2:0|2:0,2:0:0:0:
336,176,138408,1,8,2:0:0:0:
336,176,138738,6,0,P|464:200|400:280,1,270.012,12|8,2:0|1:0,2:0:0:0:
258,188,139397,1,8,2:0:0:0:
344,312,139562,1,2,2:0:0:0:
277,353,139727,1,2,2:0:0:0:
201,338,139892,1,10,1:0:0:0:
160,272,140057,6,0,B|128:232|128:232|152:104,2,180.204,2|8|8,2:0|1:0|2:0,2:0:0:0:
336,176,140881,1,8,2:0:0:0:
372,107,141046,2,0,P|324:99|276:131,1,90.1020000000011,2|8,2:0|1:0,2:0:0:0:
440,224,141375,6,0,L|456:40,2,180.204,2|2|8,2:0|2:0|2:0,2:0:0:0:
440,224,142364,1,8,1:0:0:0:
288,116,142529,1,8,2:0:0:0:
344,312,142694,5,8,1:0:0:0:
372,107,142859,1,2,2:0:0:0:
240,272,143024,2,0,L|288:264,1,45.324,2|0,2:0|2:0,2:0:0:0:
380,182,143188,2,0,L|328:174,1,45.324,2|0,2:0|2:0,2:0:0:0:
216,80,143353,5,2,1:0:0:0:
177,50,143436,1,8,1:2:0:0:
128,46,143518,1,8,1:2:0:0:
84,67,143601,1,8,1:2:0:0:
56,112,143683,6,0,L|64:168,1,49.9026015106203,2|8,1:0|1:2,2:0:0:0:
160,232,143848,2,0,L|168:184,1,49.9026015106203,2|8,1:0|1:2,2:0:0:0:
83,312,144013,5,6,1:0:0:0:
112,350,144095,1,0,1:0:0:0:
159,364,144177,1,8,1:0:0:0:
205,349,144260,1,0,1:0:0:0:
232,304,144342,2,0,L|240:240,1,49.8564015106205,0|0,1:0|1:0,1:0:0:0:
368,64,144507,5,10,1:0:0:0:
325,40,144590,1,0,1:0:0:0:
277,48,144672,1,0,1:0:0:0:
243,82,144754,1,0,1:0:0:0:
237,131,144837,1,8,1:0:0:0:
261,173,144919,1,0,1:0:0:0:
304,192,145002,2,0,L|352:200,1,49.8564015106205,0|0,1:0|1:0,1:0:0:0:
464,240,145166,5,8,1:0:0:0:
460,195,145249,1,0,1:0:0:0:
456,150,145331,1,0,1:0:0:0:
452,105,145414,1,0,1:0:0:0:
448,56,145496,1,8,1:0:0:0:
415,25,145579,1,0,1:0:0:0:
372,13,145661,1,0,1:0:0:0:
329,24,145743,1,0,1:0:0:0:
296,56,145826,5,8,1:0:0:0:
262,78,145908,1,0,1:0:0:0:
223,87,145991,1,0,1:0:0:0:
183,81,146073,1,0,1:0:0:0:
144,56,146155,5,8,1:0:0:0:
128,56,146238,1,0,1:0:0:0:
112,56,146320,1,2,1:0:0:0:
96,56,146403,1,0,1:0:0:0:
80,56,146485,2,0,L|72:112,1,49.8564015106205,10|0,1:0|1:0,1:0:0:0:
56,312,146650,5,2,1:0:0:0:
93,343,146732,1,0,1:0:0:0:
142,347,146815,1,8,1:0:0:0:
185,325,146897,1,0,1:0:0:0:
208,282,146980,1,0,1:0:0:0:
204,233,147062,1,0,1:0:0:0:
168,192,147144,5,10,1:0:0:0:
178,239,147227,1,0,1:0:0:0:
213,273,147309,1,0,1:0:0:0:
261,282,147392,1,0,1:0:0:0:
304,264,147474,5,8,1:0:0:0:
346,232,147557,1,0,1:0:0:0:
398,239,147639,1,0,1:0:0:0:
431,280,147721,1,0,1:0:0:0:
425,332,147804,1,8,1:0:0:0:
385,366,147886,1,0,1:0:0:0:
336,360,147969,6,0,L|280:368,3,49.6562015106202,0|0|8|0,1:0|1:0|1:0|1:0,1:0:0:0:
398,239,148298,5,0,1:0:0:0:
375,193,148381,1,0,1:0:0:0:
334,170,148463,1,8,1:0:0:0:
285,173,148546,1,0,1:0:0:0:
244,199,148628,5,0,1:0:0:0:
218,236,148710,1,0,1:0:0:0:
180,258,148793,1,8,1:0:0:0:
136,262,148875,1,0,1:0:0:0:
94,249,148958,5,0,1:0:0:0:
88,232,149040,1,0,1:0:0:0:
80,216,149122,1,8,1:0:0:0:
72,200,149205,1,0,1:0:0:0:
64,184,149287,5,14,1:0:0:0:
116,190,149370,1,0,1:0:0:0:
155,226,149452,1,8,1:0:0:0:
166,278,149535,1,0,1:0:0:0:
144,328,149617,6,0,L|96:336,1,49.9026015106203,2|0,1:0|1:0,1:0:0:0:
261,282,149782,2,0,L|309:290,1,49.8564015106205,10|0,1:0|1:0,1:0:0:0:
94,249,149947,6,0,L|46:257,1,49.8564015106205,2|0,1:0|1:0,1:0:0:0:
296,208,150111,2,0,L|344:216,1,49.8564015106205,10|0,1:0|1:0,1:0:0:0:
56,168,150276,6,0,L|8:176,1,49.8564015106205,2|0,1:0|1:0,1:0:0:0:
328,136,150441,2,0,L|376:144,1,49.8564015106205,10|0,1:0|1:0,1:0:0:0:
95,88,150606,5,2,1:0:0:0:
137,120,150688,1,0,1:0:0:0:
189,127,150771,1,10,1:0:0:0:
238,105,150853,1,0,1:0:0:0:
271,72,150936,1,2,1:0:0:0:
307,34,151018,1,0,1:0:0:0:
359,19,151101,1,10,1:0:0:0:
410,34,151183,1,0,1:0:0:0:
448,72,151265,5,2,1:0:0:0:
414,118,151348,1,0,1:0:0:0:
359,136,151430,1,10,1:0:0:0:
304,119,151513,1,0,1:0:0:0:
271,72,151595,6,0,L|264:24,1,49.9026015106203,2|0,1:0|1:0,1:0:0:0:
137,120,151760,2,0,L|144:176,1,49.9026015106203,10|0,1:0|1:0,1:0:0:0:
321,261,151925,5,2,1:0:0:0:
371,277,152007,1,0,1:0:0:0:
423,263,152090,1,8,1:0:0:0:
459,224,152172,1,0,1:0:0:0:
467,171,152254,1,0,1:0:0:0:
447,122,152337,1,0,1:0:0:0:
403,92,152419,1,10,1:0:0:0:
349,91,152502,1,0,1:0:0:0:
304,120,152584,1,0,1:0:0:0:
251,118,152666,1,0,1:0:0:0:
208,80,152749,6,0,L|216:24,1,54.3887983520516,10|0,1:0|1:0,1:0:0:0:
248,208,152914,2,0,L|290:241,1,54.3887983520516,2|0,1:0|1:0,1:0:0:0:
116,190,153079,2,0,L|65:210,1,54.3887983520516,10|0,1:0|1:0,1:0:0:0:
215,26,153243,5,2,1:0:0:0:
276,2,153326,1,0,1:0:0:0:
339,24,153408,1,8,1:0:0:0:
372,81,153491,1,0,1:0:0:0:
361,146,153573,1,0,1:0:0:0:
311,189,153655,1,0,1:0:0:0:
248,208,153738,6,0,L|256:264,1,49.9026015106203,10|0,1:0|1:0,1:0:0:0:
496,336,153903,5,2,1:0:0:0:
474,282,153985,1,0,1:0:0:0:
425,251,154068,1,8,1:0:0:0:
368,254,154150,1,0,1:0:0:0:
323,290,154232,5,0,1:0:0:0:
312,320,154315,1,0,1:0:0:0:
301,350,154397,2,0,L|240:360,1,49.8564015106205,8|0,1:0|1:0,1:0:0:0:
128,368,154562,5,10,2:0:0:0:
136,320,154672,1,10,2:0:0:0:
176,296,154782,1,10,2:0:0:0:
24,248,154892,5,10,2:0:0:0:
60,221,155002,1,10,2:0:0:0:
100,232,155111,1,10,2:0:0:0:
80,112,155221,5,10,2:0:0:0:
124,119,155331,1,10,2:0:0:0:
145,155,155441,1,10,2:0:0:0:
208,32,155551,5,10,2:0:0:0:
231,64,155661,1,10,2:0:0:0:
221,100,155771,1,10,2:0:0:0:
223,188,155881,5,14,2:0:0:0:
223,188,156210,2,0,L|232:240,1,45.324,8|8,2:0|2:0,2:0:0:0:
392,176,156375,2,0,L|399:131,1,45.324,8|8,2:0|2:0,2:0:0:0:
248,312,156540,1,10,2:0:0:0:
248,312,156870,2,0,L|296:320,3,45.142,10|10|10|10,1:0|1:0|1:0|1:0,2:0:0:0:
184,360,157199,6,0,B|136:336|136:336|72:352,1,102.270301945496,14|0,2:0|2:0,2:0:0:0:
16,368,157529,2,0,L|8:312,2,51.1351509727481,2|2|2,2:0|2:0|2:0,2:0:0:0:
72,272,157859,2,0,L|80:168,1,102.270301945496,10|0,2:0|2:0,2:0:0:0:
56,96,158188,2,0,P|108:76|134:23,1,102.270301945496,2|0,2:0|2:0,2:0:0:0:
8,24,158518,5,10,2:0:0:0:
8,24,158848,2,0,L|58:16,2,51.1351509727481,2|2|2,2:0|2:0|2:0,2:0:0:0:
79,170,159177,2,0,L|183:178,1,102.270301945496,10|0,2:0|2:0,2:0:0:0:
256,184,159507,2,0,L|248:128,2,51.1351509727481,2|0|0,2:0|2:0|2:0,2:0:0:0:
280,336,159837,5,10,2:0:0:0:
280,336,160166,2,0,L|224:344,2,51.1351509727481,2|2|2,2:0|2:0|2:0,2:0:0:0:
360,360,160496,2,0,P|360:296|400:256,1,102.270301945496,10|0,2:0|2:0,2:0:0:0:
456,232,160826,2,0,B|472:176|472:176|456:128,1,102.270301945496,2|0,2:0|2:0,2:0:0:0:
400,16,161155,5,10,2:0:0:0:
400,16,161485,2,0,L|456:24,2,51.1351509727481,2|2|2,2:0|2:0|2:0,2:0:0:0:
328,40,161815,2,0,P|280:64|232:56,1,102.270301945496,10|0,2:0|2:0,2:0:0:0:
88,16,162144,5,8,2:0:0:0:
152,64,162254,1,8,2:0:0:0:
60,95,162364,1,8,2:0:0:0:
128,144,162474,6,0,L|136:248,1,102.270301945496,10|0,2:0|2:0,2:0:0:0:
144,328,162804,5,8,2:0:0:0:
216,280,162914,1,8,2:0:0:0:
135,245,163024,1,8,2:0:0:0:
223,363,163133,6,0,P|276:339|298:275,1,102.270301945496,10|0,2:0|2:0,2:0:0:0:
320,224,163463,5,8,2:0:0:0:
376,312,163573,1,8,2:0:0:0:
328,208,163683,1,8,2:0:0:0:
392,296,163793,6,0,B|416:272|416:272|408:200,1,102.270301945496,10|0,2:0|2:0,2:0:0:0:
384,32,164122,5,8,2:0:0:0:
300,29,164232,1,8,2:0:0:0:
248,93,164342,1,8,2:0:0:0:
249,177,164452,6,0,B|224:192|224:192|184:184,2,51.1351509727481,10|8|8,2:0|2:0|2:0,2:0:0:0:
88,168,164782,5,10,2:0:0:0:
136,240,164892,1,8,2:0:0:0:
162,116,165002,1,8,2:0:0:0:
132,266,165111,6,0,P|186:265|226:301,1,102.270301945496,10|0,2:0|2:0,2:0:0:0:
312,368,165441,5,8,2:0:0:0:
304,280,165551,1,8,2:0:0:0:
336,368,165661,1,8,2:0:0:0:
336,280,165771,6,0,L|328:176,1,102.270301945496,10|0,2:0|2:0,2:0:0:0:
264,120,166101,5,8,2:0:0:0:
344,96,166210,1,8,2:0:0:0:
328,178,166320,1,8,2:0:0:0:
408,152,166430,6,0,P|428:102|406:39,1,102.270301945496,10|0,2:0|2:0,2:0:0:0:
264,120,166760,5,8,2:0:0:0:
192,72,166870,1,8,2:0:0:0:
118,112,166980,1,8,2:0:0:0:
64,23,167090,6,0,L|56:63,3,38.3707007295609,10|2|2|2,2:0|2:0|2:0|2:0,2:0:0:0:
118,112,167419,2,0,L|125:154,3,38.2517007295609,10|2|2|2,2:0|2:0|2:0|2:0,2:0:0:0:
70,207,167749,5,6,2:0:0:0:
102,226,167831,1,0,1:0:0:0:
140,230,167913,1,0,1:0:0:0:
175,216,167996,1,0,1:0:0:0:
200,184,168078,2,0,L|240:192,1,38.5254007295609,0|0,1:0|1:0,1:0:0:0:
384,288,168243,5,2,1:0:0:0:
415,266,168325,1,0,1:0:0:0:
433,233,168408,1,0,1:0:0:0:
434,195,168490,1,0,1:0:0:0:
416,160,168573,2,0,L|368:152,1,38.5254007295609,0|0,1:0|1:0,1:0:0:0:
303,277,168738,5,2,1:0:0:0:
267,291,168820,1,0,1:0:0:0:
229,291,168902,1,0,1:0:0:0:
193,278,168985,1,0,1:0:0:0:
167,253,169067,2,0,L|175:213,1,38.5254007295609,0|0,1:0|1:0,1:0:0:0:
72,376,169232,5,2,1:0:0:0:
91,343,169314,1,0,1:0:0:0:
95,305,169397,1,0,1:0:0:0:
83,269,169479,1,0,1:0:0:0:
56,240,169562,2,0,L|64:200,1,38.5254007295609,0|0,1:0|1:0,1:0:0:0:
88,56,169727,5,2,1:0:0:0:
119,35,169809,1,0,1:0:0:0:
157,33,169891,1,0,1:0:0:0:
191,49,169974,1,0,1:0:0:0:
216,80,170056,2,0,L|224:128,1,38.5254007295609,0|0,1:0|1:0,1:0:0:0:
360,216,170221,5,2,1:0:0:0:
397,218,170303,1,0,1:0:0:0:
432,203,170386,1,0,1:0:0:0:
457,174,170468,1,0,1:0:0:0:
464,136,170551,2,0,L|416:144,1,38.5254007295609,0|0,1:0|1:0,1:0:0:0:
320,288,170716,5,2,1:0:0:0:
320,288,170798,1,0,1:0:0:0:
320,288,170880,2,0,L|272:280,1,38.5254007295609,0|0,1:0|1:0,1:0:0:0:
144,192,171045,5,2,1:0:0:0:
144,192,171128,1,0,1:0:0:0:
144,192,171210,2,0,L|192:184,1,38.5254007295609,0|0,1:0|1:0,1:0:0:0:
344,96,171376,5,6,2:0:0:0:
302,111,171458,1,0,1:0:0:0:
257,107,171540,1,0,1:0:0:0:
219,84,171623,1,0,1:0:0:0:
192,48,171705,2,0,L|200:0,1,45.324,0|0,1:0|1:0,1:0:0:0:
392,32,171870,5,2,1:0:0:0:
419,67,171952,1,0,1:0:0:0:
422,111,172035,1,0,1:0:0:0:
400,150,172117,1,0,1:0:0:0:
360,168,172200,2,0,L|352:224,1,45.324,0|0,1:0|1:0,1:0:0:0:
206,333,172365,5,2,1:0:0:0:
170,306,172447,1,0,1:0:0:0:
151,265,172529,1,0,1:0:0:0:
155,221,172612,1,0,1:0:0:0:
181,185,172694,2,0,L|237:193,1,45.324,0|0,1:0|1:0,1:0:0:0:
312,328,172859,5,2,1:0:0:0:
361,335,172941,1,0,1:0:0:0:
405,329,173024,1,0,1:0:0:0:
442,303,173106,1,0,1:0:0:0:
464,264,173189,2,0,L|456:216,1,45.324,0|0,1:0|1:0,1:0:0:0:
432,56,173354,5,2,1:0:0:0:
432,56,173436,1,0,1:0:0:0:
432,56,173518,2,0,L|384:64,1,45.324,0|0,1:0|1:0,1:0:0:0:
257,107,173683,5,2,1:0:0:0:
249,91,173766,1,0,1:0:0:0:
241,75,173848,2,0,L|249:27,1,45.324,0|0,1:0|1:0,1:0:0:0:
328,184,174013,5,2,1:0:0:0:
296,200,174095,1,0,1:0:0:0:
264,216,174178,2,0,L|216:208,1,45.324,0|0,1:0|1:0,1:0:0:0:
408,144,174343,5,2,1:0:0:0:
404,189,174425,1,0,1:0:0:0:
400,232,174507,2,0,L|392:280,1,45.324,0|0,1:0|1:0,1:0:0:0:
257,156,174672,6,0,L|264:216,2,60.1530000000002,2|0|0,1:0|1:0|1:0,1:0:0:0:
116,148,175002,2,0,L|124:88,2,60.1530000000002,2|0|0,1:0|1:0|1:0,1:0:0:0:
80,24,175332,5,6,2:0:0:0:
80,24,175991,6,0,B|128:0|168:24|168:24|216:56|272:24,1,198.224406042481,6|8,2:0|2:0,2:0:0:0:
344,0,176485,1,10,1:0:0:0:
275,124,176650,2,0,L|267:20,1,99.1122030212414,10|8,1:0|1:0,2:0:0:0:
432,72,176980,1,10,2:0:0:0:
283,205,177145,1,10,1:0:0:0:
448,248,177310,2,0,L|440:144,1,99.1122030212414,10|8,1:0|1:0,2:0:0:0:
336,264,177639,2,0,P|297:286|236:269,1,99.1122030212414,10|0,2:0|2:0,2:0:0:0:
96,200,177969,1,10,1:0:0:0:
96,200,178051,1,8,1:0:0:0:
96,200,178134,1,8,1:0:0:0:
176,344,178299,2,0,L|168:240,1,99.1122030212414,10|0,2:0|2:0,2:0:0:0:
152,56,178628,5,10,2:0:0:0:
16,216,178793,1,8,1:0:0:0:
240,200,178958,1,10,2:0:0:0:
40,136,179123,1,8,1:0:0:0:
96,352,179288,5,10,2:0:0:0:
274,113,179452,1,8,1:0:0:0:
16,216,179617,1,10,2:0:0:0:
248,280,179782,1,8,1:0:0:0:
196,142,179947,5,10,2:0:0:0:
51,289,180112,1,8,1:0:0:0:
333,331,180277,1,8,2:0:0:0:
344,80,180441,1,10,1:0:0:0:
96,200,180606,5,10,2:0:0:0:
274,113,180771,1,8,1:0:0:0:
257,354,180936,1,8,2:0:0:0:
117,126,181101,1,8,1:0:0:0:
416,192,181266,5,10,2:0:0:0:
176,344,181430,1,8,1:0:0:0:
144,48,181595,1,8,1:0:0:0:
344,280,181760,5,8,2:0:0:0:
40,136,181925,1,8,1:0:0:0:
320,32,182090,1,10,1:0:0:0:
96,360,182255,5,10,2:0:0:0:
232,8,182419,1,10,1:0:0:0:
416,192,182584,2,0,L|424:256,3,49.6562015106202,8|8|8|8,2:0|2:0|2:0|2:0,2:0:0:0:
271,352,182914,5,8,2:0:0:0:
222,354,182996,1,8,2:0:0:0:
182,327,183079,1,8,2:0:0:0:
166,281,183161,1,8,2:0:0:0:
184,232,183244,2,0,B|216:200|216:200|208:88,1,148.96860453186,8|0,2:0|2:0,2:0:0:0:
208,56,183573,2,0,L|248:64,5,33.1174810070801,10|2|2|2|2|2,1:0|2:0|2:0|2:0|2:0|2:0,2:0:0:0:
168,48,183903,6,0,P|120:40|176:136,1,252.0672,6|2,2:0|2:0,2:0:0:0:
248,136,185222,2,0,B|304:112|352:136|352:136|408:168|456:144,1,216.0264,2|2,2:0|2:0,2:0:0:0:
455,144,186540,2,0,B|415:200|463:264|463:264|391:240|343:304,1,252.0672,2|2,2:0|2:0,2:0:0:0:
304,352,187859,6,0,L|224:344,1,72.0816000000011,2|2,2:0|2:0,2:0:0:0:
200,272,188518,2,0,L|120:280,1,72.0816000000011,2|2,2:0|2:0,2:0:0:0:
48,288,189178,2,0,B|72:208|40:120|40:120|60:171|92:195,1,252.2016,2|2,2:0|2:0,2:0:0:0:
144,104,190496,2,0,P|176:88|224:96,1,72.0816000000011,2|2,2:0|2:0,2:0:0:0:
280,144,191156,2,0,P|312:160|360:152,1,72.0816000000011,2|2,2:0|2:0,2:0:0:0:
400,96,191815,6,0,B|376:136|376:136|392:232,1,144.1632,2|2,2:0|2:0,2:0:0:0:
407,309,192804,1,2,2:0:0:0:
479,278,193134,2,0,P|443:238|380:235,1,108.1224,2|2,2:0|2:0,2:0:0:0:
336,344,193793,5,10,2:0:0:0:
319,350,193875,1,8,2:0:0:0:
301,351,193958,1,8,2:0:0:0:
283,349,194040,1,8,2:0:0:0:
270,344,194123,1,8,2:0:0:0:
260,338,194205,1,8,2:0:0:0:
252,330,194288,1,8,2:0:0:0:
244,322,194370,1,8,2:0:0:0:
236,314,194452,6,0,L|220:58,1,252.0672,12|2,2:0|2:0,2:0:0:0:
160,8,195771,2,0,P|128:0|64:24,1,90.1020000000011,10|2,2:0|2:0,2:0:0:0:
112,192,196430,2,0,L|119:84,1,108.122396704102,10|2,2:0|2:0,2:0:0:0:
40,224,197090,1,8,2:0:0:0:
192,240,197419,6,0,L|199:204,2,36.1313989013672,8|8|8,1:0|1:0|1:0,2:0:0:0:
272,176,197749,2,0,L|299:200,2,36.1313989013672,10|8|10,1:0|1:0|1:0,2:0:0:0:
304,280,198079,2,0,L|269:291,2,36.1313989013672,8|8|8,1:0|1:0|1:0,2:0:0:0:
301,363,198408,6,0,P|238:365|197:323,1,126.142796154785,14|2,1:0|2:0,2:0:0:0:
368,184,199068,2,0,B|376:232|376:232|360:272|360:272|368:328,1,135.426,14|0,1:0|2:0,2:0:0:0:
440,280,199397,1,10,2:0:0:0:
440,280,199727,5,4,1:0:0:0:
402,264,199810,1,0,1:0:0:0:
362,266,199892,1,8,1:0:0:0:
327,286,199974,1,0,1:0:0:0:
304,320,200057,2,0,L|312:376,3,49.6562015106202,0|0|8|0,1:0|1:0|1:0|1:0,1:0:0:0:
280,208,200386,5,2,1:0:0:0:
246,186,200469,1,0,1:0:0:0:
206,182,200551,1,8,1:0:0:0:
168,200,200634,2,0,L|160:256,1,49.8564015106205,2|0,1:0|1:0,1:0:0:0:
96,336,200799,1,0,1:0:0:0:
96,336,200881,2,0,L|88:280,1,49.8564015106205,10|0,1:0|1:0,1:0:0:0:
64,96,201046,5,2,1:0:0:0:
86,62,201128,1,0,1:0:0:0:
122,45,201211,1,8,1:0:0:0:
162,47,201293,1,0,1:0:0:0:
192,64,201375,1,2,1:0:0:0:
228,96,201458,1,0,1:0:0:0:
276,106,201540,1,8,1:0:0:0:
322,90,201623,1,0,1:0:0:0:
360,64,201705,6,0,L|367:14,3,49.6562015106202,2|0|8|0,1:0|1:0|1:0|1:0,1:0:0:0:
276,106,202035,2,0,L|283:155,3,49.6562015106202,2|0|8|0,1:0|1:0|1:0|1:0,1:0:0:0:
488,208,202364,5,2,1:0:0:0:
454,186,202447,1,0,1:0:0:0:
414,180,202529,1,8,1:0:0:0:
376,192,202612,1,0,1:0:0:0:
344,216,202694,1,2,1:0:0:0:
310,237,202777,1,0,1:0:0:0:
270,241,202859,1,8,1:0:0:0:
233,226,202941,1,0,1:0:0:0:
208,192,203024,5,2,1:0:0:0:
247,198,203106,1,0,1:0:0:0:
278,223,203189,1,8,1:0:0:0:
292,260,203271,1,0,1:0:0:0:
288,304,203354,2,0,L|344:312,3,49.6562015106202,2|0|8|0,1:0|1:0|1:0|1:0,1:0:0:0:
48,152,203683,5,2,1:0:0:0:
51,192,203766,1,0,1:0:0:0:
55,232,203848,1,8,1:0:0:0:
59,272,203930,1,0,1:0:0:0:
64,312,204013,2,0,L|120:320,1,49.8564015106205,0|0,1:0|1:0,1:0:0:0:
232,360,204178,5,10,1:0:0:0:
232,360,204260,1,2,1:0:0:0:
232,360,204343,5,10,1:0:0:0:
257,309,204425,1,8,1:0:0:0:
241,254,204507,1,8,1:0:0:0:
192,224,204590,1,8,1:0:0:0:
137,236,204672,5,8,1:0:0:0:
136,224,204755,1,8,1:0:0:0:
135,212,204837,1,8,1:0:0:0:
134,200,204919,1,8,1:0:0:0:
131,189,205002,5,10,1:0:0:0:
164,131,205084,1,0,1:0:0:0:
226,108,205167,1,8,1:0:0:0:
288,129,205249,1,0,1:0:0:0:
320,184,205332,1,0,1:0:0:0:
323,249,205414,1,0,1:0:0:0:
372,293,205496,1,8,1:0:0:0:
438,290,205579,1,0,1:0:0:0:
482,241,205661,5,0,1:0:0:0:
479,175,205744,1,0,1:0:0:0:
431,131,205826,1,8,1:0:0:0:
365,133,205908,1,0,1:0:0:0:
320,184,205991,1,0,1:0:0:0:
271,227,206073,1,0,1:0:0:0:
205,224,206156,1,10,1:0:0:0:
161,175,206238,1,2,1:0:0:0:
160,109,206321,5,2,1:0:0:0:
203,158,206403,1,0,1:0:0:0:
205,224,206485,1,8,1:0:0:0:
164,277,206568,1,0,1:0:0:0:
100,291,206650,1,0,1:0:0:0:
41,260,206733,1,0,1:0:0:0:
15,200,206815,1,8,1:0:0:0:
34,136,206897,1,0,1:0:0:0:
84,96,206980,6,0,L|93:45,3,49.5044015106202,8|8|8|8,1:0|1:0|1:0|1:0,1:0:0:0:
8,272,207310,5,8,1:0:0:0:
56,233,207392,1,8,1:0:0:0:
119,236,207474,1,8,1:0:0:0:
164,277,207557,1,8,1:0:0:0:
203,326,207639,5,10,1:0:0:0:
248,364,207722,1,0,1:0:0:0:
305,362,207804,1,8,1:0:0:0:
348,324,207886,1,0,1:0:0:0:
352,264,207969,1,0,1:0:0:0:
330,210,208051,1,0,1:0:0:0:
345,155,208134,1,8,1:0:0:0:
391,120,208216,1,0,1:0:0:0:
448,120,208299,6,0,L|456:188,1,58.9211973220837,2|0,1:0|1:0,1:0:0:0:
264,160,208463,1,8,1:0:0:0:
264,160,208546,2,0,L|272:96,1,58.9211973220837,2|0,1:0|1:0,1:0:0:0:
440,256,208711,1,0,1:0:0:0:
440,256,208793,2,0,L|432:320,1,58.9211973220837,10|0,1:0|1:0,1:0:0:0:
248,336,208958,5,2,1:0:0:0:
191,347,209040,1,0,1:0:0:0:
139,322,209123,1,8,1:0:0:0:
113,271,209205,1,0,1:0:0:0:
120,208,209288,5,2,1:0:0:0:
163,170,209370,1,0,1:0:0:0:
178,114,209452,1,8,1:0:0:0:
159,60,209535,1,0,1:0:0:0:
115,23,209617,5,2,1:0:0:0:
133,78,209700,1,0,1:0:0:0:
178,114,209782,1,8,1:0:0:0:
235,122,209864,1,0,1:0:0:0:
296,104,209947,1,2,1:0:0:0:
341,73,210029,1,0,1:0:0:0:
398,80,210112,1,8,1:0:0:0:
443,116,210194,1,0,1:0:0:0:
464,168,210277,6,0,L|472:232,3,58.6845973220835,2|0|8|0,1:0|1:0|1:0|1:0,1:0:0:0:
384,328,210606,2,0,L|391:269,3,58.6845973220835,2|0|8|0,1:0|1:0|1:0|1:0,1:0:0:0:
264,296,210936,5,2,1:0:0:0:
218,260,211018,1,0,1:0:0:0:
209,204,211101,1,8,1:0:0:0:
240,152,211183,2,0,L|304:160,1,58.9211973220837,2|0,1:0|1:0,1:0:0:0:
144,248,211348,1,0,1:0:0:0:
144,248,211430,2,0,L|80:256,1,58.9211973220837,10|0,1:0|1:0,1:0:0:0:
176,88,211595,5,2,1:0:0:0:
221,52,211678,1,0,1:0:0:0:
278,42,211760,1,8,1:0:0:0:
332,62,211843,1,0,1:0:0:0:
368,104,211925,5,2,1:0:0:0:
352,159,212007,1,0,1:0:0:0:
367,215,212090,1,8,1:0:0:0:
409,254,212172,1,0,1:0:0:0:
465,267,212255,5,2,1:0:0:0:
423,227,212337,1,0,1:0:0:0:
367,215,212419,1,8,1:0:0:0:
313,235,212502,1,0,1:0:0:0:
274,275,212584,1,2,1:0:0:0:
230,313,212667,1,0,1:0:0:0:
173,319,212749,1,8,1:0:0:0:
123,290,212832,1,0,1:0:0:0:
96,240,212914,6,0,L|32:248,3,58.6845973220835,2|0|8|0,1:0|1:0|1:0|1:0,1:0:0:0:
152,152,213244,2,0,L|210:144,3,58.6845973220835,0|0|8|0,1:0|1:0|1:0|1:0,1:0:0:0:
224,64,213573,5,2,1:0:0:0:
271,32,213656,1,0,1:0:0:0:
329,35,213738,1,8,1:0:0:0:
376,72,213821,2,0,L|384:136,1,58.9211973220837,2|0,1:0|1:0,1:0:0:0:
448,200,213985,1,0,1:0:0:0:
448,200,214068,2,0,L|440:264,1,58.9211973220837,10|0,1:0|1:0,1:0:0:0:
424,352,214233,5,2,1:0:0:0:
370,370,214315,1,0,1:0:0:0:
318,347,214397,1,8,1:0:0:0:
296,294,214480,1,0,1:0:0:0:
312,240,214562,1,2,1:0:0:0:
353,199,214645,1,0,1:0:0:0:
366,143,214727,1,8,1:0:0:0:
347,88,214810,1,0,1:0:0:0:
302,52,214892,5,2,1:0:0:0:
245,45,214974,1,0,1:0:0:0:
193,70,215057,1,8,1:0:0:0:
162,119,215139,1,0,1:0:0:0:
160,176,215222,1,2,1:0:0:0:
138,228,215304,1,0,1:0:0:0:
87,254,215386,1,8,1:0:0:0:
31,239,215469,1,0,1:0:0:0:
0,192,215551,5,2,1:0:0:0:
55,176,215634,1,0,1:0:0:0:
110,193,215716,1,8,1:0:0:0:
146,238,215799,1,0,1:0:0:0:
144,296,215881,1,2,1:0:0:0:
176,343,215963,1,0,1:0:0:0:
228,369,216046,1,8,1:0:0:0:
285,367,216128,1,0,1:0:0:0:
336,336,216211,5,2,1:0:0:0:
319,280,216293,1,0,1:0:0:0:
333,224,216375,1,8,1:0:0:0:
375,185,216458,1,0,1:0:0:0:
432,176,216540,2,0,L|440:240,3,58.6845973220835,2|0|8|0,1:0|1:0|1:0|1:0,1:0:0:0:
416,48,216870,5,2,1:0:0:0:
392,40,216952,1,0,1:0:0:0:
368,32,217035,1,8,1:0:0:0:
344,24,217117,1,0,1:0:0:0:
320,16,217200,2,0,L|312:88,1,58.9211973220837,0|0,1:0|1:0,1:0:0:0:
248,232,217364,5,10,1:0:0:0:
248,232,217447,1,2,1:0:0:0:
248,232,217529,2,0,L|240:168,1,58.9211973220837,2|0,1:0|1:0,1:0:0:0:
224,32,217694,5,8,1:0:0:0:
153,30,217777,1,8,1:0:0:0:
100,76,217859,1,8,1:0:0:0:
93,146,217941,1,8,1:0:0:0:
136,200,218024,1,8,1:0:0:0:
149,267,218106,1,8,1:0:0:0:
102,320,218189,5,12,1:0:0:0:
149,267,218271,1,0,1:0:0:0:
218,254,218354,1,0,1:0:0:0:
280,287,218436,1,0,1:0:0:0:
312,352,218518,5,8,1:0:0:0:
377,361,218601,1,0,1:0:0:0:
431,324,218683,1,0,1:0:0:0:
445,260,218766,1,0,1:0:0:0:
408,200,218848,5,10,1:0:0:0:
368,146,218930,1,0,1:0:0:0:
374,81,219013,1,0,1:0:0:0:
421,35,219095,1,0,1:0:0:0:
488,32,219178,5,10,1:0:0:0:
449,86,219260,1,0,1:0:0:0:
387,111,219343,1,0,1:0:0:0:
322,98,219425,1,0,1:0:0:0:
272,48,219507,5,10,1:0:0:0:
213,17,219590,1,0,1:0:0:0:
146,21,219672,1,0,1:0:0:0:
92,60,219755,1,0,1:0:0:0:
64,120,219837,5,8,1:0:0:0:
112,127,219919,1,0,1:0:0:0:
161,134,220002,2,0,L|172:84,1,49.8564015106205,0|0,1:0|1:0,1:0:0:0:
323,211,220167,5,8,1:0:0:0:
278,217,220249,1,0,1:0:0:0:
235,223,220332,2,0,L|226:172,1,49.8564015106205,0|0,1:0|1:0,1:0:0:0:
72,280,220496,5,8,1:0:0:0:
111,285,220579,1,0,1:0:0:0:
150,290,220661,2,0,L|158:234,1,49.8564015106205,0|0,1:0|1:0,1:0:0:0:
320,336,220826,5,8,1:0:0:0:
281,341,220908,1,0,1:0:0:0:
242,346,220991,2,0,L|233:290,1,49.8564015106205,0|0,1:0|1:0,1:0:0:0:
376,40,221156,5,10,1:0:0:0:
336,93,221238,1,0,1:0:0:0:
273,114,221321,1,0,1:0:0:0:
209,94,221403,1,0,1:0:0:0:
168,40,221485,5,10,1:0:0:0:
232,53,221568,1,0,1:0:0:0:
273,105,221650,1,0,1:0:0:0:
269,171,221733,1,0,1:0:0:0:
224,216,221815,5,10,1:0:0:0:
170,176,221897,1,0,1:0:0:0:
104,175,221980,1,0,1:0:0:0:
48,211,222062,1,0,1:0:0:0:
26,273,222145,5,10,1:0:0:0:
79,304,222227,1,0,1:0:0:0:
142,303,222310,1,0,1:0:0:0:
195,271,222392,1,0,1:0:0:0:
224,216,222474,5,10,1:0:0:0:
204,157,222557,1,0,1:0:0:0:
222,98,222639,1,0,1:0:0:0:
272,60,222722,1,0,1:0:0:0:
328,56,222804,5,10,1:0:0:0:
303,103,222886,1,0,1:0:0:0:
257,129,222969,1,0,1:0:0:0:
203,128,223051,1,0,1:0:0:0:
160,96,223134,1,10,1:0:0:0:
112,72,223216,1,0,1:0:0:0:
60,82,223299,1,0,1:0:0:0:
25,122,223381,1,0,1:0:0:0:
16,176,223463,6,0,L|64:184,3,49.6562015106202,10|0|0|0,1:0|1:0|1:0|1:0,1:0:0:0:
224,352,223793,5,8,1:0:0:0:
200,344,223875,1,0,1:0:0:0:
176,332,223958,1,0,1:0:0:0:
152,320,224040,1,0,1:0:0:0:
132,308,224123,5,10,1:0:0:0:
82,279,224205,1,0,1:0:0:0:
66,224,224288,1,0,1:0:0:0:
88,176,224370,2,0,L|144:184,1,49.5528015106203,2|8,1:0|1:0,1:0:0:0:
264,120,224535,1,0,1:0:0:0:
264,120,224617,2,0,L|216:112,1,49.5528015106203,2|0,1:0|1:0,1:0:0:0:
132,8,224782,5,10,1:0:0:0:
164,55,224864,1,0,1:0:0:0:
217,78,224947,1,0,1:0:0:0:
274,68,225029,1,0,1:0:0:0:
316,28,225112,1,10,1:0:0:0:
371,13,225194,1,0,1:0:0:0:
427,29,225277,1,0,1:0:0:0:
466,72,225359,1,0,1:0:0:0:
476,128,225441,5,10,1:0:0:0:
456,182,225524,1,0,1:0:0:0:
411,218,225606,1,0,1:0:0:0:
352,224,225689,1,0,1:0:0:0:
300,200,225771,1,10,1:0:0:0:
261,157,225854,1,0,1:0:0:0:
205,141,225936,1,0,1:0:0:0:
150,158,226018,1,0,1:0:0:0:
112,200,226101,5,10,1:0:0:0:
168,190,226183,1,0,1:0:0:0:
208,148,226266,1,0,1:0:0:0:
217,91,226348,1,0,1:0:0:0:
190,40,226430,1,10,1:0:0:0:
139,15,226513,1,0,1:0:0:0:
82,24,226595,1,0,1:0:0:0:
41,64,226678,1,0,1:0:0:0:
32,120,226760,6,0,L|24:168,3,49.6562015106202,10|0|0|0,1:0|1:0|1:0|1:0,1:0:0:0:
120,248,227090,2,0,L|112:200,3,49.6562015106202,10|0|0|0,1:0|1:0|1:0|1:0,1:0:0:0:
140,368,227419,5,10,1:0:0:0:
196,377,227502,1,0,1:0:0:0:
249,355,227584,1,0,1:0:0:0:
281,307,227667,1,0,1:0:0:0:
282,249,227749,1,8,1:0:0:0:
251,200,227832,1,0,1:0:0:0:
196,172,227914,6,0,L|208:104,1,58.9211973220837,2|2,1:0|1:0,1:0:0:0:
408,280,228079,5,10,1:0:0:0:
363,243,228161,1,8,1:0:0:0:
342,189,228244,1,8,1:0:0:0:
354,132,228326,1,8,1:0:0:0:
392,88,228408,5,8,1:0:0:0:
403,152,228491,1,8,1:0:0:0:
370,209,228573,1,8,1:0:0:0:
307,229,228656,1,8,1:0:0:0:
251,200,228738,5,10,1:0:0:0:
202,142,228821,1,0,1:0:0:0:
129,125,228903,1,0,1:0:0:0:
59,154,228985,1,0,1:0:0:0:
21,219,229068,1,8,1:0:0:0:
28,294,229150,1,0,1:0:0:0:
78,350,229233,1,0,1:0:0:0:
151,365,229315,1,0,1:0:0:0:
216,320,229397,5,8,1:0:0:0:
271,282,229480,1,0,1:0:0:0:
337,278,229562,1,0,1:0:0:0:
397,308,229645,1,0,1:0:0:0:
434,363,229727,5,8,1:0:0:0:
368,341,229810,1,0,1:0:0:0:
337,278,229892,1,2,1:0:0:0:
362,212,229974,1,2,1:0:0:0:
428,184,230057,5,10,1:0:0:0:
459,110,230139,1,0,1:0:0:0:
418,41,230222,1,0,1:0:0:0:
338,34,230304,1,0,1:0:0:0:
283,93,230386,1,8,1:0:0:0:
246,165,230469,1,0,1:0:0:0:
167,176,230551,1,0,1:0:0:0:
101,130,230634,1,0,1:0:0:0:
92,52,230716,5,8,1:0:0:0:
172,72,230799,1,8,1:0:0:0:
214,144,230881,1,8,1:0:0:0:
193,225,230963,1,8,1:0:0:0:
124,268,231046,1,8,1:0:0:0:
43,247,231128,1,8,1:0:0:0:
1,175,231211,1,10,1:0:0:0:
22,94,231293,1,8,1:0:0:0:
92,52,231375,6,0,B|128:72|160:56|160:56|192:40|224:56,1,132.34980402832,14|0,2:0|2:0,2:0:0:0:
289,98,231705,5,8,2:0:0:0:
214,144,231815,1,8,2:0:0:0:
218,53,231925,1,8,2:0:0:0:
289,98,232035,6,0,P|352:128|416:104,1,132.34980402832,10|0,2:0|2:0,2:0:0:0:
464,48,232364,5,8,2:0:0:0:
488,128,232474,1,8,2:0:0:0:
480,48,232584,1,8,2:0:0:0:
504,128,232694,6,0,B|512:232|512:232|496:256,1,132.34980402832,10|0,2:0|2:0,2:0:0:0:
436,306,233024,5,8,2:0:0:0:
359,265,233134,1,8,2:0:0:0:
283,302,233244,1,8,2:0:0:0:
209,349,233354,5,10,2:0:0:0:
128,368,233463,1,8,2:0:0:0:
56,320,233573,1,8,2:0:0:0:
40,240,233683,5,10,2:0:0:0:
96,175,233793,1,8,2:0:0:0:
155,235,233903,1,8,2:0:0:0:
216,176,234013,6,0,P|168:152|96:176,1,132.34980402832,14|0,2:0|2:0,2:0:0:0:
40,240,234343,5,8,2:0:0:0:
96,175,234452,1,8,2:0:0:0:
48,104,234562,1,8,2:0:0:0:
40,264,234672,6,0,L|176:272,1,132.34980402832,10|0,2:0|2:0,2:0:0:0:
224,336,235002,5,8,2:0:0:0:
312,328,235112,1,8,2:0:0:0:
400,320,235222,1,8,2:0:0:0:
304,296,235332,6,0,B|280:264|280:264|288:168,1,132.34980402832,10|0,2:0|2:0,2:0:0:0:
296,56,235661,5,8,2:0:0:0:
400,16,235771,1,8,2:0:0:0:
384,120,235881,1,8,2:0:0:0:
312,40,235991,5,10,2:0:0:0:
423,37,236101,1,8,2:0:0:0:
372,130,236211,1,8,2:0:0:0:
328,24,236321,5,10,2:0:0:0:
433,59,236430,1,8,2:0:0:0:
353,129,236540,1,8,2:0:0:0:
240,104,236650,6,0,B|184:88|136:144|136:144|64:104|-24:152|-8:256|80:328|176:360|176:360|248:288|280:216|248:168,1,720.160800000011,14|0,2:0|2:0,2:0:0:0:
