osu file format v14

[General]
AudioFilename: audio.ogg
AudioLeadIn: 0
PreviewTime: 137668
Countdown: 0
SampleSet: Soft
StackLeniency: 0.5
Mode: 0
LetterboxInBreaks: 0
WidescreenStoryboard: 1

[Editor]
Bookmarks: 8410,24410,40410,56410,72410,88410,104410,120410,136410,138410,154410,170410
DistanceSpacing: 1
BeatDivisor: 4
GridSize: 4
TimelineZoom: 1

[Metadata]
Title:Your Love Is My Drug
TitleUnicode:Your Love Is My Drug
Artist:Ke$ha
ArtistUnicode:Ke$ha
Creator:Gaz
Version:Hard
Source:
Tags:english electronic dance pop electropop kesha animal gazza garzah starcastler
BeatmapID:4142694
BeatmapSetID:1993522

[Difficulty]
HPDrainRate:4
CircleSize:4
OverallDifficulty:6
ApproachRate:7
SliderMultiplier:1.8
SliderTickRate:1

[Events]
//Background and Video events
0,0,"kesha.jpg",0,0
//Break Periods
//Storyboard Layer 0 (Background)
//Storyboard Layer 1 (Fail)
//Storyboard Layer 2 (Pass)
//Storyboard Layer 3 (Foreground)
//Storyboard Layer 4 (Overlay)
//Storyboard Sound Samples

[TimingPoints]
8418,500,4,2,0,50,1,0
24418,-90.9090909090909,4,2,0,50,0,0
40418,-80,4,1,0,65,0,1
56418,-90.9090909090909,4,2,0,50,0,0
72418,-90.9090909090909,4,2,0,50,0,0
88418,-80,4,1,0,65,0,1
104418,-133.333333333333,4,2,0,50,0,0
120418,-111.111111111111,4,2,0,50,0,0
136418,-111.111111111111,4,2,0,5,0,0
137668,-111.111111111111,4,2,0,65,0,0
138418,-76.9230769230769,4,1,0,65,0,1
170418,-100,4,2,0,50,0,0

[Colours]
Combo1 : 205,58,94
Combo2 : 19,215,117
Combo3 : 21,232,255

[HitObjects]
158,268,8418,5,4,3:2:0:0:
158,268,8918,2,0,P|133:282|104:290,2,45,2|0|0,1:2|0:0|0:0,0:0:0:0:
238,226,9418,1,2,3:0:0:0:
318,266,9668,1,0,0:0:0:0:
324,355,9918,2,0,P|365:373|426:359,1,90,2|0,1:2|0:0,0:0:0:0:
408,367,10668,5,2,0:0:0:0:
457,292,10918,2,0,P|479:289|501:283,2,45,2|0|0,1:2|0:0|0:0,0:0:0:0:
415,211,11418,1,2,3:0:0:0:
334,171,11668,1,0,0:0:0:0:
358,84,11918,1,2,1:2:0:0:
358,84,12418,5,0,3:0:0:0:
302,13,12668,1,2,0:0:0:0:
213,31,12918,2,0,L|100:41,1,90,2|0,1:2|0:0,0:0:0:0:
99,125,13418,2,0,L|211:135,1,90,2|0,3:0|0:0,0:0:0:0:
218,218,13918,2,0,L|105:228,1,90,2|0,1:2|0:0,0:0:0:0:
128,226,14668,5,2,0:0:0:0:
64,290,14918,2,0,L|7:294,2,45,2|0|0,1:2|0:0|0:0,0:0:0:0:
131,351,15418,1,2,3:0:0:0:
215,319,15668,1,2,0:0:0:0:
291,366,15918,1,2,1:2:0:0:
291,366,16418,5,0,3:0:0:0:
357,305,16668,1,2,0:0:0:0:
333,217,16918,2,0,L|390:221,2,45,2|0|0,1:2|0:0|0:0,0:0:0:0:
274,148,17418,1,2,3:0:0:0:
212,213,17668,1,0,0:0:0:0:
122,202,17918,2,0,P|126:247|169:293,2,90,2|0|0,1:2|0:0|3:0,0:0:0:0:
88,118,18668,5,2,0:0:0:0:
28,50,18918,2,0,P|12:34|-1:16,2,45,2|0|0,1:2|0:0|0:0,0:0:0:0:
112,19,19418,1,2,3:0:0:0:
167,90,19668,1,0,0:0:0:0:
247,49,19918,2,2,P|288:30|349:44,2,90,2|0|0,1:2|0:0|3:0,0:0:0:0:
303,119,20668,5,2,0:0:0:0:
392,108,20918,2,0,P|410:96|428:82,2,45,2|0|0,1:2|0:0|0:0,0:0:0:0:
377,196,21418,2,0,P|369:240|398:295,1,90,2|2,3:0|0:0,0:0:0:0:
419,364,21918,2,0,P|373:356|318:385,1,90,2|0,1:2|0:0,0:0:0:0:
251,384,22418,5,10,3:1:0:0:
251,384,22543,1,2,0:0:0:0:
251,384,22668,1,2,0:0:0:0:
185,322,22918,2,0,L|178:215,1,90,2|8,1:2|0:1,0:0:0:0:
136,152,23418,1,2,3:0:0:0:
66,209,23668,1,2,0:0:0:0:
9,139,23918,1,10,1:3:0:0:
9,139,24418,6,0,B|88:120|103:18,1,148.50000453186,2|2,3:0|0:0,0:0:0:0:
100,33,24918,1,8,1:0:0:0:
196,10,25168,2,0,P|243:1|286:22,1,99.0000030212403,2|0,0:0|3:0,0:0:0:0:
340,110,25668,2,0,P|383:132|430:122,1,99.0000030212403,2|8,0:0|1:0,0:0:0:0:
507,58,26168,1,0,0:0:0:0:
510,157,26418,6,0,L|502:341,1,148.50000453186,2|2,3:0|0:0,0:0:0:0:
503,305,26918,1,8,1:0:0:0:
435,377,27168,2,0,B|359:287|258:349,1,198.000006042481,2|0,0:0|0:0,0:0:0:0:
162,371,27918,2,0,P|152:312|126:276,1,99.0000030212403,8|0,1:3|0:0,0:0:0:0:
66,205,28418,6,0,B|145:194|165:108,1,148.50000453186,2|2,3:0|0:0,0:0:0:0:
164,108,28918,1,8,1:0:0:0:
256,68,29168,2,0,B|362:114|332:47|456:102,2,198.000006042481,2|2|0,0:0|0:0|0:0,0:0:0:0:
182,1,30418,6,0,P|112:23|66:80,1,148.50000453186,2|2,3:0|0:0,0:0:0:0:
66,79,30918,1,8,1:0:0:0:
110,167,31168,2,0,B|162:282|95:252|141:358,1,198.000006042481,2|0,0:0|0:0,0:0:0:0:
237,380,31918,2,0,P|295:370|331:344,1,99.0000030212403,8|0,1:0|0:0,0:0:0:0:
372,259,32418,5,2,1:0:0:0:
224,244,32793,1,2,0:1:0:0:
225,95,33168,1,2,0:1:0:0:
225,95,33418,2,0,L|337:89,1,99.0000030212403,0|0,3:0|0:0,0:0:0:0:
397,22,33918,2,0,L|509:28,1,99.0000030212403,8|0,1:0|0:0,0:0:0:0:
485,126,34418,5,2,1:0:0:0:
352,192,34793,1,2,0:1:0:0:
424,328,35168,1,2,0:1:0:0:
424,328,35418,2,0,B|378:367|312:332,1,99.0000030212403,0|0,3:0|0:0,0:0:0:0:
251,281,35918,2,0,B|203:254|158:294,1,99.0000030212403,8|0,1:0|0:0,0:0:0:0:
78,350,36418,5,2,1:0:0:0:
0,223,36793,1,2,0:1:0:0:
125,141,37168,1,2,0:1:0:0:
125,141,37418,2,0,B|184:147|207:99,1,99.0000030212403,0|2,3:0|0:0,0:0:0:0:
306,99,37918,2,0,B|329:147|388:141,1,99.0000030212403,8|0,1:0|0:0,0:0:0:0:
391,245,38418,5,2,1:0:0:0:
256,304,38793,1,2,0:1:0:0:
121,245,39168,1,2,0:1:0:0:
97,49,40418,6,2,L|110:165,1,112.5,6|0,0:0|0:0,0:0:0:0:
215,207,40918,1,8,0:0:0:0:
203,96,41168,2,2,L|216:212,1,112.5,2|0,0:0|0:0,0:0:0:0:
320,253,41668,1,0,0:0:0:0:
308,142,41918,2,2,L|321:258,1,112.5,10|0,0:0|0:0,0:0:0:0:
294,363,42418,1,0,0:0:0:0:
222,290,42668,1,0,0:0:0:0:
222,290,42793,1,0,0:0:0:0:
222,290,42918,1,8,0:0:0:0:
144,371,43168,2,2,B|-2:371|-2:215,1,225,2|0,0:0|0:0,0:0:0:0:
28,126,43918,2,0,B|85:147|136:98,1,112.5,8|0,3:1|0:0,0:0:0:0:
220,9,44418,6,2,B|238:51|278:63|322:44,1,112.5,2|0,0:0|0:0,0:0:0:0:
301,164,44918,1,8,0:0:0:0:
395,126,45168,2,2,B|377:168|337:180|293:161,1,112.5,2|0,0:0|0:0,0:0:0:0:
321,280,45668,1,0,0:0:0:0:
227,242,45918,2,2,B|245:284|285:296|329:277,1,112.5,10|0,0:0|0:0,0:0:0:0:
438,272,46418,1,0,0:0:0:0:
487,167,46668,1,0,0:0:0:0:
487,167,46793,1,0,0:0:0:0:
487,167,46918,1,8,0:0:0:0:
373,200,47168,2,0,B|299:182|304:133|310:87|277:45|208:49,1,225
114,62,47918,2,0,B|135:119|86:170,1,112.5,8|0,3:1|0:0,0:0:0:0:
28,259,48418,6,2,L|141:267,1,112.5,6|0,0:0|0:0,0:0:0:0:
252,275,48918,1,8,0:0:0:0:
199,374,49168,2,2,L|312:366,1,112.5,2|0,0:0|0:0,0:0:0:0:
427,352,49668,1,0,0:0:0:0:
368,256,49918,2,2,L|481:264,1,112.5,10|0,0:0|0:0,0:0:0:0:
507,159,50418,1,0,0:0:0:0:
403,123,50668,1,0,0:0:0:0:
403,123,50793,1,0,0:0:0:0:
403,123,50918,1,8,0:0:0:0:
456,16,51168,2,2,B|368:-10|326:44|228:27,1,225,2|0,0:0|0:0,0:0:0:0:
149,75,51918,2,0,L|157:188,1,112.5,8|0,3:1|0:0,0:0:0:0:
207,307,52418,6,2,B|157:274|97:297,1,112.5,2|0,0:0|0:0,0:0:0:0:
156,187,52918,1,8,0:0:0:0:
49,198,53168,2,2,B|99:165|159:188,1,112.5,2|0,0:0|0:0,0:0:0:0:
109,82,53668,1,0,0:0:0:0:
217,93,53918,2,2,B|167:60|107:83,1,112.5,10|0,0:0|0:0,0:0:0:0:
3,120,54418,1,0,0:0:0:0:
45,235,54668,1,0,0:0:0:0:
45,235,54793,1,0,0:0:0:0:
45,235,54918,1,8,0:0:0:0:
148,189,55168,2,0,B|294:189|294:345,1,225
393,384,55918,1,8,3:1:0:0:
393,384,56168,1,4,0:0:0:0:
493,244,56668,5,2,0:0:0:0:
451,154,56918,2,0,P|458:130|473:101,2,49.5000015106202,10|0|0,0:0|0:0|0:0,0:0:0:0:
382,226,57418,1,2,0:0:0:0:
293,180,57668,1,2,0:0:0:0:
234,260,57918,1,8,3:1:0:0:
234,260,58168,2,0,P|183:272|117:263,1,99.0000030212403,2|0,0:0|1:0,0:0:0:0:
96,177,58668,6,0,L|106:110,1,49.5000015106202,2|0,0:0|0:0,0:0:0:0:
68,93,58918,2,0,L|78:26,1,49.5000015106202,8|0,0:1|0:0,0:0:0:0:
112,11,59168,1,2,0:0:0:0:
210,16,59418,2,0,P|257:27|307:24,1,99.0000030212403,2|2,1:2|0:0,0:0:0:0:
371,106,59918,1,8,3:1:0:0:
371,106,60168,2,0,P|359:153|362:203,1,99.0000030212403,2|0,0:0|1:0,0:0:0:0:
413,287,60668,5,2,0:0:0:0:
493,229,60918,2,0,L|498:111,1,99.0000030212403,8|0,2:1|0:0,0:0:0:0:
503,83,61293,1,0,0:0:0:0:
503,83,61418,2,0,P|463:55|426:20,1,99.0000030212403,2|0,1:2|0:0,0:0:0:0:
327,20,61918,2,0,P|291:53|250:82,1,99.0000030212403,10|0,2:1|0:0,0:0:0:0:
154,55,62418,5,0,1:0:0:0:
132,151,62668,1,0,0:0:0:0:
33,147,62918,2,0,P|19:201|29:255,1,99.0000030212403,10|0,2:1|0:0,0:0:0:0:
118,273,63418,1,2,1:2:0:0:
136,370,63668,1,0,0:0:0:0:
229,337,63918,2,2,B|353:308|316:384|450:348,1,198.000006042481,10|0,2:1|1:0,0:0:0:0:
489,282,64668,5,0,0:0:0:0:
414,217,64918,2,0,P|440:182|463:127,1,99.0000030212403,8|0,2:1|0:0,0:0:0:0:
389,63,65418,1,2,1:2:0:0:
302,111,65668,1,0,0:0:0:0:
315,209,65918,2,2,B|315:337|171:337,1,198.000006042481,10|0,2:1|1:0,0:0:0:0:
95,326,66668,5,0,0:0:0:0:
68,230,66918,2,0,P|79:188|81:128,1,99.0000030212403,8|0,2:1|0:0,0:0:0:0:
125,43,67418,2,0,P|150:48|177:48,1,49.5000015106202,2|0,1:2|0:0,0:0:0:0:
222,35,67668,2,0,P|246:35|270:40,1,49.5000015106202,2|0,0:0|0:0,0:0:0:0:
289,86,67918,2,2,B|363:82|394:178|479:173,1,198.000006042481,10|0,2:1|1:0,0:0:0:0:
511,259,68668,5,0,0:0:0:0:
460,344,68918,2,2,P|415:362|370:344,1,99.0000030212403,10|0,2:1|0:0,0:0:0:0:
272,326,69418,2,0,L|266:263,1,49.5000015106202,2|0,1:2|0:0,0:0:0:0:
240,234,69668,2,0,L|234:171,1,49.5000015106202
218,137,69918,1,10,2:1:0:0:
150,64,70168,1,0,0:0:0:0:
72,125,70418,6,0,P|65:152|71:181,1,49.5000015106202,2|0,0:0|0:0,0:0:0:0:
105,206,70668,2,0,P|107:230|100:254,1,49.5000015106202,2|0,0:0|0:0,0:0:0:0:
81,299,70918,1,2,0:0:0:0:
158,376,71168,1,2,0:0:0:0:
158,376,71293,1,0,0:0:0:0:
158,376,71418,1,2,0:0:0:0:
231,310,71668,1,0,0:0:0:0:
309,369,71918,2,0,P|353:387|398:369,1,99.0000030212403,2|0,0:0|0:0,0:0:0:0:
497,361,72418,6,0,L|483:213,1,148.50000453186,6|2,1:0|0:0,0:0:0:0:
483,213,72918,1,8,2:1:0:0:
474,114,73168,2,0,P|427:105|382:125,1,99.0000030212403,2|0,0:0|1:0,0:0:0:0:
333,212,73668,2,0,P|288:232|240:222,1,99.0000030212403,0|8,0:0|2:1,0:0:0:0:
158,167,74168,1,0,0:0:0:0:
79,226,74418,6,0,B|14:175|44:76,1,148.50000453186,2|2,1:0|0:0,0:0:0:0:
39,91,74918,1,8,2:1:0:0:
107,19,75168,2,0,B|221:35|174:-20|308:0,1,198.000006042481,2|0,0:0|0:0,0:0:0:0:
356,80,75918,2,0,L|346:188,1,99.0000030212403,8|0,3:1|0:0,0:0:0:0:
309,270,76418,6,0,B|244:221|170:268,1,148.50000453186,2|2,1:0|0:0,0:0:0:0:
170,267,76917,1,8,2:1:0:0:
79,308,77168,2,0,B|67:192|15:245|4:98,2,198.000006042481,2|0|0,0:0|0:0|0:0,0:0:0:0:
161,362,78418,6,0,L|329:373,1,148.50000453186,2|2,1:0|0:0,0:0:0:0:
309,371,78918,1,8,2:1:0:0:
410,359,79168,2,0,B|498:271|412:186,1,198.000006042481,2|0,0:0|0:0,0:0:0:0:
315,214,79918,2,0,P|266:217|224:192,1,99.0000030212403,8|0,3:1|0:0,0:0:0:0:
155,120,80418,5,2,1:0:0:0:
24,192,80793,1,2,0:1:0:0:
111,318,81168,1,2,0:1:0:0:
111,318,81418,2,0,L|223:324,1,99.0000030212403,0|0,1:0|0:0,0:0:0:0:
291,380,81918,2,0,L|403:374,1,99.0000030212403,8|0,2:1|0:0,0:0:0:0:
488,366,82418,5,2,1:0:0:0:
371,273,82793,1,2,0:1:0:0:
482,174,83168,1,2,0:1:0:0:
482,174,83418,2,0,B|437:132|463:85,1,99.0000030212403,0|0,1:0|0:0,0:0:0:0:
381,29,83918,2,0,B|338:74|292:48,1,99.0000030212403,8|0,3:1|0:0,0:0:0:0:
198,15,84418,5,2,1:0:0:0:
165,159,84793,1,2,0:1:0:0:
22,134,85168,1,2,0:1:0:0:
22,134,85418,2,0,L|17:248,1,99.0000030212403,0|0,1:0|0:0,0:0:0:0:
67,318,85918,2,0,P|116:314|160:336,1,99.0000030212403,8|0,2:1|0:0,0:0:0:0:
256,340,86418,5,2,1:0:0:0:
256,192,86793,1,2,0:1:0:0:
256,44,87168,1,2,0:1:0:0:
472,31,88418,6,2,B|454:73|414:85|370:66,1,112.5,6|0,0:0|0:0,0:0:0:0:
371,187,88918,1,8,0:0:0:0:
465,149,89168,2,2,B|447:191|407:203|363:184,1,112.5,2|0,0:0|0:0,0:0:0:0:
357,304,89668,1,0,0:0:0:0:
451,266,89918,2,2,B|433:308|393:320|349:301,1,112.5,10|0,0:0|0:0,0:0:0:0:
256,248,90418,1,0,0:0:0:0:
197,346,90668,1,0,0:0:0:0:
197,346,90793,1,0,0:0:0:0:
197,346,90918,1,8,0:0:0:0:
97,295,91168,2,2,B|71:207|125:165|108:67,1,225,2|0,0:0|0:0,0:0:0:0:
196,2,91918,2,0,B|219:66|283:52,1,112.5,8|0,3:1|0:0,0:0:0:0:
391,0,92418,6,2,L|507:13,1,112.5,2|0,0:0|0:0,0:0:0:0:
404,78,92918,1,8,0:0:0:0:
497,144,93168,2,2,L|381:157,1,112.5,2|0,0:0|0:0,0:0:0:0:
482,224,93668,1,0,0:0:0:0:
384,290,93918,2,2,L|500:303,1,112.5,10|0,0:0|0:0,0:0:0:0:
455,384,94418,1,0,0:0:0:0:
350,380,94668,1,0,0:0:0:0:
350,380,94793,1,0,0:0:0:0:
350,380,94918,1,8,0:0:0:0:
238,367,95168,2,0,B|329:257|225:171,1,225
137,241,95918,2,0,P|80:258|17:247,1,112.5,8|0,3:1|0:0,0:0:0:0:
2,131,96418,6,2,L|11:8,1,112.5,6|0,0:0|0:0,0:0:0:0:
94,119,96918,1,8,0:0:0:0:
103,7,97168,2,2,L|94:130,1,112.5,2|0,0:0|0:0,0:0:0:0:
192,36,97668,1,0,0:0:0:0:
184,149,97918,2,2,L|193:26,1,112.5,10|0,0:0|0:0,0:0:0:0:
299,4,98418,1,0,0:0:0:0:
367,105,98668,1,0,0:0:0:0:
367,105,98793,1,0,0:0:0:0:
367,105,98918,1,8,0:0:0:0:
309,201,99168,2,2,B|375:237|358:283|340:326|361:375|429:389,1,225,2|0,0:0|1:0,0:0:0:0:
495,308,99918,2,0,P|491:236|461:188,1,112.5,8|0,3:1|0:0,0:0:0:0:
462,77,100418,6,2,B|444:119|404:131|360:112,1,112.5,2|0,0:0|0:0,0:0:0:0:
250,135,100918,1,8,0:0:0:0:
289,43,101168,2,2,B|304:78|292:118|250:136,1,112.5,2|0,0:0|0:0,0:0:0:0:
178,237,101668,1,0,0:0:0:0:
141,145,101918,2,2,B|177:158|196:195|179:237,1,112.5,10|0,0:0|0:0,0:0:0:0:
159,347,102418,1,0,0:0:0:0:
54,369,102668,1,0,0:0:0:0:
54,369,102793,1,0,0:0:0:0:
54,369,102918,1,8,0:0:0:0:
12,264,103168,2,0,B|69:153|-27:130|37:36,1,225
123,119,103918,1,8,3:1:0:0:
123,119,104168,1,4,0:0:0:0:
158,24,104418,6,0,B|211:85|277:38,1,135.000005149842,4|2,1:0|0:0,0:0:0:0:
336,94,105418,2,2,B|274:147|321:213,1,135.000005149842,2|2,1:2|0:0,0:0:0:0:
256,262,106418,2,0,B|202:200|136:247,1,135.000005149842,0|2,1:0|0:0,0:0:0:0:
86,310,107418,1,0,1:2:0:0:
325,351,108418,6,0,L|486:332,1,135.000005149842,0|2,1:2|0:0,0:0:0:0:
453,254,109418,2,2,L|292:273,1,135.000005149842,2|2,1:2|0:0,0:0:0:0:
308,189,110418,2,0,L|469:170,1,135.000005149842,0|2,1:2|0:0,0:0:0:0:
497,113,111418,1,2,1:2:0:0:
206,48,112418,6,0,B|131:40|139:82|76:77,2,135.000005149842,0|2|0,1:0|0:0|1:0,0:0:0:0:
256,112,113918,1,2,0:0:0:0:
307,174,114418,2,0,B|381:166|373:208|436:203,2,135.000005149842,0|2|0,1:0|0:0|1:0,0:0:0:0:
256,236,115918,1,2,0:0:0:0:
181,333,116418,6,0,B|101:317|108:236,1,135.000005149842,0|2,1:0|0:0,0:0:0:0:
151,167,117418,2,0,B|157:86|78:70,1,135.000005149842,0|2,1:0|0:0,0:0:0:0:
256,192,118418,12,2,119918,0:0:0:0:
0,346,120418,6,0,B|67:337|53:374|126:363,1,121.499996292114,4|0,1:0|0:0,0:0:0:0:
117,364,120918,1,8,2:1:0:0:
171,304,121168,1,0,1:0:0:0:
171,80,121918,1,8,2:1:0:0:
324,131,122418,2,0,P|366:119|397:98,1,80.9999975280763,0|0,1:0|1:0,0:0:0:0:
461,47,122918,1,10,2:1:0:0:
461,47,123168,1,0,1:0:0:0:
357,267,123918,1,8,2:1:0:0:
164,245,124418,6,0,P|122:199|122:124,1,121.499996292114,0|0,1:0|0:0,0:0:0:0:
116,142,124918,1,8,2:1:0:0:
197,142,125168,1,2,1:2:0:0:
4,308,125918,1,8,2:1:0:0:
164,330,126418,2,0,L|267:341,1,80.9999975280763,0|0,1:0|1:0,0:0:0:0:
329,347,126918,1,10,2:1:0:0:
329,347,127168,1,0,1:0:0:0:
396,201,127668,1,2,0:0:0:0:
396,201,127918,1,10,2:1:0:0:
237,231,128418,6,0,B|246:164|209:178|220:105,1,121.499996292114,0|0,1:0|0:0,0:0:0:0:
218,113,128918,1,8,2:1:0:0:
237,35,129168,1,0,1:0:0:0:
106,129,129668,1,2,0:0:0:0:
106,129,129918,1,10,2:1:0:0:
219,244,130418,2,0,P|257:271|297:275,1,80.9999975280763,0|0,1:0|1:0,0:0:0:0:
375,285,130918,1,8,2:1:0:0:
375,285,131168,1,0,1:0:0:0:
456,146,131668,1,2,0:0:0:0:
456,146,131918,1,10,2:1:0:0:
374,7,132418,6,0,P|314:8|267:45,1,121.499996292114,0|0,1:0|0:0,0:0:0:0:
267,44,132918,1,8,2:1:0:0:
256,124,133168,1,0,1:0:0:0:
420,146,133668,1,2,0:0:0:0:
420,146,133918,1,10,2:1:0:0:
295,250,134418,6,0,L|192:261,1,80.9999975280763,0|0,1:0|1:0,0:0:0:0:
137,273,134918,1,8,2:1:0:0:
137,273,135168,1,0,1:0:0:0:
4,188,135668,1,2,0:0:0:0:
4,188,135918,2,0,B|18:136|77:105|133:116,1,161.999995056153,2|0,0:0|0:0,0:0:0:0:
256,256,137668,6,0,L|256:352,2,80.9999975280763,2|2|2,0:0|0:0|0:0,0:0:0:0:
333,168,138418,2,2,B|373:185|416:163|422:121,1,116.999994644165,6|0,0:0|0:0,0:0:0:0:
427,21,138918,1,8,0:0:0:0:
427,21,139168,2,2,B|391:47|388:95|422:121,1,116.999994644165,2|0,0:0|0:0,0:0:0:0:
506,176,139668,1,0,0:0:0:0:
506,176,139918,2,2,B|501:132|460:105|421:121,1,116.999994644165,10|0,0:0|0:0,0:0:0:0:
323,184,140418,1,0,0:0:0:0:
256,80,140668,1,0,0:0:0:0:
256,80,140793,1,0,0:0:0:0:
256,80,140918,1,8,0:0:0:0:
189,184,141168,2,2,B|190:260|142:267|96:274|64:316|85:385,1,233.999989288331,2|0,0:0|1:0,0:0:0:0:
199,384,141918,2,0,L|316:372,1,116.999994644165,8|0,3:1|0:0,0:0:0:0:
367,266,142418,6,2,L|355:148,1,116.999994644165,2|0,0:0|0:0,0:0:0:0:
258,79,142918,1,8,0:0:0:0:
270,196,143168,2,2,L|258:78,1,116.999994644165,2|0,0:0|0:0,0:0:0:0:
155,20,143668,1,0,0:0:0:0:
167,137,143918,2,2,L|155:19,1,116.999994644165,10|0,0:0|0:0,0:0:0:0:
38,1,144418,1,0,0:0:0:0:
59,124,144668,1,0,0:0:0:0:
59,124,144793,1,0,0:0:0:0:
59,124,144918,1,8,0:0:0:0:
75,239,145168,2,0,B|203:312|283:174,1,233.999989288331
281,70,145918,1,8,3:1:0:0:
394,42,146168,1,0,0:0:0:0:
462,136,146418,6,2,B|472:178|454:214|414:232,1,116.999994644165,6|0,0:0|0:0,0:0:0:0:
319,293,146918,1,8,0:0:0:0:
416,340,147168,2,2,B|374:350|338:332|319:292,1,116.999994644165,2|0,0:0|0:0,0:0:0:0:
239,205,147668,1,0,0:0:0:0:
193,302,147918,2,2,B|183:260|201:224|240:205,1,116.999994644165,10|0,0:0|0:0,0:0:0:0:
346,156,148418,1,0,0:0:0:0:
290,64,148668,1,0,0:0:0:0:
290,64,148793,1,0,0:0:0:0:
290,64,148918,1,8,0:0:0:0:
184,114,149168,2,2,B|79:181|150:249|48:299,1,233.999989288331,2|0,0:0|0:0,0:0:0:0:
0,191,149918,2,0,P|-5:136|31:83,1,116.999994644165,8|0,3:1|0:0,0:0:0:0:
163,0,150418,6,2,L|184:118,1,116.999994644165,2|0,0:0|0:0,0:0:0:0:
254,207,150918,1,8,0:0:0:0:
275,92,151168,2,2,L|254:210,1,116.999994644165,2|0,0:0|0:0,0:0:0:0:
187,302,151668,1,0,0:0:0:0:
167,187,151918,2,2,L|188:305,1,116.999994644165,10|0,0:0|0:0,0:0:0:0:
274,384,152418,1,0,0:0:0:0:
359,304,152668,1,0,0:0:0:0:
359,304,152793,1,0,0:0:0:0:
359,304,152918,1,8,0:0:0:0:
455,369,153168,2,0,B|582:294|502:156,1,233.999989288331
404,120,153918,1,8,3:1:0:0:
462,18,154168,1,0,0:0:0:0:
346,2,154418,6,2,B|307:21|289:57|299:99,1,116.999994644165,6|0,0:0|0:0,0:0:0:0:
196,155,154918,1,8,0:0:0:0:
243,252,155168,2,2,B|253:210|235:174|196:155,1,116.999994644165,2|0,0:0|0:0,0:0:0:0:
88,109,155668,1,0,0:0:0:0:
135,12,155918,2,2,B|145:54|127:90|88:109,1,116.999994644165,10|0,0:0|0:0,0:0:0:0:
0,192,156418,1,0,0:0:0:0:
88,276,156668,1,0,0:0:0:0:
88,276,156793,1,0,0:0:0:0:
88,276,156918,1,8,0:0:0:0:
13,368,157168,2,2,P|129:366|245:384,1,233.999989288331,2|0,0:0|0:0,0:0:0:0:
315,290,157918,1,8,3:1:0:0:
393,377,158168,1,0,0:0:0:0:
315,290,158418,6,2,B|292:253|254:240|213:254,1,116.999994644165,2|0,0:0|0:0,0:0:0:0:
196,138,158918,1,8,0:0:0:0:
95,174,159168,2,2,B|117:137|155:124|196:138,1,116.999994644165,2|0,0:0|0:0,0:0:0:0:
222,24,159668,1,0,0:0:0:0:
323,60,159918,2,2,B|300:23|262:10|221:24,1,116.999994644165,10|0,0:0|0:0,0:0:0:0:
108,52,160418,1,0,0:0:0:0:
196,138,160668,1,0,0:0:0:0:
196,138,160793,1,0,0:0:0:0:
196,138,160918,1,8,0:0:0:0:
111,219,161168,2,0,B|133:255|171:268|212:254,1,116.999994644165
317,306,161668,1,0,0:0:0:0:
314,189,161918,1,8,3:1:0:0:
317,306,162168,1,0,0:0:0:0:
433,359,162418,6,2,L|451:237,1,116.999994644165,6|0,0:0|0:0,0:0:0:0:
470,128,162918,1,8,0:0:0:0:
488,13,163168,2,2,L|470:135,1,116.999994644165,2|0,0:0|0:0,0:0:0:0:
367,184,163668,1,0,0:0:0:0:
265,149,163918,2,2,B|287:185|325:198|366:184,1,116.999994644165,10|0,0:0|0:0,0:0:0:0:
350,68,164418,1,0,0:0:0:0:
240,68,164668,1,0,0:0:0:0:
240,68,164793,1,0,0:0:0:0:
240,68,164918,1,8,0:0:0:0:
196,176,165168,2,2,B|56:213|16:71,1,233.999989288331,2|0,0:0|0:0,0:0:0:0:
109,2,165918,1,8,3:1:0:0:
17,75,166168,1,0,0:0:0:0:
130,100,166418,6,2,B|171:93|202:68|215:28,1,116.999994644165,2|0,0:0|0:0,0:0:0:0:
309,95,166918,1,8,0:0:0:0:
395,167,167168,2,2,B|354:160|323:135|309:95,1,116.999994644165,2|0,0:0|0:0,0:0:0:0:
212,162,167668,1,0,0:0:0:0:
128,234,167918,2,2,B|169:227|200:202|213:162,1,116.999994644165,10|0,0:0|0:0,0:0:0:0:
304,238,168418,1,0,0:0:0:0:
256,348,168668,1,0,0:0:0:0:
256,348,168793,1,0,0:0:0:0:
256,348,168918,1,8,0:0:0:0:
372,359,169168,2,0,L|497:371,1,116.999994644165
480,252,169668,5,0,0:0:0:0:
376,175,169918,1,8,3:1:0:0:
422,55,170168,1,4,0:0:0:0:
