osu file format v14

[General]
AudioFilename: audio.ogg
AudioLeadIn: 0
PreviewTime: 137668
Countdown: 0
SampleSet: Normal
StackLeniency: 0.6
Mode: 0
LetterboxInBreaks: 0
WidescreenStoryboard: 1

[Editor]
Bookmarks: 8410,24410,40410,56410,72410,88410,104410,120410,136410,138410,154410,170410
DistanceSpacing: 0.8
BeatDivisor: 4
GridSize: 4
TimelineZoom: 1

[Metadata]
Title:Your Love Is My Drug
TitleUnicode:Your Love Is My Drug
Artist:Ke$ha
ArtistUnicode:Ke$ha
Creator:Gaz
Version:Collab Normal
Source:
Tags:english electronic dance pop electropop kesha animal gazza garzah starcastler
BeatmapID:4142692
BeatmapSetID:1993522

[Difficulty]
HPDrainRate:3
CircleSize:3
OverallDifficulty:4
ApproachRate:5
SliderMultiplier:1.6
SliderTickRate:2

[Events]
//Background and Video events
0,0,"kesha.jpg",0,0
//Break Periods
//Storyboard Layer 0 (Background)
//Storyboard Layer 1 (Fail)
//Storyboard Layer 2 (Pass)
//Storyboard Layer 3 (Foreground)
//Storyboard Layer 4 (Overlay)
//Storyboard Sound Samples

[TimingPoints]
8418,500,4,1,0,40,1,0
24418,-90.9090909090909,4,1,0,50,0,0
40418,-80,4,1,0,60,0,1
56418,-90.9090909090909,4,1,0,45,0,0
72418,-90.9090909090909,4,1,0,50,0,0
88418,-80,4,1,0,70,0,1
104418,-133.333333333333,4,2,0,60,0,0
120418,-100,4,1,0,50,0,0
138418,-80,4,1,0,60,0,1
170418,-100,4,2,0,60,0,0

[Colours]
Combo1 : 205,58,94
Combo2 : 19,215,117
Combo3 : 21,232,255

[HitObjects]
40,104,8918,5,0,0:0:0:0:
152,168,9418,1,0,0:0:0:0:
152,40,9918,1,0,0:0:0:0:
152,40,10168,1,4,2:0:0:0:
296,104,10668,5,0,2:0:0:0:
296,104,10918,1,0,0:0:0:0:
424,104,11418,1,0,0:0:0:0:
320,184,11918,1,4,0:0:0:0:
376,376,12668,5,0,2:0:0:0:
376,376,12918,1,0,0:0:0:0:
256,344,13418,1,0,0:0:0:0:
136,376,13918,1,0,0:0:0:0:
136,376,14168,1,4,2:0:0:0:
152,200,14668,5,0,2:0:0:0:
152,200,14918,1,0,0:0:0:0:
256,272,15418,1,0,0:0:0:0:
360,192,15918,1,4,0:0:0:0:
168,64,16668,5,0,2:0:0:0:
168,64,16918,1,0,0:0:0:0:
256,152,17418,1,0,0:0:0:0:
344,64,17918,1,0,0:0:0:0:
344,64,18168,1,4,2:0:0:0:
440,216,18668,5,0,2:0:0:0:
440,216,18918,1,0,0:0:0:0:
344,304,19418,1,0,0:0:0:0:
472,344,19918,1,4,0:0:0:0:
336,192,20668,5,0,2:0:0:0:
336,192,20918,1,0,0:0:0:0:
256,88,21418,1,0,0:0:0:0:
176,192,21918,1,0,0:0:0:0:
72,272,22418,2,0,L|216:344,1,160,8|0,0:0|0:0,0:0:0:0:
296,344,23168,2,0,L|440:272,1,160,8|0,0:0|0:0,0:0:0:0:
512,240,23918,1,8,0:0:0:0:
464,72,24418,6,0,P|408:32|312:24,1,132.00000402832,4|2,0:0|2:0,0:0:0:0:
217,46,25168,2,0,L|193:230,1,176.000005371094,2|4,0:0|2:0,0:0:0:0:
178,307,25918,1,8,0:0:0:0:
0,272,26418,2,0,P|0:200|40:120,1,132.00000402832,4|2,0:0|2:0,0:0:0:0:
128,64,27168,2,2,B|184:108|256:96|328:108|384:64,1,264.000008056641,2|8,0:0|0:0,0:0:0:0:
457,225,28418,6,0,P|393:233|321:225,1,132.00000402832,4|2,0:0|2:0,0:0:0:0:
193,228,29168,2,0,P|201:140|193:36,1,176.000005371094,2|4,0:0|2:0,0:0:0:0:
112,22,29918,1,8,0:0:0:0:
12,168,30418,2,0,P|4:232|20:312,1,132.00000402832,4|2,0:0|2:0,0:0:0:0:
128,232,31168,2,2,B|184:188|256:200|328:188|384:232,1,264.000008056641,2|8,0:0|0:0,0:0:0:0:
486,368,32418,5,4,0:0:0:0:
354,380,32793,1,2,2:0:0:0:
281,270,33168,2,0,P|289:190|277:88,1,176.000005371094,2|4,0:0|2:0,0:0:0:0:
242,15,33918,1,8,0:0:0:0:
202,186,34418,2,0,P|138:194|66:186,1,132.00000402832,4|2,0:0|2:0,0:0:0:0:
0,74,35168,2,2,B|54:41|135:47|121:78|183:97|255:61,1,264.000008056641,2|8,0:0|0:0,0:0:0:0:
424,9,36418,5,4,0:0:0:0:
505,113,36793,1,2,2:0:0:0:
472,240,37168,2,0,P|386:258|311:303,1,176.000005371094,2|4,0:0|2:0,0:0:0:0:
251,367,37918,1,8,0:0:0:0:
256,188,38418,5,4,0:0:0:0:
332,72,38793,1,2,2:0:0:0:
180,72,39168,1,6,0:0:0:0:
180,72,40418,6,2,B|200:128|184:176|136:216|80:208,1,200,6|8,0:0|0:0,0:0:0:0:
4,208,41168,2,2,B|60:188|108:204|148:252|140:308,1,200,6|2,0:0|0:0,0:0:0:0:
140,384,41918,2,2,B|120:328|136:280|184:240|240:248,1,200,8|4,0:0|0:0,0:0:0:0:
324,192,42668,1,0,0:0:0:0:
372,280,42918,1,8,0:0:0:0:
464,240,43168,2,0,B|492:224|504:200|500:168|456:156|444:120|472:84|504:72,1,200,4|4,0:0|2:0,0:0:0:0:
300,40,44168,5,0,0:0:0:0:
300,40,44418,2,2,B|240:68|216:152|264:228,1,200,6|8,0:0|0:0,0:0:0:0:
316,268,45168,2,2,B|288:208|204:184|128:232,1,200
88,284,45918,2,2,B|148:256|172:172|124:96,1,200,8|4,0:0|0:0,0:0:0:0:
16,32,46793,1,4,2:0:0:0:
8,172,47168,1,4,0:0:0:0:
120,8,47668,1,0,0:0:0:0:
208,48,47918,2,0,L|308:48,1,100,8|0,0:0|0:0,0:0:0:0:
400,40,48418,6,2,B|452:52|476:112|456:180|388:192,1,200,6|8,0:0|0:0,0:0:0:0:
344,128,49168,2,2,B|396:140|420:200|400:268|332:280,1,200
288,216,49918,2,2,B|340:228|364:288|344:356|276:368,1,200,8|4,0:0|0:0,0:0:0:0:
192,364,50668,1,0,0:0:0:0:
152,280,50918,1,8,0:0:0:0:
192,196,51168,2,0,B|152:164|88:196|128:220|52:260|8:224,1,200,4|4,0:0|2:0,0:0:0:0:
152,76,52168,5,0,0:0:0:0:
156,80,52418,2,2,B|212:116|280:124|328:48,1,200,6|8,0:0|0:0,0:0:0:0:
256,4,53168,2,2,B|220:60|212:128|288:176,1,200
380,208,53918,2,2,B|416:264|424:332|348:380,1,200,8|4,0:0|0:0,0:0:0:0:
256,280,54793,1,4,2:0:0:0:
164,380,55168,1,4,0:0:0:0:
47,229,55668,1,2,2:0:0:0:
102,151,55918,1,8,0:0:0:0:
157,73,56168,1,4,2:0:0:0:
464,120,57918,5,0,0:0:0:0:
464,120,58168,1,4,2:0:0:0:
464,264,58668,1,0,0:0:0:0:
464,264,58918,2,0,B|444:324|388:360|300:340,1,176.000005371094,8|0,0:0|0:0,0:0:0:0:
184,348,59918,1,0,0:0:0:0:
184,348,60168,1,4,0:0:0:0:
168,208,60668,5,0,0:0:0:0:
168,208,60918,2,0,B|206:190|201:130|201:130|193:43,1,176.000005371094,8|0,0:0|0:0,0:0:0:0:
331,16,61918,1,8,0:0:0:0:
386,59,62168,1,0,0:0:0:0:
455,46,62418,2,0,B|480:71|508:111|511:164|474:224,1,176.000005371094,4|8,0:0|0:0,0:0:0:0:
373,294,63418,2,0,B|348:269|320:229|317:176|344:134,1,176.000005371094,0|8,0:0|0:0,0:0:0:0:
256,24,64418,1,4,0:0:0:0:
116,42,64918,5,8,0:0:0:0:
73,98,65168,1,4,2:0:0:0:
4,82,65418,1,0,0:0:0:0:
15,222,65918,2,0,B|59:258|139:258|211:202,1,176.000005371094,8|4,0:0|0:0,0:0:0:0:
233,90,66918,1,8,0:0:0:0:
282,140,67168,1,0,0:0:0:0:
349,120,67418,1,0,0:0:0:0:
466,42,67918,2,0,B|502:86|502:166|446:238,1,176.000005371094,8|4,0:0|0:0,0:0:0:0:
344,296,68918,6,0,B|280:316|284:280|228:280|232:316|168:296,1,176.000005371094,8|0,0:0|0:0,0:0:0:0:
104,301,69668,1,4,2:0:0:0:
104,301,69918,1,8,0:0:0:0:
124,140,72418,6,0,B|60:132|44:88|52:28,2,132.00000402832,4|2|2,0:0|2:0|0:0,0:0:0:0:
80,292,73668,2,0,L|280:264,1,176.000005371094,4|2,2:0|2:0,0:0:0:0:
328,308,74418,2,0,B|360:232|460:244,1,132.00000402832,4|2,0:0|2:0,0:0:0:0:
508,136,75168,2,2,B|460:88|380:104|392:152|308:176|248:116,1,264.000008056641,2|8,0:0|0:0,0:0:0:0:
188,92,76168,1,0,0:0:0:0:
120,140,76418,6,0,B|48:152|0:100,2,132.00000402832,4|2|2,0:0|2:0|0:0,0:0:0:0:
168,292,77668,2,0,L|344:292,1,176.000005371094,4|2,2:0|2:0,0:0:0:0:
428,292,78418,1,4,0:0:0:0:
504,192,78793,1,2,2:0:0:0:
434,94,79168,2,2,B|383:140|313:100|330:34|256:4|198:54,1,264.000008056641,2|8,0:0|0:0,0:0:0:0:
124,80,80168,1,0,0:0:0:0:
96,160,80418,6,0,B|152:212|152:288,2,132.00000402832,4|2|2,0:0|2:0|0:0,0:0:0:0:
256,192,81668,2,0,L|468:160,1,176.000005371094,4|2,2:0|2:0,0:0:0:0:
488,240,82418,2,0,B|436:232|400:256|384:312,1,132.00000402832,4|2,0:0|2:0,0:0:0:0:
272,364,83168,2,2,B|208:360|184:304|216:256|244:232|228:168|192:156|160:160,1,264.000008056641,2|8,0:0|0:0,0:0:0:0:
88,184,84168,1,0,0:0:0:0:
88,96,84418,6,0,B|88:52|64:8|8:8,2,132.00000402832,4|2|2,0:0|2:0|0:0,0:0:0:0:
208,148,85668,2,0,B|208:204|208:204|208:248|256:276|304:248|304:204|304:204|304:148,1,264.000008056641,4|4,2:0|0:0,0:0:0:0:
318,56,86793,1,2,2:0:0:0:
194,56,87168,1,6,0:0:0:0:
128,192,88418,6,2,P|128:284|228:328,1,200,6|8,0:0|0:0,0:0:0:0:
298,329,89168,2,2,P|383:286|384:191,1,200,6|2,0:0|0:0,0:0:0:0:
356,112,89918,2,2,L|136:112,1,200,8|4,0:0|0:0,0:0:0:0:
112,268,90918,1,8,0:0:0:0:
112,268,91168,2,0,B|184:248|256:292|256:292|328:248|412:268,1,300,4|12,0:0|0:0,0:0:0:0:
504,132,92418,6,2,B|484:68|396:24|312:80,1,200,6|8,0:0|0:0,0:0:0:0:
352,148,93168,2,2,B|308:176|256:192|204:176|164:148,1,200
172,65,93918,2,2,B|116:24|28:68|8:132,1,200,8|4,0:0|0:0,0:0:0:0:
36,268,94793,1,4,2:0:0:0:
168,216,95168,1,4,0:0:0:0:
256,384,95668,1,0,0:0:0:0:
256,384,95918,1,8,0:0:0:0:
344,216,96418,6,2,P|304:132|224:28,1,200,6|8,0:0|0:0,0:0:0:0:
160,20,97168,2,2,P|68:32|32:136,1,200
96,172,97918,2,2,P|190:185|226:274,1,200,8|4,0:0|0:0,0:0:0:0:
404,336,98918,1,8,0:0:0:0:
404,336,99168,2,0,B|456:236|372:260|388:192|372:124|456:148|404:36,1,300,4|8,0:0|0:0,0:0:0:0:
220,56,100418,6,2,B|176:152|88:48|40:168,1,200,6|8,0:0|0:0,0:0:0:0:
40,236,101168,2,2,P|132:240|212:320,1,200
304,310,101918,2,2,P|374:242|472:236,1,200,8|4,0:0|0:0,0:0:0:0:
496,96,102793,1,4,2:0:0:0:
380,12,103168,1,4,0:0:0:0:
256,152,103668,1,2,2:0:0:0:
256,244,103918,1,8,0:0:0:0:
256,336,104168,1,4,2:0:0:0:
168,368,104418,6,0,B|88:384|36:328|32:240|88:192,1,240.000009155274,4|0,1:0|1:0,0:0:0:0:
164,164,105918,1,2,0:0:0:0:
96,80,106418,2,0,B|128:48|208:44|204:80|288:104|316:48,1,240.000009155274,0|0,1:0|1:0,0:0:0:0:
424,40,107918,1,2,0:0:0:0:
376,132,108418,6,0,B|316:144|268:192|288:280|356:304,1,240.000009155274,0|0,1:0|1:0,0:0:0:0:
256,348,109918,1,2,0:0:0:0:
156,304,110418,2,0,B|224:280|244:192|196:144|136:132,1,240.000009155274,0|0,1:0|1:0,0:0:0:0:
252,104,111918,1,2,0:0:0:0:
340,48,112418,6,0,B|428:32|528:116|496:248|404:288,1,360.000013732911,4|2,1:0|0:0,0:0:0:0:
308,316,114418,2,0,B|220:332|120:248|152:116|244:76,1,360.000013732911,0|2,1:0|0:0,0:0:0:0:
256,192,116418,12,0,119418,1:0:0:0:
160,304,120918,5,8,0:0:0:0:
160,304,121168,2,0,P|192:192|152:60,1,240,0|8,0:0|0:0,0:0:0:0:
48,16,122418,1,4,2:0:0:0:
12,64,122668,1,0,0:0:0:0:
16,124,122918,1,8,0:0:0:0:
52,172,123168,1,0,0:0:0:0:
256,192,123918,1,8,0:0:0:0:
220,52,124418,5,4,2:0:0:0:
360,68,124918,1,8,0:0:0:0:
360,68,125168,2,0,B|428:144|308:228|380:300,1,240,2|8,0:0|0:0,0:0:0:0:
260,368,126418,1,4,2:0:0:0:
224,320,126668,1,0,0:0:0:0:
224,260,126918,1,8,0:0:0:0:
260,212,127168,1,0,0:0:0:0:
396,272,127668,1,0,0:0:0:0:
396,272,127918,1,8,0:0:0:0:
508,192,128418,5,4,2:0:0:0:
372,136,128918,1,8,0:0:0:0:
372,136,129168,2,0,B|312:116|256:144|256:144|200:116|140:136,1,240,0|8,0:0|0:0,0:0:0:0:
24,192,130418,1,4,2:0:0:0:
82,226,130668,1,0,0:0:0:0:
141,260,130918,1,8,0:0:0:0:
200,294,131168,1,0,0:0:0:0:
256,156,131668,1,0,0:0:0:0:
256,156,131918,1,10,0:0:0:0:
256,192,132418,12,0,136418,2:0:0:0:
60,60,138418,6,2,B|40:104|48:172|100:200|156:192,1,200,6|8,0:0|0:0,0:0:0:0:
156,272,139168,2,2,B|136:228|144:160|196:132|252:140,1,200
252,60,139918,2,2,B|232:104|240:172|292:200|348:192,1,200,8|4,0:0|0:0,0:0:0:0:
429,137,140668,1,0,0:0:0:0:
480,224,140918,1,8,0:0:0:0:
396,280,141168,2,0,B|356:264|296:288|332:336|276:360|204:332,1,200,4|4,0:0|2:0,0:0:0:0:
36,240,142168,5,0,0:0:0:0:
36,240,142418,2,2,B|112:188|144:120|160:76,1,200,6|8,0:0|0:0,0:0:0:0:
104,24,143168,2,2,B|156:100|224:132|268:148,1,200
320,92,143918,2,2,B|244:144|212:212|196:256,1,200,8|4,0:0|0:0,0:0:0:0:
256,376,144793,1,4,2:0:0:0:
312,248,145168,1,4,0:0:0:0:
164,132,145668,1,0,0:0:0:0:
258,66,145918,1,8,0:0:0:0:
348,128,146168,1,0,0:0:0:0:
255,192,146418,6,2,B|148:196|104:308,1,200,6|8,0:0|0:0,0:0:0:0:
200,332,147168,2,2,B|196:225|84:181,1,200
4,156,147918,2,2,B|8:49|120:5,1,200,8|4,0:0|0:0,0:0:0:0:
208,56,148668,1,0,0:0:0:0:
304,56,148918,1,8,0:0:0:0:
392,4,149168,2,0,B|444:12|456:72|424:68|404:116|432:156|472:160,1,200,4|4,0:0|2:0,0:0:0:0:
492,348,150168,5,0,0:0:0:0:
492,348,150418,2,2,B|468:292|396:248|324:264,1,200,6|8,0:0|0:0,0:0:0:0:
263,319,151168,2,2,B|319:295|363:223|347:151,1,200
293,91,151918,2,2,B|317:147|389:191|461:175,1,200,8|4,0:0|0:0,0:0:0:0:
484,56,152793,1,4,2:0:0:0:
372,0,153168,1,4,0:0:0:0:
216,120,153668,1,0,0:0:0:0:
259,198,153918,1,8,0:0:0:0:
304,275,154168,1,0,0:0:0:0:
256,356,154418,6,2,P|156:348|112:264,1,200,6|8,0:0|0:0,0:0:0:0:
22,269,155168,2,2,P|122:261|166:177,1,200
123,101,155918,2,2,P|171:184|266:189,1,200,8|4,0:0|0:0,0:0:0:0:
256,88,156668,1,0,0:0:0:0:
336,28,156918,1,8,0:0:0:0:
416,88,157168,2,2,P|440:192|488:304,1,200,4|4,0:0|2:0,0:0:0:0:
316,384,158168,5,0,0:0:0:0:
316,384,158418,2,2,B|264:380|224:320|288:304|248:248|216:232|168:240,1,200,6|8,0:0|0:0,0:0:0:0:
128,288,159168,2,2,B|96:228|92:192|96:156|128:100,1,200
202,143,159918,2,2,B|216:152|248:136|288:80|224:64|264:4|316:0,1,200,8|4,0:0|0:0,0:0:0:0:
408,96,160793,1,4,2:0:0:0:
504,0,161168,1,4,0:0:0:0:
512,192,161668,1,0,0:0:0:0:
437,242,161918,1,8,0:0:0:0:
363,190,162168,1,0,0:0:0:0:
304,104,162418,6,2,P|212:116|124:40,1,200,6|8,0:0|0:0,0:0:0:0:
56,100,163168,2,2,P|96:192|56:284,1,200
130,329,163918,2,2,P|207:269|304:280,1,200,8|4,0:0|0:0,0:0:0:0:
384,340,164668,1,0,0:0:0:0:
476,300,164918,1,8,0:0:0:0:
428,212,165168,2,0,B|346:192|429:65|262:65,1,200,4|4,0:0|2:0,0:0:0:0:
169,1,166168,5,0,0:0:0:0:
169,1,166418,2,2,P|218:74|146:167,1,200,6|8,0:0|0:0,0:0:0:0:
125,241,167168,2,2,P|163:162|280:177,1,200
307,244,167918,2,2,P|268:322|151:307,1,200,8|4,0:0|0:0,0:0:0:0:
46,260,168793,1,4,2:0:0:0:
46,124,169168,1,4,0:0:0:0:
192,19,169668,1,0,0:0:0:0:
256,96,169918,1,8,0:0:0:0:
320,19,170168,1,4,0:0:0:0:
