osu file format v14

[General]
AudioFilename: audio.mp3
AudioLeadIn: 0
PreviewTime: 151098
Countdown: 0
SampleSet: Soft
StackLeniency: 0.7
Mode: 2
LetterboxInBreaks: 0
WidescreenStoryboard: 1

[Editor]
Bookmarks: 13192,25192,79192,91192,115192,116692,127192
DistanceSpacing: 1
BeatDivisor: 4
GridSize: 32
TimelineZoom: 2.6

[Metadata]
Title:Backstabber
TitleUnicode:Backstabber
Artist:Ke$ha
ArtistUnicode:Ke$ha
Creator:Juansy-
Version:Cup
Source:
Tags:himiko toga english pop kesha animal expanded edition full version RCA Records Sebert David Gamson Marc Nelkin Jonathan Ingoldsby
BeatmapID:3513506
BeatmapSetID:1718408

[Difficulty]
HPDrainRate:3
CircleSize:2.5
OverallDifficulty:6
ApproachRate:6
SliderMultiplier:1.4
SliderTickRate:1

[Events]
//Background and Video events
0,0,"bg.jpg",0,0
//Break Periods
2,62892,66142
//Storyboard Layer 0 (Background)
//Storyboard Layer 1 (Fail)
//Storyboard Layer 2 (Pass)
//Storyboard Layer 3 (Foreground)
//Storyboard Layer 4 (Overlay)
//Storyboard Sound Samples

[TimingPoints]
1192,375,4,2,1,45,1,0
10183,-100,4,2,1,45,0,0
10192,-100,4,2,1,65,0,0
13004,-100,4,2,1,5,0,0
13192,-100,4,2,2,50,0,0
16098,-100,4,2,2,5,0,0
16192,-100,4,2,2,50,0,0
18723,-100,4,2,2,5,0,0
18817,-100,4,2,2,50,0,0
28098,-100,4,2,2,5,0,0
28192,-100,4,2,2,50,0,0
34192,-100,4,2,1,65,0,0
37192,-100,4,2,2,80,0,1
37201,-100,4,2,2,80,0,1
46192,-100,4,2,1,80,0,1
49192,-100,4,2,2,80,0,1
58192,-100,4,2,1,80,0,1
60723,-100,4,2,1,5,0,1
60817,-100,4,2,2,80,0,1
61098,-100,4,2,1,5,0,1
61192,-100,4,2,2,45,0,0
79192,-100,4,2,2,50,0,0
88192,-100,4,2,1,65,0,0
91192,-100,4,2,2,80,0,1
100192,-100,4,2,1,80,0,1
103192,-100,4,2,2,80,0,1
112192,-100,4,2,1,80,0,1
115192,-100,4,2,2,55,0,0
124192,-100,4,2,1,65,0,0
127192,-100,4,2,1,50,0,0
136192,-100,4,2,1,65,0,0
139183,-100,4,2,2,80,0,0
139192,-100,4,2,2,80,0,1
148192,-100,4,2,1,80,0,1
151192,-100,4,2,2,80,0,1
160192,-100,4,2,1,80,0,1
163192,-100,4,2,2,55,0,0
172192,-100,4,2,1,80,0,1
175192,-100,4,2,1,45,0,0

[Colours]
Combo1 : 98,0,98
Combo2 : 239,99,228
Combo3 : 103,103,103
Combo4 : 202,179,47

[HitObjects]
312,198,1192,6,0,P|384:184|315:108,1,210,2|2,1:2|3:2,0:0:0:0:
256,102,1942,2,0,L|248:265,1,140,0|8,1:0|0:0,0:0:0:0:
379,59,2692,6,0,L|382:205,1,140,0|8,1:2|0:2,0:0:0:0:
242,192,3442,2,0,L|393:190,1,140,0|8,1:2|0:2,0:0:0:0:
228,187,4192,6,0,P|152:164|227:98,1,210,2|0,1:2|3:2,0:0:0:0:
285,91,4942,2,0,L|292:249,1,140,0|8,1:0|0:0,0:0:0:0:
151,222,5692,6,0,L|21:302,2,140,0|8|0,1:2|0:2|1:2,0:0:0:0:
287,190,6817,1,8,0:2:0:0:
133,196,7192,6,0,P|127:253|268:288,1,210,2|2,1:2|3:2,0:0:0:0:
317,298,7942,2,0,L|330:141,1,140,0|8,1:0|0:2,0:0:0:0:
188,149,8692,6,0,L|50:132,1,140,0|8,1:2|0:2,0:0:0:0:
188,142,9442,2,0,L|345:139,1,140,0|8,1:2|0:2,0:0:0:0:
159,141,10192,5,4,1:0:0:0:
159,141,10754,1,8,1:1:0:0:
159,141,10942,1,8,1:0:0:0:
368,147,11504,1,8,1:1:0:0:
297,145,11692,5,4,1:0:0:0:
87,142,12254,1,8,1:1:0:0:
157,140,12442,1,8,1:0:0:0:
296,144,12817,1,8,0:0:0:0:
142,147,13192,6,0,P|120:204|244:266,1,210,2|2,3:2|1:2,0:0:0:0:
302,268,13942,2,0,L|145:262,1,140,2|8,1:2|0:0,0:0:0:0:
302,262,14692,5,2,3:2:0:0:
302,262,14879,1,2,0:2:0:0:
302,262,15067,1,10,0:2:0:0:
162,266,15442,2,0,L|161:97,1,140,2|10,1:2|0:0,0:0:0:0:
315,268,16192,6,0,P|260:233|115:227,1,210,2|2,3:2|1:2,0:0:0:0:
184,200,16942,2,0,L|337:174,1,140,2|10,1:2|0:0,0:0:0:0:
182,161,17692,6,0,L|110:156,2,70,2|2|10,3:2|0:2|0:2,0:0:0:0:
321,151,18442,2,0,L|178:158,1,140,2|10,1:2|0:2,0:0:0:0:
314,26,19192,6,0,P|385:29|352:133,1,210,2|2,3:2|1:2,0:0:0:0:
288,140,19942,2,0,L|134:189,1,140,2|8,1:2|0:0,0:0:0:0:
294,186,20692,5,2,3:2:0:0:
363,184,20879,1,2,0:2:0:0:
360,113,21067,1,10,0:2:0:0:
220,118,21442,2,0,L|60:90,1,140,2|10,1:2|0:2,0:0:0:0:
235,87,22192,6,0,P|312:86|375:198,1,210,2|2,3:2|1:2,0:0:0:0:
305,191,22942,2,0,L|225:193,2,70,2|2|10,1:2|3:2|0:2,0:0:0:0:
442,166,23692,6,0,L|443:78,1,70,2|2,3:2|0:2,0:0:0:0:
372,89,24067,1,10,0:2:0:0:
232,86,24442,2,0,P|183:122|246:162,1,140,2|10,1:2|0:2,0:0:0:0:
380,222,25192,6,0,P|217:199|155:220,1,210,6|2,3:2|1:2,0:0:0:0:
176,133,25942,1,2,1:2:0:0:
315,129,26317,1,8,0:0:0:0:
176,133,26692,6,0,L|89:135,2,70,2|2|10,3:2|0:2|0:2,0:0:0:0:
316,133,27442,2,0,L|161:132,1,140,2|10,1:2|0:0,0:0:0:0:
328,113,28192,6,0,P|379:137|295:223,1,210,6|2,3:2|1:2,0:0:0:0:
244,224,28942,1,2,1:2:0:0:
238,84,29317,1,10,0:0:0:0:
377,86,29692,6,0,L|468:87,2,70,2|2|10,3:2|0:2|0:2,0:0:0:0:
237,86,30442,2,0,L|408:83,1,140,2|10,1:2|0:2,0:0:0:0:
223,75,31192,6,0,P|163:92|192:213,1,210,6|2,3:2|1:2,0:0:0:0:
253,280,31942,1,2,1:2:0:0:
392,271,32317,1,8,0:0:0:0:
252,259,32692,5,2,3:2:0:0:
183,247,32879,1,2,0:2:0:0:
113,236,33067,1,10,0:2:0:0:
251,213,33442,2,0,L|409:210,1,140,2|10,1:2|0:2,0:0:0:0:
222,212,34192,5,4,1:0:0:0:
431,222,34754,1,8,1:1:0:0:
431,222,34942,1,8,1:0:0:0:
221,222,35504,1,8,1:1:0:0:
291,219,35692,5,4,1:0:0:0:
291,44,36254,1,8,1:1:0:0:
220,42,36442,2,0,L|55:47,1,140,8|8,1:0|0:0,0:0:0:0:
233,55,37192,6,0,L|397:48,1,140,4|8,1:0|0:0,0:0:0:0:
233,56,37942,1,2,1:1:0:0:
361,64,38317,1,10,2:2:0:0:
277,63,38504,6,4,L|271:229,1,140,2|2,0:0|0:0,0:0:0:0:
342,203,39067,1,10,0:0:0:0:
202,194,39442,2,4,L|46:192,1,140,2|10,1:2|0:0,0:0:0:0:
216,190,40192,6,4,L|372:190,1,140,2|10,1:2|0:0,0:0:0:0:
215,183,40942,2,4,L|196:331,1,140,2|10,1:1|2:2,0:0:0:0:
266,330,41504,6,4,L|101:319,1,140,2|2,0:0|0:0,0:0:0:0:
196,327,42067,1,10,0:0:0:0:
335,331,42442,2,4,L|338:164,1,140,2|10,1:2|0:0,0:0:0:0:
183,185,43192,6,4,L|337:186,1,140,4|8,1:0|0:0,0:0:0:0:
322,185,43942,1,2,1:1:0:0:
174,198,44317,1,10,2:2:0:0:
250,199,44504,6,4,L|255:42,1,140,2|2,0:0|0:0,0:0:0:0:
181,58,45067,1,10,0:0:0:0:
320,52,45442,2,4,L|470:51,1,140,2|10,1:2|0:0,0:0:0:0:
292,53,46192,5,4,1:0:0:0:
417,49,46754,1,2,0:0:0:0:
346,50,46942,1,4,1:1:0:0:
136,50,47504,1,2,0:0:0:0:
206,50,47692,5,4,1:0:0:0:
415,55,48254,1,2,0:0:0:0:
344,53,48442,2,4,L|332:210,1,140,4|10,1:1|0:0,0:0:0:0:
486,181,49192,6,4,L|320:183,1,140,4|8,1:0|0:0,0:0:0:0:
206,189,49942,1,2,1:1:0:0:
359,187,50317,1,10,2:2:0:0:
428,187,50504,6,4,L|437:22,1,140,2|2,0:0|0:0,0:0:0:0:
365,46,51067,1,10,0:0:0:0:
218,39,51442,2,4,L|388:41,1,140,2|10,1:2|0:0,0:0:0:0:
203,50,52192,6,4,L|51:35,1,140,2|10,1:2|0:0,0:0:0:0:
203,45,52942,2,4,L|346:40,1,140,2|10,1:1|2:2,0:0:0:0:
265,42,53504,6,4,L|258:209,1,140,2|2,0:0|0:0,0:0:0:0:
189,189,54067,1,10,0:0:0:0:
328,184,54442,2,4,L|476:182,1,140,2|10,1:2|0:0,0:0:0:0:
314,191,55192,6,4,L|306:37,1,140,4|10,1:0|0:0,0:0:0:0:
383,53,55754,1,2,3:2:0:0:
243,67,56129,2,4,L|77:73,1,140,2|2,1:2|0:0,0:0:0:0:
38,99,56692,5,2,1:2:0:0:
39,168,56879,1,2,0:0:0:0:
103,72,57067,1,10,0:0:0:0:
256,62,57442,1,2,1:2:0:0:
186,63,57629,1,2,1:2:0:0:
115,64,57817,1,10,0:0:0:0:
282,61,58192,5,4,1:0:0:0:
282,61,58754,1,2,0:0:0:0:
211,65,58942,1,4,1:1:0:0:
420,74,59504,1,2,0:0:0:0:
420,74,59692,5,4,1:0:0:0:
210,74,60254,1,2,0:0:0:0:
212,144,60442,2,4,L|383:153,1,140,4|10,1:1|0:0,0:0:0:0:
197,148,61192,5,4,1:3:0:0:
256,192,61567,12,0,62692,0:0:0:0:
414,285,67192,6,4,P|410:217|282:182,1,210,2|2,3:2|1:2,0:0:0:0:
295,247,67942,2,4,L|439:253,1,140,2|8,1:2|0:0,0:0:0:0:
280,247,68692,6,4,P|187:235|171:124,1,210,2|2,3:2|1:2,0:0:0:0:
235,140,69442,2,4,L|81:127,1,140,2|8,1:2|0:0,0:0:0:0:
249,137,70192,6,4,P|316:136|383:268,1,210,2|2,3:2|1:2,0:0:0:0:
314,240,70942,2,4,L|166:234,1,140,2|8,1:2|0:0,0:0:0:0:
328,238,71692,6,4,P|388:203|314:120,1,210,2|2,3:2|1:2,0:0:0:0:
241,115,72442,2,4,L|234:271,1,140,2|8,1:2|0:2,0:0:0:0:
387,242,73192,6,4,P|394:122|310:110,1,210,2|2,3:2|1:2,0:0:0:0:
257,110,73942,2,4,L|418:104,1,140,2|8,1:2|0:0,0:0:0:0:
243,121,74692,6,4,P|155:122|150:251,1,210,2|2,3:2|1:2,0:0:0:0:
199,228,75442,2,4,L|292:230,2,70,2|2|8,1:2|3:2|0:2,0:0:0:0:
59,215,76192,6,4,P|74:141|208:126,1,210,2|2,3:2|1:2,0:0:0:0:
187,184,76942,2,4,L|43:177,1,140,2|10,1:2|0:2,0:0:0:0:
187,170,77692,6,4,L|346:170,2,140,2|10|2,3:2|0:2|1:2,0:0:0:0:
326,162,78817,1,10,0:2:0:0:
172,152,79192,6,4,P|112:151|42:281,1,210,6|2,3:2|1:2,0:0:0:0:
116,71,79942,1,2,1:2:0:0:
255,70,80317,1,8,0:0:0:0:
408,69,80692,6,4,P|334:72|255:185,1,210,2|2,3:2|1:2,0:0:0:0:
325,171,81442,1,2,1:2:0:0:
361,230,81629,1,2,3:2:0:0:
325,171,81817,1,10,0:0:0:0:
171,174,82192,6,4,P|257:174|321:61,1,210,6|2,3:2|1:2,0:0:0:0:
252,70,82942,2,4,L|103:70,1,140,2|8,1:2|0:0,0:0:0:0:
251,61,83692,6,4,P|270:138|144:180,1,210,2|2,3:2|1:2,0:0:0:0:
102,212,84442,1,2,1:2:0:0:
71,274,84629,1,2,3:2:0:0:
102,212,84817,1,10,0:2:0:0:
255,197,85192,6,4,P|368:175|372:78,1,210,6|0,3:2|3:3,0:0:0:0:
310,84,85942,2,4,P|255:98|231:183,1,140,0|10,1:2|0:0,0:0:0:0:
297,171,86504,6,4,L|311:337,1,140,2|2,0:2|0:2,0:0:0:0:
238,314,87067,1,10,0:2:0:0:
377,312,87442,2,4,L|384:166,1,140,2|10,1:2|0:2,0:0:0:0:
216,156,88192,5,4,1:0:0:0:
216,156,88754,1,8,1:1:0:0:
216,156,88942,1,8,1:0:0:0:
446,162,89504,1,8,1:1:0:0:
375,162,89692,5,4,1:0:0:0:
165,161,90254,1,8,1:1:0:0:
165,161,90442,2,4,L|329:157,1,140,8|8,1:0|0:0,0:0:0:0:
151,161,91192,6,0,L|171:316,1,140,4|8,1:0|0:0,0:0:0:0:
309,295,91942,1,2,1:1:0:0:
169,298,92317,1,10,2:2:0:0:
246,105,92504,6,4,L|243:275,1,140,2|2,0:0|0:0,0:0:0:0:
173,254,93067,1,10,0:0:0:0:
323,251,93442,2,4,L|472:239,1,140,2|10,1:2|0:0,0:0:0:0:
295,224,94192,6,4,L|290:60,1,140,2|10,1:2|0:0,0:0:0:0:
150,85,94942,1,2,1:1:0:0:
303,88,95317,1,10,2:2:0:0:
372,86,95504,6,4,L|374:255,1,140,2|2,0:0|0:0,0:0:0:0:
296,228,96067,1,10,0:0:0:0:
156,233,96442,2,4,L|316:229,1,140,2|10,1:2|0:0,0:0:0:0:
141,227,97192,6,4,L|143:68,1,140,4|8,1:0|0:0,0:0:0:0:
282,93,97942,1,2,1:1:0:0:
142,88,98317,1,10,2:2:0:0:
143,157,98504,6,4,L|311:160,1,140,2|2,0:0|0:0,0:0:0:0:
353,161,99067,1,10,0:0:0:0:
213,162,99442,2,4,L|65:165,1,140,2|10,1:2|0:0,0:0:0:0:
240,159,100192,5,4,1:0:0:0:
53,79,100754,1,2,0:0:0:0:
123,78,100942,1,4,1:1:0:0:
332,71,101504,1,2,0:0:0:0:
261,69,101692,5,4,1:0:0:0:
117,235,102254,1,2,0:0:0:0:
187,230,102442,2,4,L|345:202,1,140,4|10,1:1|0:0,0:0:0:0:
394,196,103004,1,8,0:0:0:0:
316,200,103192,6,4,L|154:208,1,140,4|8,1:0|0:0,0:0:0:0:
316,202,103942,1,2,1:1:0:0:
162,208,104317,1,10,2:2:0:0:
92,204,104504,6,4,L|99:48,1,140,2|2,0:0|0:0,0:0:0:0:
168,59,105067,1,10,0:0:0:0:
320,63,105442,2,4,L|149:64,1,140,2|10,1:2|0:0,0:0:0:0:
333,56,106192,6,4,L|483:53,1,140,2|10,1:2|0:0,0:0:0:0:
332,54,106942,1,2,1:1:0:0:
178,61,107317,1,10,2:2:0:0:
252,59,107504,6,4,L|249:207,1,140,2|2,0:0|0:0,0:0:0:0:
326,195,108067,1,10,0:0:0:0:
186,186,108442,2,4,L|41:184,1,140,2|10,1:2|0:0,0:0:0:0:
199,188,109192,6,4,L|368:185,1,140,4|10,1:0|0:0,0:0:0:0:
344,115,109754,1,2,3:2:0:0:
204,105,110129,2,4,L|40:107,1,140,2|2,1:2|0:0,0:0:0:0:
134,105,110692,5,2,1:2:0:0:
203,102,110879,1,2,0:0:0:0:
280,103,111067,2,4,L|278:274,1,140,10|2,0:0|1:2,0:0:0:0:
208,237,111629,1,2,1:2:0:0:
137,238,111817,1,10,0:0:0:0:
304,232,112192,5,4,1:0:0:0:
304,91,112754,1,2,0:0:0:0:
226,92,112942,1,4,1:1:0:0:
430,105,113504,1,2,0:0:0:0:
352,106,113692,5,4,1:0:0:0:
121,113,114254,1,2,0:0:0:0:
198,114,114442,2,4,L|354:112,1,140,4|10,1:1|0:0,0:0:0:0:
185,93,115192,6,4,L|103:97,2,70,2|2|10,1:2|1:2|1:2,0:0:0:0:
324,90,115942,2,0,L|337:240,1,140,2|8,1:2|0:0,0:0:0:0:
181,236,116692,6,4,L|320:235,1,140,4|10,1:2|1:2,0:0:0:0:
313,304,117255,2,4,L|173:302,1,140,2|0,3:2|0:0,0:0:0:0:
103,305,117817,1,8,0:0:0:0:
245,144,118192,5,2,1:2:0:0:
314,136,118379,1,2,1:2:0:0:
383,128,118567,1,10,1:2:0:0:
243,121,118942,1,2,1:2:0:0:
173,116,119129,1,2,3:2:0:0:
102,111,119317,1,10,0:2:0:0:
266,176,119692,6,0,L|356:169,2,70,6|2|10,1:2|1:2|1:2,0:0:0:0:
126,170,120442,2,0,L|130:25,1,140,2|10,1:2|0:0,0:0:0:0:
283,39,121192,6,0,L|118:37,1,140,2|10,1:2|1:2,0:0:0:0:
283,37,121942,1,2,1:2:0:0:
348,61,122129,1,2,3:2:0:0:
283,37,122317,1,10,0:0:0:0:
143,37,122692,6,0,P|115:93|170:145,1,140,6|10,1:2|1:2,0:0:0:0:
231,150,123254,1,0,3:2:0:0:
301,152,123442,2,0,P|351:172|339:249,1,140,2|10,1:2|0:0,0:0:0:0:
189,184,124192,5,4,1:0:0:0:
189,184,124754,1,8,1:1:0:0:
111,179,124942,1,8,1:0:0:0:
320,182,125504,1,8,1:1:0:0:
397,178,125692,5,4,1:0:0:0:
187,177,126254,1,8,1:1:0:0:
109,172,126442,2,4,L|94:327,1,140,8|8,1:0|0:0,0:0:0:0:
249,299,127192,6,4,L|413:287,1,140,2|8,1:2|0:0,0:0:0:0:
375,134,127942,1,0,1:2:0:0:
234,136,128317,1,8,0:0:0:0:
373,130,128692,6,4,L|498:215,2,140,0|8|0,1:2|0:0|1:2,0:0:0:0:
233,132,129817,1,8,0:0:0:0:
79,127,130192,6,4,L|237:125,1,140,2|8,0:0|0:0,0:0:0:0:
218,125,130942,1,0,0:0:0:0:
77,127,131317,1,8,0:0:0:0:
216,121,131692,6,4,L|370:113,1,140,0|8,1:2|0:0,0:0:0:0:
215,106,132442,2,4,L|126:108,2,70,0|0|8,1:2|1:0|0:0,0:0:0:0:
368,100,133192,6,4,L|201:105,1,140,2|8,1:2|0:0,0:0:0:0:
228,104,133942,1,0,1:2:0:0:
381,101,134317,1,8,0:0:0:0:
241,99,134692,6,4,L|99:96,1,140,0|8,1:2|0:0,0:0:0:0:
276,257,135442,2,4,L|435:255,1,140,0|8,1:2|0:0,0:0:0:0:
248,248,136192,5,4,1:0:0:0:
52,245,136754,1,8,1:1:0:0:
121,250,136942,1,8,1:0:0:0:
330,242,137504,1,8,1:1:0:0:
400,246,137692,5,4,1:0:0:0:
190,241,138254,1,8,1:1:0:0:
260,240,138442,2,4,L|101:244,1,140,8|8,1:0|0:0,0:0:0:0:
304,64,139192,6,4,L|457:69,1,140,4|8,1:0|0:0,0:0:0:0:
304,67,139942,1,2,1:1:0:0:
151,64,140317,1,10,2:2:0:0:
227,58,140504,6,4,L|242:222,1,140,2|2,0:0|0:0,0:0:0:0:
170,203,141067,1,10,0:0:0:0:
310,194,141442,2,4,L|466:192,1,140,2|10,1:2|0:0,0:0:0:0:
296,190,142192,6,4,L|140:190,1,140,2|10,1:2|0:0,0:0:0:0:
297,183,142942,2,4,L|316:331,1,140,2|10,1:1|2:2,0:0:0:0:
246,330,143504,6,4,L|411:319,1,140,2|2,0:0|0:0,0:0:0:0:
316,327,144067,1,10,0:0:0:0:
177,331,144442,2,4,L|174:164,1,140,2|10,1:2|0:0,0:0:0:0:
328,183,145192,6,4,L|174:184,1,140,4|8,1:0|0:0,0:0:0:0:
184,188,145942,1,2,1:1:0:0:
338,198,146317,1,10,2:2:0:0:
269,198,146504,6,4,L|259:38,1,140,2|2,0:0|0:0,0:0:0:0:
191,59,147067,1,10,0:0:0:0:
331,52,147442,2,4,L|482:52,1,140,2|10,1:2|0:0,0:0:0:0:
304,51,148192,5,4,1:0:0:0:
95,49,148754,1,2,0:0:0:0:
166,50,148942,1,4,1:1:0:0:
376,50,149504,1,2,0:0:0:0:
306,50,149692,5,4,1:0:0:0:
97,55,150254,1,2,0:0:0:0:
168,53,150442,2,4,L|183:210,1,140,4|10,1:1|0:0,0:0:0:0:
27,188,151192,6,4,L|193:190,1,140,4|8,1:0|0:0,0:0:0:0:
306,192,151942,1,2,1:1:0:0:
152,188,152317,1,10,2:2:0:0:
83,188,152504,6,4,L|74:23,1,140,2|2,0:0|0:0,0:0:0:0:
146,47,153067,1,10,0:0:0:0:
294,39,153442,2,4,L|124:41,1,140,2|10,1:2|0:0,0:0:0:0:
309,50,154192,5,2,1:2:0:0:
378,50,154379,2,4,L|379:207,1,140,2|2,0:0|3:2,0:0:0:0:
308,188,154942,1,2,1:2:0:0:
168,192,155317,2,4,L|256:187,1,70,10|2,2:2|0:0,0:0:0:0:
315,186,155692,5,2,1:0:0:0:
245,190,155879,2,4,L|243:29,1,140,2|2,0:0|0:0,0:0:0:0:
313,50,156442,1,2,1:2:0:0:
452,52,156817,1,8,0:0:0:0:
298,49,157192,6,4,L|139:49,1,140,4|10,1:0|0:0,0:0:0:0:
164,130,157754,1,2,3:2:0:0:
303,123,158129,2,4,L|302:296,1,140,2|2,1:2|0:0,0:0:0:0:
232,268,158692,5,2,1:2:0:0:
162,268,158879,1,2,0:0:0:0:
232,268,159067,1,10,0:0:0:0:
372,267,159442,1,2,1:2:0:0:
441,261,159629,1,2,1:2:0:0:
372,267,159817,1,10,0:0:0:0:
204,273,160192,6,4,L|203:116,1,140,4|10,1:0|0:0,0:0:0:0:
272,127,160754,1,2,0:0:0:0:
201,126,160942,2,0,P|157:180|221:222,1,140,4|10,1:1|2:2,0:0:0:0:
267,267,161504,1,2,0:0:0:0:
344,267,161692,6,4,L|345:114,1,140,4|10,1:0|0:0,0:0:0:0:
268,121,162254,1,2,0:0:0:0:
197,118,162442,2,4,L|345:119,1,140,4|10,1:1|0:0,0:0:0:0:
182,119,163192,6,4,P|135:111|185:202,1,210,4|0,1:0|3:0,0:0:0:0:
230,207,163942,1,2,1:1:0:0:
369,202,164317,1,10,2:2:0:0:
229,198,164692,6,4,L|80:198,2,140,2|10|2,1:2|0:0|1:2,0:0:0:0:
368,189,165817,1,10,0:0:0:0:
214,189,166192,5,2,1:2:0:0:
144,191,166379,2,4,L|148:43,1,140,2|2,0:0|3:2,0:0:0:0:
217,46,166942,1,2,1:2:0:0:
356,47,167317,2,0,L|363:135,1,70,10|2,2:2|0:0,0:0:0:0:
285,129,167692,5,2,1:0:0:0:
215,133,167879,2,0,L|213:293,1,140,2|2,0:0|0:0,0:0:0:0:
283,279,168442,1,2,1:2:0:0:
422,286,168817,1,8,0:0:0:0:
282,275,169192,6,0,P|263:198|384:151,1,210,4|0,1:0|3:0,0:0:0:0:
362,141,169942,2,0,L|199:139,1,140,2|10,1:1|2:2,0:0:0:0:
375,127,170692,6,0,P|446:160|363:212,1,210,2|2,1:2|0:0,0:0:0:0:
300,210,171442,2,0,L|451:202,1,140,2|10,1:2|0:0,0:0:0:0:
271,206,172192,5,4,1:0:0:0:
61,207,172754,1,2,0:0:0:0:
138,204,172942,1,4,1:1:0:0:
347,199,173504,1,2,0:0:0:0:
269,200,173692,5,4,1:0:0:0:
59,209,174254,1,2,0:0:0:0:
129,207,174442,2,0,L|277:197,1,140,4|10,1:1|0:0,0:0:0:0:
117,226,175192,6,0,P|129:113|399:101,1,420,0|8,1:2|0:0,0:0:0:0:
245,255,176692,6,0,P|175:240|267:10,1,420,0|8,1:2|0:0,0:0:0:0:
406,23,178192,6,0,P|417:92|156:251,1,420,2|8,1:2|0:0,0:0:0:0:
321,269,179692,6,0,P|351:175|104:77,1,420,0|8,1:2|0:0,0:0:0:0:
276,207,181192,6,0,P|353:199|238:19,1,420,2|8,1:2|0:0,0:0:0:0:
114,31,182692,6,0,P|116:111|393:262,1,420,0|8,1:2|0:0,0:0:0:0:
224,242,184192,6,0,P|133:228|248:50,1,420,2|8,1:2|0:0,0:0:0:0:
400,62,185692,6,0,B|395:137|395:137|186:182|186:182|333:222,1,420,0|8,1:2|0:0,0:0:0:0:
