osu file format v14

[General]
AudioFilename: audio.mp3
AudioLeadIn: 0
PreviewTime: 36186
Countdown: 0
SampleSet: Soft
StackLeniency: 0.7
Mode: 0
LetterboxInBreaks: 0
WidescreenStoryboard: 1

[Editor]
Bookmarks: 280,9280,12280,24280,33280,36280,45280,48280,57280,60280,72280
DistanceSpacing: 1
BeatDivisor: 4
GridSize: 4
TimelineZoom: 1

[Metadata]
Title:Backstabber (Cut Ver.)
TitleUnicode:Backstabber (Cut Ver.)
Artist:Ke$ha
ArtistUnicode:Ke$ha
Creator:Shime
Version:Normal
Source:
Tags:english pop kesha animal expanded edition short version jschlatt jiebi gibee games gibee_games
BeatmapID:3230248
BeatmapSetID:1581857

[Difficulty]
HPDrainRate:3.2
CircleSize:3.2
OverallDifficulty:4
ApproachRate:5
SliderMultiplier:0.999999999999999
SliderTickRate:1

[Events]
//Background and Video events
0,0,"cringe.jpg",0,0
//Break Periods
//Storyboard Layer 0 (Background)
//Storyboard Layer 1 (Fail)
//Storyboard Layer 2 (Pass)
//Storyboard Layer 3 (Foreground)
//Storyboard Layer 4 (Overlay)
//Storyboard Sound Samples

[TimingPoints]
280,375,4,2,72,40,1,0
280,-111.111111111111,4,2,72,40,0,0
6280,-111.111111111111,4,2,72,50,0,0
9280,-111.111111111111,4,2,27,70,0,0
11905,-111.111111111111,4,2,72,70,0,0
12280,-100,4,2,27,55,0,0
24280,-100,4,2,27,60,0,0
36280,-90.9090909090909,4,2,27,80,0,0
48280,-90.9090909090909,4,2,27,80,0,0
60280,-100,4,2,72,50,0,0

[Colours]
Combo1 : 240,70,70
Combo2 : 172,191,173
Combo3 : 111,117,96
Combo4 : 223,197,106
Combo5 : 234,163,119
Combo6 : 155,43,43

[HitObjects]
168,328,280,6,0,L|83:333,2,67.4999979400635,2|2|2,0:0|0:0|0:0,0:0:0:0:
199,360,1030,2,0,L|294:371,1,89.999997253418,2|10,0:0|0:0,0:0:0:0:
368,328,1780,2,0,L|378:263,1,44.999998626709,2|0,0:0|0:0,0:0:0:0:
389,240,2155,1,10,0:0:0:0:
388,150,2530,2,0,P|340:167|280:148,1,89.999997253418,2|10,0:0|0:0,0:0:0:0:
249,87,3280,6,0,L|243:14,2,67.4999979400635,2|2|2,0:0|0:0|0:0,0:0:0:0:
217,119,4030,1,2,0:0:0:0:
127,128,4405,2,0,L|114:231,1,89.999997253418,10|2,0:0|0:0,0:0:0:0:
83,249,4967,1,2,0:0:0:0:
83,249,5155,1,10,0:0:0:0:
76,338,5530,2,0,P|124:320|173:329,1,89.999997253418,2|10,0:0|0:0,0:0:0:0:
249,345,6280,70,0,L|323:334,2,67.4999979400635,2|2|2,0:0|0:0|0:0,0:0:0:0:
236,301,7030,2,0,L|228:200,1,89.999997253418,2|10,0:0|0:0,0:0:0:0:
302,160,7780,2,0,P|327:155|355:160,1,44.999998626709,2|0,0:0|0:0,0:0:0:0:
384,180,8155,1,10,0:0:0:0:
460,227,8530,2,0,L|436:328,1,89.999997253418,2|10,0:0|0:0,0:0:0:0:
376,379,9280,22,0,P|310:338|241:354,1,134.999995880127,2|2,1:2|1:2,0:0:0:0:
215,364,10030,1,2,1:2:0:0:
94,321,10592,1,2,1:2:0:0:
94,321,10780,2,0,B|89:270|89:270|103:240|103:240|97:183,1,134.999995880127,2|2,1:2|1:2,0:0:0:0:
95,144,11530,1,2,1:2:0:0:
142,67,11905,1,8,0:0:0:0:
234,81,12280,54,0,L|350:67,1,99.9999999999999,2|8,1:2|0:0,0:0:0:0:
418,15,13030,2,0,P|436:66|410:132,1,99.9999999999999,2|8,0:0|0:0,0:0:0:0:
387,202,13780,2,0,L|398:320,1,99.9999999999999,2|10,1:2|0:0,0:0:0:0:
376,349,14342,1,2,0:0:0:0:
376,349,14530,1,2,0:0:0:0:
276,339,14905,1,10,0:0:0:0:
185,379,15280,6,0,L|170:251,1,99.9999999999999,2|8,1:2|0:0,0:0:0:0:
169,234,15842,1,2,0:0:0:0:
169,234,16030,2,0,P|212:211|262:219,1,99.9999999999999,2|10,0:0|0:0,0:0:0:0:
354,252,16780,2,0,L|455:243,1,99.9999999999999,2|10,1:2|0:0,0:0:0:0:
502,266,17342,1,2,0:0:0:0:
502,266,17530,1,2,0:0:0:0:
510,166,17905,2,0,L|499:102,1,50,10|8,0:0|0:0,0:0:0:0:
466,80,18280,70,0,B|415:67|418:103|369:90,1,99.9999999999999,2|8,1:2|0:0,0:0:0:0:
320,100,18842,1,2,0:0:0:0:
320,100,19030,2,0,L|335:229,1,99.9999999999999,2|8,0:0|0:0,0:0:0:0:
271,279,19780,2,0,L|156:287,1,99.9999999999999,2|10,1:2|0:0,0:0:0:0:
126,302,20342,1,2,0:0:0:0:
126,302,20530,1,2,0:0:0:0:
57,228,20905,1,10,0:0:0:0:
100,137,21280,6,0,L|233:154,1,99.9999999999999,2|10,1:2|0:0,0:0:0:0:
240,123,21842,1,2,0:0:0:0:
240,123,22030,2,0,L|231:60,2,50,2|2|10,0:0|1:2|0:0,0:0:0:0:
308,195,22780,2,0,L|441:178,1,99.9999999999999,2|10,1:2|0:0,0:0:0:0:
436,229,23342,1,2,0:0:0:0:
436,229,23530,2,0,L|407:341,1,99.9999999999999,2|10,0:0|0:0,0:0:0:0:
369,349,24092,1,10,0:0:0:0:
369,349,24280,70,0,P|325:327|273:338,1,99.9999999999999,2|8,1:2|0:0,0:0:0:0:
233,360,24842,1,2,0:0:0:0:
233,360,25030,2,0,L|164:363,2,50,2|0|8,0:0|1:2|0:0,0:0:0:0:
175,277,25780,2,0,L|166:161,1,99.9999999999999,2|10,1:2|0:0,0:0:0:0:
136,145,26342,1,2,0:0:0:0:
136,145,26530,2,0,P|186:117|247:127,1,99.9999999999999,2|10,0:0|0:0,0:0:0:0:
316,72,27280,6,0,P|366:100|427:90,1,99.9999999999999,2|8,1:2|0:0,0:0:0:0:
455,78,27842,1,2,0:0:0:0:
455,78,28030,2,0,L|452:19,2,50,2|0|8,0:0|1:2|0:0,0:0:0:0:
512,159,28780,2,0,L|505:240,1,50,2|2,1:2|0:0,0:0:0:0:
484,253,29155,1,10,0:0:0:0:
408,318,29530,2,0,L|300:299,1,99.9999999999999,2|10,0:0|0:0,0:0:0:0:
264,296,30092,1,8,0:0:0:0:
264,296,30280,70,0,P|245:236|275:178,1,99.9999999999999,2|8,1:2|0:0,0:0:0:0:
283,162,30842,1,2,0:0:0:0:
283,162,31030,2,0,L|193:152,2,50,2|0|8,0:0|1:2|0:0,0:0:0:0:
344,241,31780,2,0,L|463:226,1,99.9999999999999,2|10,1:2|0:0,0:0:0:0:
477,272,32342,1,2,0:0:0:0:
477,272,32530,1,2,0:0:0:0:
511,178,32905,1,10,0:0:0:0:
458,92,33280,38,0,P|416:68|360:75,1,99.9999999999999,2|2,1:2|1:2,0:0:0:0:
324,96,33842,1,2,0:0:0:0:
324,96,34030,2,0,L|187:99,1,99.9999999999999,2|2,1:2|1:2,0:0:0:0:
142,39,34780,2,0,P|91:31|30:71,1,99.9999999999999,2|2,1:2|1:2,0:0:0:0:
34,100,35342,1,2,0:0:0:0:
34,100,35530,2,0,L|29:186,1,50,2|0,1:2|0:0,0:0:0:0:
43,198,35905,1,8,0:0:0:0:
61,306,36280,6,0,L|170:294,1,110.000003356934,6|8,1:2|0:0,0:0:0:0:
212,259,36842,1,0,0:0:0:0:
212,259,37030,2,0,L|286:276,2,55.0000016784668,0|0|10,0:0|1:2|0:0,0:0:0:0:
184,210,37592,2,0,P|176:164|205:109,1,110.000003356934,2|2,0:0|0:0,0:0:0:0:
246,74,38155,1,10,0:0:0:0:
336,10,38530,2,0,L|404:21,1,55.0000016784668,2|0,0:0|1:2,0:0:0:0:
425,61,38905,2,0,L|487:52,1,55.0000016784668,10|0,0:0|1:2,0:0:0:0:
500,104,39280,6,0,L|488:237,1,110.000003356934,2|10,1:2|0:0,0:0:0:0:
384,243,40030,2,0,L|392:324,1,55.0000016784668,2|0,0:0|1:2,0:0:0:0:
380,355,40405,1,10,0:0:0:0:
380,355,40592,2,0,L|262:332,1,110.000003356934,2|2,0:0|0:0,0:0:0:0:
217,344,41155,1,10,0:0:0:0:
154,253,41530,2,0,P|126:255|101:266,1,55.0000016784668,2|0,0:0|1:2,0:0:0:0:
53,293,41905,2,0,L|46:234,1,55.0000016784668,10|0,0:0|1:2,0:0:0:0:
42,183,42280,70,0,L|57:51,1,110.000003356934,2|8,1:2|0:0,0:0:0:0:
156,33,43030,2,0,L|165:111,2,55.0000016784668,0|0|10,0:0|1:2|0:0,0:0:0:0:
206,11,43592,2,0,L|321:30,1,110.000003356934,2|2,0:0|0:0,0:0:0:0:
335,79,44155,1,10,0:0:0:0:
423,13,44530,1,2,0:0:0:0:
504,86,44905,1,10,0:0:0:0:
455,184,45280,54,0,L|461:262,1,55.0000016784668,2|2,1:2|0:0,0:0:0:0:
501,274,45655,2,0,L|495:352,1,55.0000016784668,10|2,0:0|1:2,0:0:0:0:
444,347,46030,2,0,P|391:359|339:342,1,110.000003356934,2|10,1:2|0:0,0:0:0:0:
303,237,46780,2,0,P|277:231|239:238,1,55.0000016784668,2|2,1:2|0:0,0:0:0:0:
204,266,47155,2,0,P|178:272|140:265,1,55.0000016784668,10|2,0:0|1:2,0:0:0:0:
118,223,47530,1,2,1:2:0:0:
113,113,47905,2,0,L|119:58,1,55.0000016784668,10|8,0:0|0:0,0:0:0:0:
147,10,48280,22,0,L|14:18,1,110.000003356934,6|10,1:2|0:0,0:0:0:0:
10,123,49030,2,0,L|1:194,1,55.0000016784668,2|0,0:0|1:2,0:0:0:0:
24,234,49405,1,10,0:0:0:0:
24,234,49592,2,0,B|61:238|61:238|86:224|86:224|130:228,1,110.000003356934,2|2,0:0|0:0,0:0:0:0:
169,265,50155,1,10,0:0:0:0:
239,349,50530,2,0,P|272:335|303:335,1,55.0000016784668,2|0,0:0|1:2,0:0:0:0:
350,343,50905,2,0,P|374:339|404:323,1,55.0000016784668,10|0,0:0|1:2,0:0:0:0:
435,275,51280,6,0,L|445:154,1,110.000003356934,2|10,1:2|0:0,0:0:0:0:
338,132,52030,2,0,L|331:60,1,55.0000016784668,2|0,0:0|1:2,0:0:0:0:
353,28,52405,1,10,0:0:0:0:
353,28,52592,2,0,P|304:53|238:35,1,110.000003356934,2|2,0:0|0:0,0:0:0:0:
202,18,53155,1,10,0:0:0:0:
170,123,53530,2,0,L|98:133,1,55.0000016784668,2|0,0:0|1:2,0:0:0:0:
86,83,53905,2,0,L|9:72,1,55.0000016784668,10|0,0:0|1:2,0:0:0:0:
1,28,54280,70,0,L|19:153,1,110.000003356934,2|10,1:2|0:0,0:0:0:0:
10,191,54842,2,0,L|23:263,1,55.0000016784668,2|0,0:0|0:0,0:0:0:0:
31,290,55217,1,2,1:2:0:0:
135,249,55592,1,2,0:0:0:0:
135,249,55780,2,0,L|198:263,1,55.0000016784668,2|2,1:2|0:0,0:0:0:0:
233,292,56155,2,0,L|304:274,1,55.0000016784668,10|2,0:0|0:0,0:0:0:0:
334,304,56530,2,0,L|326:366,2,55.0000016784668,2|2|10,0:0|1:2|0:0,0:0:0:0:
423,239,57280,70,0,L|413:116,1,110.000003356934,2|10,1:2|0:0,0:0:0:0:
395,82,57842,1,2,1:2:0:0:
395,82,58030,2,0,P|349:64|285:80,1,110.000003356934,2|10,1:2|0:0,0:0:0:0:
202,141,58780,2,0,L|83:149,1,110.000003356934,2|10,1:2|0:0,0:0:0:0:
41,157,59342,1,2,1:2:0:0:
41,157,59530,2,0,P|17:204|38:276,1,110.000003356934,2|10,1:2|0:0,0:0:0:0:
114,306,60280,38,0,B|194:294|176:353|255:340,1,150,2|2,0:0|0:0,0:0:0:0:
290,305,61030,1,2,0:0:0:0:
379,259,61405,1,10,0:0:0:0:
353,163,61780,2,0,L|338:64,1,99.9999999999999,2|10,0:0|0:0,0:0:0:0:
244,93,62530,2,0,L|258:191,1,99.9999999999999,2|10,0:0|0:0,0:0:0:0:
169,225,63280,6,0,P|103:232|51:157,1,150,2|2,0:0|0:0,0:0:0:0:
55,122,64030,1,2,0:0:0:0:
136,64,64405,1,10,0:0:0:0:
223,111,64780,2,0,L|340:100,1,99.9999999999999,2|10,0:0|0:0,0:0:0:0:
373,87,65342,1,2,0:0:0:0:
373,87,65530,2,0,P|392:128|385:187,1,99.9999999999999,2|10,0:0|0:0,0:0:0:0:
359,277,66280,70,0,B|409:255|409:255|506:287,1,150,2|2,0:0|0:0,0:0:0:0:
508,334,67030,1,2,0:0:0:0:
419,380,67405,1,10,0:0:0:0:
322,353,67780,2,0,P|262:366|211:342,1,99.9999999999999,2|10,0:0|0:0,0:0:0:0:
128,371,68530,2,0,P|68:358|17:382,1,99.9999999999999,2|10,0:0|0:0,0:0:0:0:
21,273,69280,6,0,L|46:102,1,150,2|2,0:0|0:0,0:0:0:0:
79,90,70030,1,2,0:0:0:0:
153,156,70405,1,2,0:0:0:0:
235,98,70780,2,0,P|282:84|329:98,1,99.9999999999999,2|2,0:0|0:0,0:0:0:0:
326,198,71530,2,0,P|278:212|231:198,1,99.9999999999999,2|2,0:0|0:0,0:0:0:0:
