osu file format v14

[General]
AudioFilename: audio.mp3
AudioLeadIn: 0
PreviewTime: 36186
Countdown: 0
SampleSet: Soft
StackLeniency: 0.5
Mode: 0
LetterboxInBreaks: 0
WidescreenStoryboard: 1

[Editor]
Bookmarks: 280,9280,12280,24280,33280,36280,45280,48280,57280,60280,72280
DistanceSpacing: 1.2
BeatDivisor: 4
GridSize: 16
TimelineZoom: 1

[Metadata]
Title:Backstabber (Cut Ver.)
TitleUnicode:Backstabber (Cut Ver.)
Artist:Ke$ha
ArtistUnicode:Ke$ha
Creator:Shime
Version:Insane
Source:
Tags:english pop kesha animal expanded edition short version jschlatt jiebi gibee games gibee_games
BeatmapID:3230247
BeatmapSetID:1581857

[Difficulty]
HPDrainRate:4.5
CircleSize:3.6
OverallDifficulty:8
ApproachRate:8.8
SliderMultiplier:1.6
SliderTickRate:1

[Events]
//Background and Video events
0,0,"cringe.jpg",0,0
//Break Periods
//Storyboard Layer 0 (Background)
//Storyboard Layer 1 (Fail)
//Storyboard Layer 2 (Pass)
//Storyboard Layer 3 (Foreground)
//Storyboard Layer 4 (Overlay)
//Storyboard Sound Samples

[TimingPoints]
280,375,4,2,72,40,1,0
280,-133.333333333333,4,2,72,40,0,0
2811,-133.333333333333,4,2,72,5,0,0
2905,-133.333333333333,4,2,72,40,0,0
5811,-133.333333333333,4,2,72,5,0,0
5905,-133.333333333333,4,2,72,40,0,0
6280,-133.333333333333,4,2,72,50,0,0
8811,-133.333333333333,4,2,72,5,0,0
8905,-100,4,2,72,50,0,0
9280,-100,4,2,27,70,0,0
11811,-100,4,2,27,5,0,0
11905,-100,4,2,72,70,0,0
12280,-100,4,2,27,55,0,0
12561,-100,4,2,27,5,0,0
12655,-100,4,2,27,55,0,0
15561,-100,4,2,27,5,0,0
15655,-100,4,2,27,55,0,0
18561,-100,4,2,27,5,0,0
18655,-100,4,2,27,55,0,0
24280,-100,4,2,27,60,0,0
24561,-100,4,2,27,5,0,0
24655,-100,4,2,27,60,0,0
27561,-100,4,2,27,5,0,0
27655,-100,4,2,27,60,0,0
30561,-100,4,2,27,5,0,0
30655,-100,4,2,27,60,0,0
35905,-166.666666666667,4,2,27,60,0,0
36280,-76.9230769230769,4,2,27,80,0,0
44905,-133.333333333333,4,2,27,80,0,0
45280,-100,4,2,27,80,0,0
48280,-76.9230769230769,4,2,27,80,0,0
48561,-76.9230769230769,4,2,27,5,0,0
48655,-76.9230769230769,4,2,27,80,0,0
51561,-76.9230769230769,4,2,27,5,0,0
51655,-76.9230769230769,4,2,27,80,0,0
54561,-76.9230769230769,4,2,27,5,0,0
54655,-76.9230769230769,4,2,27,80,0,0
55123,-76.9230769230769,4,2,27,5,0,0
55217,-76.9230769230769,4,2,27,80,0,0
57186,-76.9230769230769,4,2,27,5,0,0
57280,-90.9090909090909,4,2,27,80,0,0
59811,-76.9230769230769,4,2,27,5,0,0
59905,-76.9230769230769,4,2,27,80,0,0
60280,-142.857142857143,4,2,72,50,0,0

[Colours]
Combo1 : 240,70,70
Combo2 : 172,191,173
Combo3 : 111,117,96
Combo4 : 223,197,106
Combo5 : 234,163,119
Combo6 : 155,43,43

[HitObjects]
413,155,280,6,0,L|408:37,2,90.0000034332277,2|2|2,0:0|0:0|0:0,0:0:0:0:
300,211,1030,2,0,L|304:132,1,60.0000022888184,2|0,0:0|0:0,0:0:0:0:
308,30,1405,1,10,0:0:0:0:
291,34,1780,1,2,0:0:0:0:
274,38,2155,1,10,0:0:0:0:
257,43,2530,2,0,P|209:29|161:52,1,90.0000034332277,2|0,0:0|0:0,0:0:0:0:
151,58,2905,1,10,0:0:0:0:
11,189,3280,6,0,L|15:71,2,90.0000034332277,2|2|2,0:0|0:0|0:0,0:0:0:0:
126,243,4030,2,0,L|122:170,1,60.0000022888184,2|0,0:0|0:0,0:0:0:0:
74,316,4405,1,10,0:0:0:0:
74,316,4592,1,2,0:0:0:0:
193,369,4780,69,2,0:0:0:0:
193,369,4967,1,2,0:0:0:0:
257,255,5155,1,10,0:0:0:0:
271,241,5530,2,0,P|319:228|371:258,1,90.0000034332277,2|0,0:0|0:0,0:0:0:0:
377,273,5905,1,10,0:0:0:0:
287,107,6280,6,0,P|239:119|194:99,2,90.0000034332277,2|2|2,0:0|0:0|0:0,0:0:0:0:
373,27,7030,2,0,L|369:104,1,60.0000022888184,2|0,0:0|0:0,0:0:0:0:
410,222,7405,1,10,0:0:0:0:
414,242,7780,1,2,0:0:0:0:
418,262,8155,1,10,0:0:0:0:
424,281,8530,2,0,L|308:276,1,90.0000034332277,2|0,0:0|0:0,0:0:0:0:
301,276,8905,1,10,0:0:0:0:
33,341,9280,6,0,L|42:162,1,160,2|0,1:2|0:0,0:0:0:0:
23,84,9842,1,2,1:2:0:0:
151,254,10030,2,0,L|140:73,1,160,2|0,1:2|0:0,0:0:0:0:
97,9,10592,1,2,1:2:0:0:
265,125,10780,6,0,B|325:128|325:128|363:106|363:106|425:109,1,160,2|0,1:2|0:0,0:0:0:0:
506,158,11342,1,2,1:2:0:0:
368,312,11530,2,0,P|340:260|355:201,1,120,2|0,1:2|0:0,0:0:0:0:
362,195,11905,1,8,0:0:0:0:
419,379,12280,38,0,L|273:350,1,120,2|0,1:2|0:0,0:0:0:0:
292,342,12655,2,0,L|206:348,1,80,8|0,0:0|0:0,0:0:0:0:
62,369,13030,1,2,0:0:0:0:
123,231,13217,1,0,1:2:0:0:
123,231,13405,2,0,L|137:313,1,80,8|0,0:0|0:0,0:0:0:0:
68,157,13780,6,0,P|117:135|156:150,1,80,2|2,1:2|0:0,0:0:0:0:
271,244,14155,2,0,P|227:211|221:170,1,80,10|2,0:0|0:0,0:0:0:0:
244,30,14530,2,0,P|237:83|205:109,1,80,2|0,0:0|1:2,0:0:0:0:
84,31,14905,2,0,L|181:48,1,80,10|0,0:0|0:0,0:0:0:0:
303,153,15280,70,0,B|359:143|340:103|403:94,1,120,2|0,1:2|0:0,0:0:0:0:
425,94,15655,2,0,L|407:192,1,80,8|2,0:0|0:0,0:0:0:0:
382,312,16030,1,2,0:0:0:0:
512,283,16217,1,0,1:2:0:0:
512,283,16405,2,0,P|471:255|427:253,1,80,10|2,0:0|0:0,0:0:0:0:
297,345,16780,6,0,L|287:265,1,80,2|2,1:2|0:0,0:0:0:0:
116,264,17155,2,0,L|189:295,1,80,10|2,0:0|0:0,0:0:0:0:
268,147,17530,2,0,L|203:194,1,80,2|0,0:0|1:2,0:0:0:0:
347,198,17905,1,10,0:0:0:0:
192,88,18092,1,8,0:0:0:0:
390,35,18280,70,0,L|372:169,1,120,2|0,1:2|0:0,0:0:0:0:
347,198,18655,2,0,L|360:295,1,80,8|2,0:0|0:0,0:0:0:0:
433,384,19030,1,2,0:0:0:0:
292,342,19217,1,0,1:2:0:0:
292,342,19405,2,0,L|204:349,1,80,8|2,0:0|0:0,0:0:0:0:
89,186,19780,6,0,P|131:200|155:239,1,80,2|2,1:2|0:0,0:0:0:0:
0,296,20155,2,0,P|-8:252|12:212,1,80,10|2,0:0|0:0,0:0:0:0:
139,314,20530,2,0,P|105:343|60:344,1,80,2|0,0:0|1:2,0:0:0:0:
151,227,20905,2,0,L|238:234,1,80,10|0,0:0|0:0,0:0:0:0:
357,277,21280,70,0,B|314:246|314:246|330:120,1,160,2|10,1:2|0:0,0:0:0:0:
287,20,21842,1,2,0:0:0:0:
210,119,22030,1,2,0:0:0:0:
210,119,22217,1,2,1:2:0:0:
86,5,22405,2,0,L|97:94,1,80,10|0,0:0|0:0,0:0:0:0:
113,266,22780,5,2,1:2:0:0:
210,119,22967,1,2,0:0:0:0:
45,200,23155,1,10,0:0:0:0:
185,298,23342,1,2,0:0:0:0:
129,154,23530,2,0,L|118:243,1,80,2|0,0:0|1:2,0:0:0:0:
96,370,23905,1,10,0:0:0:0:
234,242,24092,1,10,0:0:0:0:
342,384,24280,6,0,P|397:353|464:373,1,120,2|0,1:2|0:0,0:0:0:0:
464,377,24655,2,0,L|470:290,1,80,8|2,0:0|0:0,0:0:0:0:
419,125,25030,1,2,0:0:0:0:
503,222,25217,1,0,1:2:0:0:
332,165,25405,2,0,L|326:78,1,80,8|2,0:0|0:0,0:0:0:0:
404,224,25780,54,0,P|381:247|315:253,1,80,2|2,1:2|0:0,0:0:0:0:
268,122,26155,2,0,P|299:130|337:184,1,80,10|2,0:0|0:0,0:0:0:0:
246,286,26530,2,0,L|136:278,1,80,2|0,0:0|1:2,0:0:0:0:
90,142,26905,2,0,L|169:136,1,80,10|0,0:0|0:0,0:0:0:0:
353,33,27280,38,0,P|303:69|222:51,1,120,2|0,1:2|0:0,0:0:0:0:
225,54,27655,2,0,L|233:145,1,80,8|2,0:0|0:0,0:0:0:0:
242,231,28030,1,2,0:0:0:0:
316,118,28217,1,0,1:2:0:0:
146,221,28405,2,0,P|146:260|167:294,1,80,8|2,0:0|0:0,0:0:0:0:
320,197,28780,54,0,L|316:118,1,80,2|2,1:2|0:0,0:0:0:0:
184,31,29155,2,0,L|180:111,1,80,10|2,0:0|0:0,0:0:0:0:
146,221,29530,1,2,0:0:0:0:
302,158,29717,1,0,1:2:0:0:
246,286,29905,1,10,0:0:0:0:
180,110,30092,1,8,0:0:0:0:
308,353,30280,6,0,P|244:378|171:338,1,120,2|0,1:2|0:0,0:0:0:0:
176,331,30655,2,0,L|171:240,1,80,8|2,0:0|0:0,0:0:0:0:
157,101,31030,1,2,0:0:0:0:
108,190,31217,1,0,1:2:0:0:
259,96,31405,2,0,P|279:53|268:3,1,80,8|2,0:0|0:0,0:0:0:0:
192,234,31780,54,0,L|275:240,1,80,2|2,1:2|0:0,0:0:0:0:
374,83,32155,2,0,L|294:88,1,80,10|2,0:0|0:0,0:0:0:0:
176,120,32530,1,2,0:0:0:0:
337,170,32717,1,0,1:2:0:0:
229,7,32905,2,0,L|130:0,1,80,10|0,0:0|0:0,0:0:0:0:
27,206,33280,22,0,B|86:202|86:202|121:222|121:222|187:217,1,160,2|2,1:2|1:2,0:0:0:0:
138,132,33842,1,2,0:0:0:0:
70,292,34030,1,2,1:2:0:0:
70,292,34217,1,2,0:0:0:0:
222,182,34405,2,0,P|240:138|227:84,1,80,2|0,1:2|0:0,0:0:0:0:
61,87,34780,5,2,1:2:0:0:
91,202,34967,1,2,0:0:0:0:
207,171,35155,1,2,1:2:0:0:
175,56,35342,1,2,0:0:0:0:
11,158,35530,2,0,L|1:249,1,80,2|0,1:2|0:0,0:0:0:0:
136,316,35905,2,0,P|92:293|56:295,1,71.9999978027344,8|0,0:0|0:0,0:0:0:0:
70,292,36280,6,0,P|134:296|195:219,1,155.999992858887,6|0,1:2|0:0,0:0:0:0:
200,222,36655,2,0,L|218:331,1,103.999995239258,8|0,0:0|0:0,0:0:0:0:
355,145,37030,1,0,0:0:0:0:
296,270,37217,1,0,1:2:0:0:
236,96,37405,1,10,0:0:0:0:
375,228,37592,6,0,L|412:-8,1,207.999990478516,2|2,0:0|0:0,0:0:0:0:
290,165,38155,1,10,0:0:0:0:
475,117,38342,1,0,0:0:0:0:
284,32,38530,1,2,0:0:0:0:
200,222,38718,1,0,1:2:0:0:
390,307,38905,2,0,L|378:197,1,103.999995239258,10|0,0:0|1:2,0:0:0:0:
176,312,39280,70,0,B|99:300|133:235|52:222,1,155.999992858887,2|0,1:2|0:0,0:0:0:0:
48,229,39655,2,0,L|76:90,1,103.999995239258,10|0,0:0|0:0,0:0:0:0:
213,102,40030,1,2,0:0:0:0:
57,2,40217,1,0,1:2:0:0:
149,187,40405,1,10,0:0:0:0:
274,15,40592,6,0,P|352:19|354:133,1,207.999990478516,2|2,0:0|0:0,0:0:0:0:
305,243,41155,2,0,P|338:223|408:229,1,103.999995239258,10|0,0:0|0:0,0:0:0:0:
454,381,41530,1,2,0:0:0:0:
285,335,41717,1,0,1:2:0:0:
325,154,41905,1,10,0:0:0:0:
493,199,42092,1,0,1:2:0:0:
305,243,42280,70,0,L|142:200,1,155.999992858887,2|0,1:2|0:0,0:0:0:0:
140,199,42655,2,0,L|164:315,1,103.999995239258,8|0,0:0|0:0,0:0:0:0:
0,205,43030,1,0,0:0:0:0:
159,119,43217,1,0,1:2:0:0:
58,270,43405,1,10,0:0:0:0:
17,89,43592,6,0,L|246:68,1,207.999990478516,2|2,0:0|0:0,0:0:0:0:
344,143,44155,1,10,0:0:0:0:
244,213,44342,1,0,0:0:0:0:
286,21,44530,1,2,0:0:0:0:
477,62,44718,1,0,1:2:0:0:
437,255,44905,2,0,L|426:164,1,90.0000034332277,10|0,0:0|0:0,0:0:0:0:
426,165,45280,38,0,L|400:343,1,160,2|10,1:2|0:0,0:0:0:0:
326,220,45842,1,2,1:2:0:0:
250,384,46030,2,0,P|204:339|201:289,1,80,2|0,1:2|0:0,0:0:0:0:
253,173,46405,2,0,P|236:235|195:262,1,80,10|0,0:0|1:2,0:0:0:0:
168,99,46780,6,0,B|91:81|90:153|17:141,1,160,2|10,1:2|0:0,0:0:0:0:
154,181,47342,1,2,1:2:0:0:
68,0,47530,1,2,1:2:0:0:
20,141,47717,1,8,0:0:0:0:
249,213,47905,1,10,0:0:0:0:
206,33,48092,1,8,0:0:0:0:
30,260,48280,6,0,B|116:248|91:324|199:309,1,155.999992858887,6|0,1:2|0:0,0:0:0:0:
240,350,48655,2,0,P|178:355|149:396,1,103.999995239258,10|0,0:0|0:0,0:0:0:0:
342,273,49030,2,0,P|404:278|433:319,1,103.999995239258,2|0,0:0|1:2,0:0:0:0:
249,213,49405,1,10,0:0:0:0:
377,67,49592,6,0,L|340:283,1,207.999990478516,2|2,0:0|0:0,0:0:0:0:
176,161,50155,2,0,P|212:125|263:126,1,103.999995239258,10|0,0:0|0:0,0:0:0:0:
179,269,50530,1,2,0:0:0:0:
85,113,50717,1,0,1:2:0:0:
240,19,50905,1,10,0:0:0:0:
334,175,51092,1,0,1:2:0:0:
155,45,51280,70,0,P|82:12|-2:69,1,155.999992858887,2|0,1:2|0:0,0:0:0:0:
0,114,51655,2,0,L|12:234,1,103.999995239258,10|0,0:0|0:0,0:0:0:0:
111,300,52030,2,0,L|125:193,1,103.999995239258,2|0,0:0|1:2,0:0:0:0:
155,45,52405,1,10,0:0:0:0:
326,189,52592,6,0,B|247:182|247:182|205:205|205:205|105:196,1,207.999990478516,2|2,0:0|0:0,0:0:0:0:
343,92,53155,2,0,P|390:113|416:191,1,103.999995239258,10|0,0:0|0:0,0:0:0:0:
286,350,53530,1,2,0:0:0:0:
326,189,53717,1,0,1:2:0:0:
487,225,53905,1,10,0:0:0:0:
453,381,54092,1,0,1:2:0:0:
245,242,54280,70,0,B|163:227|173:300|85:283,1,155.999992858887,2|0,1:2|0:0,0:0:0:0:
80,273,54655,1,10,0:0:0:0:
97,48,54842,2,0,P|139:100|113:180,1,155.999992858887,2|0,0:0|0:0,0:0:0:0:
90,187,55217,1,2,1:2:0:0:
218,59,55405,2,0,P|270:36|340:55,1,103.999995239258,8|2,0:0|0:0,0:0:0:0:
309,242,55780,5,2,1:2:0:0:
287,135,55967,1,2,0:0:0:0:
443,85,56155,1,10,0:0:0:0:
399,285,56342,1,2,0:0:0:0:
194,202,56530,1,2,0:0:0:0:
315,41,56717,1,2,1:2:0:0:
482,188,56905,2,0,P|510:237|470:335,1,155.999992858887,10|0,0:0|0:0,0:0:0:0:
416,379,57280,38,0,L|240:363,1,176.000005371094,2|10,1:2|0:0,0:0:0:0:
282,248,57842,1,2,1:2:0:0:
104,372,58030,2,0,P|148:300|109:226,1,176.000005371094,2|10,1:2|0:0,0:0:0:0:
3,135,58592,1,0,1:2:0:0:
59,294,58780,6,0,B|133:326|133:326|262:306,1,176.000005371094,2|10,1:2|0:0,0:0:0:0:
312,199,59342,1,2,1:2:0:0:
230,61,59530,2,0,P|196:121|223:189,1,132.00000402832,2|0,1:2|0:0,0:0:0:0:
231,203,59905,1,10,0:0:0:0:
155,376,60280,38,0,L|142:242,1,111.999996582031,2|10,0:0|0:0,0:0:0:0:
263,374,60842,1,2,0:0:0:0:
263,374,61030,2,0,L|271:299,1,55.9999982910157,2|2,0:0|0:0,0:0:0:0:
272,234,61405,6,0,P|240:247|197:246,1,55.9999982910157,10|0,0:0|0:0,0:0:0:0:
126,170,61780,2,0,P|158:183|201:182,1,55.9999982910157,2|0,0:0|0:0,0:0:0:0:
290,119,62155,2,0,P|258:132|215:131,1,55.9999982910157,10|2,0:0|0:0,0:0:0:0:
141,3,62530,2,0,P|167:30|239:36,1,111.999996582031,2|10,0:0|0:0,0:0:0:0:
357,213,63280,70,0,P|399:188|446:193,2,83.9999974365235,2|2|2,0:0|0:0|0:0,0:0:0:0:
407,321,64030,2,0,L|419:256,1,55.9999982910157,2|2,0:0|0:0,0:0:0:0:
274,230,64405,2,0,L|284:285,1,55.9999982910157,10|0,0:0|0:0,0:0:0:0:
323,384,64780,6,0,L|204:367,1,111.999996582031,2|10,0:0|0:0,0:0:0:0:
148,258,65342,1,2,0:0:0:0:
148,258,65530,2,0,P|184:270|206:302,1,55.9999982910157,2|2,0:0|0:0,0:0:0:0:
74,181,65905,2,0,P|102:155|141:152,1,55.9999982910157,10|2,0:0|0:0,0:0:0:0:
11,309,66280,70,0,L|-4:205,2,83.9999974365235,2|2|2,0:0|0:0|0:0,0:0:0:0:
102,375,67030,2,0,L|46:385,1,55.9999982910157,2|2,0:0|0:0,0:0:0:0:
151,272,67405,6,0,P|172:290|199:296,1,55.9999982910157,10|0,0:0|0:0,0:0:0:0:
213,147,67780,2,0,P|208:174|216:200,1,55.9999982910157,2|0,0:0|0:0,0:0:0:0:
353,134,68155,2,0,P|326:143|307:163,1,55.9999982910157,10|2,0:0|0:0,0:0:0:0:
398,260,68530,2,0,P|430:250|456:161,1,111.999996582031,2|10,0:0|0:0,0:0:0:0:
200,291,69280,70,0,L|99:277,2,83.9999974365235,2|2|2,0:0|0:0|0:0,0:0:0:0:
268,362,70030,2,0,L|341:351,1,55.9999982910157,2|2,0:0|0:0,0:0:0:0:
336,248,70405,6,0,P|300:258|278:283,1,55.9999982910157,2|0,0:0|0:0,0:0:0:0:
414,192,70780,2,0,P|387:165|354:159,1,55.9999982910157,2|0,0:0|0:0,0:0:0:0:
289,83,71155,2,0,P|325:73|347:48,1,55.9999982910157,2|2,0:0|0:0,0:0:0:0:
183,166,71530,2,0,B|125:150|128:194|58:175,1,111.999996582031,2|2,0:0|0:0,0:0:0:0:
