osu file format v14

[General]
AudioFilename: audio.mp3
AudioLeadIn: 0
PreviewTime: 36186
Countdown: 0
SampleSet: Soft
StackLeniency: 0.7
Mode: 0
LetterboxInBreaks: 0
WidescreenStoryboard: 1

[Editor]
Bookmarks: 280,9280,12280,24280,33280,36280,45280,48280,57280,60280,72280
DistanceSpacing: 1.2
BeatDivisor: 1
GridSize: 32
TimelineZoom: 1

[Metadata]
Title:Backstabber (Cut Ver.)
TitleUnicode:Backstabber (Cut Ver.)
Artist:Ke$ha
ArtistUnicode:Ke$ha
Creator:Shime
Version:Hard
Source:
Tags:english pop kesha animal expanded edition short version jschlatt jiebi gibee games gibee_games
BeatmapID:3230246
BeatmapSetID:1581857

[Difficulty]
HPDrainRate:4.2
CircleSize:3.4
OverallDifficulty:6.5
ApproachRate:7.5
SliderMultiplier:1.4
SliderTickRate:1

[Events]
//Background and Video events
0,0,"cringe.jpg",0,0
//Break Periods
//Storyboard Layer 0 (Background)
//Storyboard Layer 1 (Fail)
//Storyboard Layer 2 (Pass)
//Storyboard Layer 3 (Foreground)
//Storyboard Layer 4 (Overlay)
//Storyboard Sound Samples

[TimingPoints]
280,375,4,2,72,40,1,0
280,-125,4,2,72,40,0,0
6280,-125,4,2,72,50,0,0
9280,-125,4,2,27,70,0,0
11905,-125,4,2,72,70,0,0
12280,-125,4,2,27,55,0,0
24280,-125,4,2,27,60,0,0
36280,-90.9090909090909,4,2,27,80,0,0
60280,-125,4,2,72,50,0,0

[Colours]
Combo1 : 240,70,70
Combo2 : 172,191,173
Combo3 : 111,117,96
Combo4 : 223,197,106
Combo5 : 234,163,119
Combo6 : 155,43,43

[HitObjects]
98,195,280,6,0,L|88:91,2,84,2|2|2,0:0|0:0|0:0,0:0:0:0:
98,195,1405,2,0,L|159:182,1,56,10|0,0:0|0:0,0:0:0:0:
196,118,1780,2,0,L|250:128,1,56,2|0,0:0|0:0,0:0:0:0:
301,189,2155,2,0,L|362:176,1,56,10|0,0:0|0:0,0:0:0:0:
454,157,2530,2,0,L|436:282,1,112,2|10,0:0|0:0,0:0:0:0:
298,338,3280,6,0,P|339:338|377:356,2,84,2|2|2,0:0|0:0|0:0,0:0:0:0:
298,338,4405,2,0,L|289:270,1,56,10|2,0:0|0:0,0:0:0:0:
238,223,4780,1,2,0:0:0:0:
238,223,4967,1,2,0:0:0:0:
280,156,5155,2,0,L|289:88,1,56,10|0,0:0|0:0,0:0:0:0:
214,29,5530,2,0,B|173:11|173:11|90:28,1,112,2|10,0:0|0:0,0:0:0:0:
79,178,6280,70,0,P|120:169|156:128,2,84,2|2|2,0:0|0:0|0:0,0:0:0:0:
79,178,7405,2,0,L|91:252,1,56,10|0,0:0|0:0,0:0:0:0:
157,270,7780,2,0,L|145:344,1,56,2|0,0:0|0:0,0:0:0:0:
221,352,8155,2,0,L|293:339,1,56,10|0,0:0|0:0,0:0:0:0:
345,268,8530,2,0,L|234:234,1,112,2|10,0:0|0:0,0:0:0:0:
81,236,9280,22,0,B|43:224|43:224|58:131,1,112,2|0,1:2|0:0,0:0:0:0:
115,103,9842,1,2,1:2:0:0:
180,59,10030,2,0,B|234:51|230:91|287:82,1,112,2|0,1:2|0:0,0:0:0:0:
363,65,10592,1,2,1:2:0:0:
438,42,10780,2,0,L|453:161,1,112,2|0,1:2|0:0,0:0:0:0:
428,227,11342,1,2,1:2:0:0:
381,290,11530,2,0,B|331:315|331:315|277:296,1,112,2|8,1:2|0:0,0:0:0:0:
207,106,12280,54,0,B|153:98|157:138|100:129,1,112,2|8,1:2|0:0,0:0:0:0:
48,77,12842,1,0,0:0:0:0:
48,77,13030,2,0,L|42:20,2,56,2|0|8,0:0|1:2|0:0,0:0:0:0:
7,228,13780,2,0,L|-5:308,1,56,2|2,1:2|0:0,0:0:0:0:
37,351,14155,2,0,L|108:344,1,56,10|2,0:0|0:0,0:0:0:0:
168,317,14530,1,2,0:0:0:0:
168,317,14717,1,0,1:2:0:0:
254,369,14905,1,10,0:0:0:0:
453,340,15280,6,0,P|429:287|455:219,1,112,2|8,1:2|0:0,0:0:0:0:
491,177,15842,1,2,0:0:0:0:
491,177,16030,2,0,L|499:100,1,56,2|0,0:0|1:2,0:0:0:0:
512,47,16405,1,10,0:0:0:0:
360,5,16780,2,0,L|283:-4,1,56,2|2,1:2|0:0,0:0:0:0:
260,63,17155,2,0,L|179:71,1,56,10|2,0:0|0:0,0:0:0:0:
148,12,17530,1,2,0:0:0:0:
80,153,17905,2,0,L|148:145,1,56,10|8,0:0|0:0,0:0:0:0:
186,234,18280,70,0,B|240:226|236:266|293:257,1,112,2|8,1:2|0:0,0:0:0:0:
351,197,18842,1,2,0:0:0:0:
351,197,19030,2,0,L|343:124,2,56,2|0|8,0:0|1:2|0:0,0:0:0:0:
475,293,19780,2,0,L|483:237,1,56,2|2,1:2|0:0,0:0:0:0:
437,175,20155,2,0,L|423:101,1,56,10|2,0:0|0:0,0:0:0:0:
410,43,20530,1,2,0:0:0:0:
410,43,20717,1,0,1:2:0:0:
313,71,20905,1,10,0:0:0:0:
121,6,21280,6,0,L|134:136,1,112,2|10,1:2|0:0,0:0:0:0:
89,184,21842,1,2,0:0:0:0:
89,184,22030,2,0,L|78:265,1,56,2|2,0:0|1:2,0:0:0:0:
66,316,22405,1,10,0:0:0:0:
220,290,22780,2,0,L|291:283,1,56,2|2,1:2|0:0,0:0:0:0:
348,326,23155,1,10,0:0:0:0:
348,326,23342,1,2,0:0:0:0:
403,270,23530,2,0,L|412:200,1,56,2|0,0:0|1:2,0:0:0:0:
369,140,23905,1,10,0:0:0:0:
369,140,24092,1,10,0:0:0:0:
398,43,24280,70,0,B|338:35|346:78|288:71,1,112,2|8,1:2|0:0,0:0:0:0:
239,21,24842,1,2,0:0:0:0:
239,21,25030,2,0,L|253:150,1,112,2|8,0:0|0:0,0:0:0:0:
299,213,25592,1,2,0:0:0:0:
299,213,25780,2,0,L|292:276,1,56,2|2,1:2|0:0,0:0:0:0:
235,318,26155,2,0,L|242:381,1,56,10|2,0:0|0:0,0:0:0:0:
323,384,26530,1,2,0:0:0:0:
323,384,26717,1,0,1:2:0:0:
414,340,26905,1,10,0:0:0:0:
287,247,27280,6,0,P|239:229|182:249,1,112,2|8,1:2|0:0,0:0:0:0:
124,298,27842,1,2,0:0:0:0:
124,298,28030,2,0,L|138:169,1,112,2|8,0:0|0:0,0:0:0:0:
69,135,28592,1,2,0:0:0:0:
69,135,28780,2,0,L|61:60,1,56,2|2,1:2|0:0,0:0:0:0:
29,8,29155,2,0,P|66:-2|101:14,1,56,10|2,0:0|0:0,0:0:0:0:
140,54,29530,1,2,0:0:0:0:
287,1,29905,2,0,L|296:65,1,56,10|8,0:0|0:0,0:0:0:0:
369,124,30280,70,0,L|353:256,1,112,2|8,1:2|0:0,0:0:0:0:
397,307,30842,1,2,0:0:0:0:
397,307,31030,2,0,B|344:320|344:320|294:291,1,112,2|8,0:0|0:0,0:0:0:0:
231,235,31592,1,2,0:0:0:0:
231,235,31780,2,0,L|157:244,1,56,2|2,1:2|0:0,0:0:0:0:
120,185,32155,2,0,L|113:129,1,56,10|2,0:0|0:0,0:0:0:0:
168,73,32530,2,0,B|229:59|219:111|291:97,1,112,2|10,0:0|0:0,0:0:0:0:
436,28,33280,38,0,P|460:63|432:129,1,112,2|2,1:2|1:2,0:0:0:0:
369,159,33842,1,2,0:0:0:0:
294,183,34030,2,0,L|158:162,1,112,2|2,1:2|1:2,0:0:0:0:
106,150,34592,1,0,0:0:0:0:
28,137,34780,2,0,L|40:275,1,112,2|2,1:2|1:2,0:0:0:0:
91,305,35342,1,2,0:0:0:0:
155,349,35530,2,0,P|187:357|229:341,1,56,2|0,1:2|0:0,0:0:0:0:
287,346,35905,1,8,0:0:0:0:
434,189,36280,6,0,P|401:171|355:176,1,77.0000023498536,6|0,1:2|0:0,0:0:0:0:
287,227,36655,1,8,0:0:0:0:
219,173,36842,1,0,0:0:0:0:
219,173,37030,2,0,L|212:95,1,77.0000023498536,0|0,0:0|1:2,0:0:0:0:
155,22,37405,1,10,0:0:0:0:
47,95,37592,2,0,P|-5:112|2:201,1,154.000004699707,2|2,0:0|0:0,0:0:0:0:
88,222,38155,2,0,P|111:255|102:303,1,77.0000023498536,10|0,0:0|0:0,0:0:0:0:
40,352,38530,1,2,0:0:0:0:
40,352,38717,1,0,1:2:0:0:
167,382,38905,1,10,0:0:0:0:
359,290,39280,6,0,L|514:274,1,154.000004699707,2|10,1:2|0:0,0:0:0:0:
464,201,39842,1,0,0:0:0:0:
464,201,40030,2,0,P|458:156|473:123,1,77.0000023498536,2|0,0:0|1:2,0:0:0:0:
512,6,40405,1,10,0:0:0:0:
512,6,40592,2,0,P|451:-14|374:32,1,154.000004699707,2|2,0:0|0:0,0:0:0:0:
336,111,41155,2,0,L|253:103,1,77.0000023498536,10|0,0:0|0:0,0:0:0:0:
185,157,41530,1,2,0:0:0:0:
185,157,41717,1,0,1:2:0:0:
117,93,41905,2,0,L|128:13,1,77.0000023498536,10|0,0:0|1:2,1:2:0:0:
15,162,42280,70,0,B|20:217|20:217|8:251|8:251|13:316,1,154.000004699707,2|8,1:2|0:0,0:0:0:0:
88,375,42842,1,0,0:0:0:0:
88,375,43030,2,0,P|126:358|168:363,1,77.0000023498536,0|0,0:0|1:2,0:0:0:0:
250,381,43405,1,10,0:0:0:0:
243,250,43592,2,0,P|294:247|352:333,1,154.000004699707,2|2,0:0|0:0,0:0:0:0:
432,369,44155,2,0,L|440:292,1,77.0000023498536,10|0,0:0|0:0,0:0:0:0:
505,212,44530,1,2,0:0:0:0:
505,212,44717,1,0,1:2:0:0:
472,84,44905,1,10,0:0:0:0:
270,6,45280,54,0,P|216:51|221:145,1,154.000004699707,2|10,1:2|0:0,0:0:0:0:
283,198,45842,1,2,1:2:0:0:
283,198,46030,2,0,L|293:289,1,77.0000023498536,2|0,1:2|0:0,0:0:0:0:
200,256,46405,1,10,0:0:0:0:
153,364,46592,1,0,1:2:0:0:
153,364,46780,2,0,B|71:341|82:396|-1:366,1,154.000004699707,2|10,1:2|0:0,0:0:0:0:
51,284,47342,1,2,1:2:0:0:
4,210,47530,1,2,1:2:0:0:
4,210,47717,1,8,0:0:0:0:
56,133,47905,1,10,0:0:0:0:
56,133,48092,1,8,0:0:0:0:
19,6,48280,22,0,L|121:25,1,77.0000023498536,6|0,1:2|0:0,0:0:0:0:
185,0,48655,1,10,0:0:0:0:
243,77,48842,1,0,0:0:0:0:
243,77,49030,2,0,L|322:65,1,77.0000023498536,2|0,0:0|1:2,0:0:0:0:
395,12,49405,1,10,0:0:0:0:
494,96,49592,2,0,L|503:254,1,154.000004699707,2|2,0:0|0:0,0:0:0:0:
419,291,50155,2,0,P|381:295|346:278,1,77.0000023498536,10|0,0:0|0:0,0:0:0:0:
262,309,50530,1,2,0:0:0:0:
262,309,50717,1,0,1:2:0:0:
142,339,50905,1,10,0:0:0:0:
0,176,51280,6,0,L|152:155,1,154.000004699707,2|10,1:2|0:0,0:0:0:0:
244,188,51842,1,0,0:0:0:0:
244,188,52030,2,0,L|259:89,1,77.0000023498536,2|0,0:0|1:2,0:0:0:0:
343,140,52405,1,10,0:0:0:0:
467,180,52592,2,0,L|439:28,1,154.000004699707,2|2,0:0|0:0,0:0:0:0:
346,31,53155,2,0,L|259:15,1,77.0000023498536,10|0,0:0|0:0,0:0:0:0:
208,86,53530,1,2,0:0:0:0:
208,86,53717,1,0,1:2:0:0:
140,149,53905,2,0,L|151:239,1,77.0000023498536,10|0,0:0|1:2,0:0:0:0:
277,252,54280,70,0,L|259:339,1,77.0000023498536,2|0,1:2|0:0,0:0:0:0:
351,364,54655,1,10,0:0:0:0:
351,364,54842,2,0,P|388:372|425:362,1,77.0000023498536,2|0,0:0|0:0,0:0:0:0:
442,270,55217,2,0,P|467:241|477:204,1,77.0000023498536,2|8,1:2|0:0,0:0:0:0:
420,137,55592,1,2,0:0:0:0:
420,137,55780,2,0,P|408:100|381:73,1,77.0000023498536,2|2,1:2|0:0,0:0:0:0:
289,83,56155,2,0,P|251:74|214:84,1,77.0000023498536,10|2,0:0|0:0,0:0:0:0:
130,116,56530,1,2,0:0:0:0:
130,116,56717,1,2,1:2:0:0:
64,2,56905,1,10,0:0:0:0:
0,201,57280,70,0,L|166:220,1,154.000004699707,2|10,1:2|0:0,0:0:0:0:
111,301,57842,1,2,1:2:0:0:
69,383,58030,2,0,L|229:364,1,154.000004699707,2|10,1:2|0:0,0:0:0:0:
314,355,58592,1,0,1:2:0:0:
405,339,58780,2,0,P|427:267|394:199,1,154.000004699707,2|10,1:2|0:0,0:0:0:0:
305,174,59342,1,2,1:2:0:0:
215,151,59530,2,0,P|192:79|225:11,1,154.000004699707,2|10,1:2|0:0,0:0:0:0:
388,60,60280,38,0,B|329:53|338:92|281:86,1,112,2|10,0:0|0:0,0:0:0:0:
205,81,60842,1,2,0:0:0:0:
205,81,61030,2,0,L|124:72,1,56,2|2,0:0|0:0,0:0:0:0:
91,125,61405,2,0,L|100:203,1,56,10|0,0:0|0:0,0:0:0:0:
167,253,61780,2,0,L|152:386,1,112,2|10,0:0|0:0,0:0:0:0:
234,384,62342,1,2,0:0:0:0:
234,384,62530,2,0,P|289:355|355:373,1,112,2|10,0:0|0:0,0:0:0:0:
430,235,63280,6,0,L|521:252,2,84,2|2|2,0:0|0:0|0:0,0:0:0:0:
352,250,64030,2,0,L|345:183,1,56,2|2,0:0|0:0,0:0:0:0:
381,123,64405,2,0,L|392:51,1,56,10|0,0:0|0:0,0:0:0:0:
323,7,64780,1,2,0:0:0:0:
102,81,65342,1,2,0:0:0:0:
102,81,65530,2,0,L|27:73,1,56,2|2,0:0|0:0,0:0:0:0:
159,139,65905,2,0,L|234:131,1,56,10|2,0:0|0:0,0:0:0:0:
83,229,66280,70,0,L|-14:239,2,84,2|2|2,0:0|0:0|0:0,0:0:0:0:
145,276,67030,2,0,B|204:269|195:308|252:302,1,112,2|10,0:0|0:0,0:0:0:0:
333,242,67592,1,0,0:0:0:0:
333,242,67780,2,0,P|361:191|344:124,1,112,2|10,0:0|0:0,0:0:0:0:
302,79,68342,1,2,0:0:0:0:
302,79,68530,2,0,B|345:86|345:86|372:75|372:75|416:81,1,112,2|10,0:0|0:0,0:0:0:0:
500,209,69280,6,0,L|489:101,2,84,2|2|2,0:0|0:0|0:0,0:0:0:0:
449,269,70030,2,0,L|382:258,1,56,2|2,0:0|0:0,0:0:0:0:
326,219,70405,2,0,L|250:228,1,56,2|0,0:0|0:0,0:0:0:0:
180,270,70780,2,0,P|129:246|54:269,1,112,2|2,0:0|0:0,0:0:0:0:
65,335,71342,1,2,0:0:0:0:
65,335,71530,2,0,P|116:359|191:336,1,112,2|2,0:0|0:0,0:0:0:0:
