osu file format v14

[General]
AudioFilename: audio.mp3
AudioLeadIn: 0
PreviewTime: 93131
Countdown: 0
SampleSet: Soft
StackLeniency: 0.4
Mode: 0
LetterboxInBreaks: 0
WidescreenStoryboard: 0

[Editor]
DistanceSpacing: 0.8
BeatDivisor: 4
GridSize: 8
TimelineZoom: 2.4

[Metadata]
Title:Di A Ni Zhe Yang Bu Ke Neng Chi A
TitleUnicode:弟啊你这样不可能吃啊
Artist:Ke Xue Qiu
ArtistUnicode:科学球
Creator:Regraz
Version:Lunatic
Source:
Tags:Kexueqiu 坂田合欢乃 Touhou Bilibili MAD 潮汕英豪传 Chaoshan Yinghaozhuan 蜘猪侠 神必人 傻风牌 烧仙草 皇冠影视 dssq 饮冰室合集 梁启超 塘埔冰室 潮汕天邪鬼 鬼人正邪 Touhou
BeatmapID:924254
BeatmapSetID:426934

[Difficulty]
HPDrainRate:5.6
CircleSize:5
OverallDifficulty:8.2
ApproachRate:8.7
SliderMultiplier:2.1
SliderTickRate:1

[Events]
//Background and Video events
Video,0,"mad.flv"
0,0,"730e0cf3d7ca7bcb1950d54eb6096b63f624a8a3.jpg",0,0
//Break Periods
2,93040,94388
//Storyboard Layer 0 (Background)
//Storyboard Layer 1 (Fail)
//Storyboard Layer 2 (Pass)
//Storyboard Layer 3 (Foreground)
//Storyboard Sound Samples

[TimingPoints]
6035,387.096774193548,4,2,0,50,1,0
95138,387.096774193548,4,2,0,50,1,1
95138,-100,4,2,0,50,0,1
107137,-100,4,2,0,50,0,0
107525,-100,4,2,0,50,0,1
119912,-100,4,2,0,50,0,0

[Colours]
Combo1 : 79,36,113
Combo2 : 47,125,204
Combo3 : 196,164,142
Combo4 : 129,14,31

[HitObjects]
52,105,6034,6,0,P|121:80|186:198,1,210
99,268,6615,1,0,0:0:0:0:
99,268,6712,1,0,0:0:0:0:
99,268,6809,2,0,L|113:150,1,105
271,44,7196,2,0,L|279:161,1,105
180,298,7583,6,0,P|109:355|12:277,1,210
30,214,8164,1,0,0:0:0:0:
256,230,8357,2,0,L|366:221,1,105
387,241,8647,1,0,0:0:0:0:
387,241,8744,2,0,L|504:232,1,105
338,344,9131,6,0,P|268:328|265:196,1,210
395,70,9712,1,0,0:0:0:0:
399,94,9809,1,0,0:0:0:0:
402,116,9905,1,0,0:0:0:0:
406,137,10002,1,0,0:0:0:0:
410,160,10099,2,0,L|337:152,1,52.5
223,97,10293,1,0,0:0:0:0:
227,118,10390,1,0,0:0:0:0:
231,141,10487,2,0,L|158:133,1,52.5
19,233,10680,6,0,L|129:218,1,105
154,240,10970,1,0,0:0:0:0:
154,240,11067,2,0,P|97:226|87:179,1,105
196,52,11454,1,0,0:0:0:0:
317,185,11647,1,0,0:0:0:0:
339,167,11744,1,0,0:0:0:0:
362,151,11841,2,0,L|352:230,1,52.5
453,344,12034,2,0,L|446:291,1,52.5
341,98,12228,6,0,L|354:202,1,105
98,268,12615,2,0,L|111:163,1,105
237,57,13002,1,0,0:0:0:0:
198,263,13196,1,0,0:0:0:0:
53,121,13389,2,0,P|129:94|171:126,1,105
328,256,13776,6,0,L|223:263,1,105
202,41,14164,2,0,L|306:33,1,105
444,173,14551,1,0,0:0:0:0:
361,356,14744,1,0,0:0:0:0:
268,194,14938,2,0,P|189:191|153:218,1,105
140,235,15228,1,0,0:0:0:0:
140,235,15325,6,0,L|146:95,1,105
29,277,15712,1,0,0:0:0:0:
231,277,15905,1,0,0:0:0:0:
256,271,16002,1,0,0:0:0:0:
290,264,16099,1,0,0:0:0:0:
318,259,16196,1,0,0:0:0:0:
348,254,16293,2,0,L|338:321,1,52.5
336,152,16486,1,0,0:0:0:0:
336,152,16583,1,0,0:0:0:0:
336,152,16680,2,0,L|344:202,3,26.25
350,198,16873,6,0,P|291:214|250:190,1,105
413,6,17260,2,0,L|429:145,1,105
224,101,17647,1,0,0:0:0:0:
224,101,17744,1,0,0:0:0:0:
224,101,17841,2,0,L|150:88,1,52.5
20,193,18034,1,0,0:0:0:0:
56,187,18130,1,0,0:0:0:0:
92,182,18227,1,0,0:0:0:0:
129,176,18324,1,0,0:0:0:0:
165,171,18422,6,0,L|153:306,3,105
228,102,19196,2,0,L|105:160,3,105
319,123,19970,2,0,L|208:46,3,105
347,212,20744,2,0,L|358:77,3,105
283,281,21518,6,0,L|406:223,3,105
192,260,22292,2,0,L|303:337,3,105
165,171,23067,2,0,L|153:306,3,105
228,102,23841,2,0,L|105:160,3,105
256,64,24615,6,0,P|254:144|288:196,3,105
366,128,25389,2,0,P|296:166|268:221,3,105
366,256,26164,2,0,P|298:214|236:217,3,105
256,320,26938,2,0,P|258:240|224:188,3,105
145,256,27712,6,0,P|215:217|243:162,3,105
145,128,28486,2,0,P|213:169|275:166,3,105
256,64,29260,2,0,P|254:144|287:195,3,105
333,187,29938,2,0,L|377:175,1,26.25
386,172,30034,6,0,L|375:309,1,105
210,365,30422,1,0,0:0:0:0:
203,328,30518,1,0,0:0:0:0:
197,292,30615,1,0,0:0:0:0:
190,256,30712,1,0,0:0:0:0:
184,220,30809,6,0,P|108:240|82:277,1,105
292,242,31196,2,0,L|311:114,1,105
199,116,31583,1,0,0:0:0:0:
199,116,31776,1,0,0:0:0:0:
309,61,31970,2,0,P|364:85|385:134,1,105
208,220,32357,6,0,L|198:106,1,105
104,192,32744,1,0,0:0:0:0:
289,215,32938,1,0,0:0:0:0:
289,215,33034,1,0,0:0:0:0:
289,215,33131,2,0,P|275:276|219:301,1,105
123,115,33518,1,0,0:0:0:0:
159,117,33614,1,0,0:0:0:0:
196,119,33711,1,0,0:0:0:0:
233,121,33808,1,0,0:0:0:0:
269,124,33905,6,0,P|249:65|275:8,1,105
473,26,34293,2,0,L|457:167,1,105
478,158,34583,1,0,0:0:0:0:
478,158,34680,2,0,P|416:143|370:219,2,157.5
410,284,35454,6,0,L|380:53,1,210
272,202,36034,1,0,0:0:0:0:
272,202,36131,1,0,0:0:0:0:
272,202,36228,2,0,P|335:208|368:181,1,105
482,64,36615,2,0,L|361:57,1,105
214,152,37002,6,0,P|217:265|310:284,1,210
337,194,37583,1,0,0:0:0:0:
225,129,37776,2,0,L|116:123,1,105
17,269,38164,2,0,L|126:263,1,105
239,260,38551,5,0,0:0:0:0:
360,257,38744,1,0,0:0:0:0:
360,257,38841,1,0,0:0:0:0:
360,257,38938,2,0,B|371:308|371:308|355:382,1,105
121,263,39325,2,0,B|109:211|109:211|120:160,1,105
237,56,39712,1,0,0:0:0:0:
357,182,39905,1,0,0:0:0:0:
357,182,40002,1,0,0:0:0:0:
357,182,40099,6,0,L|228:174,1,105
97,280,40486,2,0,L|230:270,1,105
310,315,40873,1,0,0:0:0:0:
261,151,41067,1,0,0:0:0:0:
175,335,41260,2,0,P|135:292|151:228,1,105
161,221,41551,1,0,0:0:0:0:
161,221,41647,6,0,L|50:232,1,105
173,114,42034,1,0,0:0:0:0:
246,282,42228,1,0,0:0:0:0:
268,278,42325,1,0,0:0:0:0:
291,275,42422,2,0,L|279:340,1,52.5
387,376,42615,2,0,L|377:324,1,52.5
352,200,42809,1,0,0:0:0:0:
352,200,42905,1,0,0:0:0:0:
352,200,43002,1,0,0:0:0:0:
178,345,43196,6,0,P|119:303|180:192,1,210
232,141,43776,1,0,0:0:0:0:
377,324,43970,2,0,L|158:316,1,210
75,356,44551,1,0,0:0:0:0:
96,262,44744,6,0,P|127:204|118:146,1,105
110,133,45034,1,0,0:0:0:0:
110,133,45131,2,0,P|90:197|109:239,1,105
274,162,45518,1,0,0:0:0:0:
175,59,45712,1,0,0:0:0:0:
84,248,45905,2,0,L|230:229,1,105
451,313,46293,6,0,P|339:301|346:202,1,210
371,102,46873,1,0,0:0:0:0:
371,102,46970,1,0,0:0:0:0:
371,102,47067,2,0,L|368:228,1,105
141,102,47454,2,0,L|144:228,1,105
395,77,47841,6,0,L|392:203,1,105
115,70,48228,2,0,L|118:196,1,105
381,260,48615,2,0,P|454:232|468:175,1,105
254,193,49002,1,0,0:0:0:0:
139,338,49196,1,0,0:0:0:0:
139,338,49293,1,0,0:0:0:0:
139,338,49389,6,0,P|73:351|68:215,1,210
138,235,49970,1,0,0:0:0:0:
268,336,50164,2,0,L|260:215,1,105
396,121,50551,2,0,L|389:225,1,105
415,247,50841,1,0,0:0:0:0:
415,247,50938,6,0,L|354:239,1,52.5
411,341,51131,2,0,L|472:333,1,52.5
272,257,51325,2,0,L|211:249,1,52.5
264,350,51518,1,0,0:0:0:0:
264,350,51615,1,0,0:0:0:0:
264,350,51712,2,0,L|332:342,1,52.5
272,257,51905,2,0,L|211:249,1,52.5
106,360,52099,2,0,L|174:352,1,52.5
114,267,52292,2,0,L|53:259,1,52.5
265,179,52486,6,0,P|346:141|328:236,1,210
131,196,53067,1,0,0:0:0:0:
131,196,53164,1,0,0:0:0:0:
131,196,53260,2,0,L|144:320,1,105
335,332,53647,2,0,L|345:227,1,105
131,196,54034,5,0,0:0:0:0:
359,129,54228,1,0,0:0:0:0:
127,121,54422,2,0,P|70:151|62:198,1,105
60,186,54712,1,0,0:0:0:0:
60,186,54809,1,0,0:0:0:0:
261,164,55002,1,0,0:0:0:0:
454,132,55196,1,0,0:0:0:0:
85,44,55583,6,0,L|104:270,1,210
367,113,56164,1,0,0:0:0:0:
390,106,56260,1,0,0:0:0:0:
416,100,56357,2,0,L|402:219,1,105
226,50,56744,2,0,L|212:169,1,105
69,331,57131,6,0,P|114:232|213:300,1,210
454,330,57905,2,0,L|333:341,1,105
344,346,58196,1,0,0:0:0:0:
338,354,58293,2,0,P|321:301|355:246,1,105
463,120,58680,6,0,L|452:365,1,210
282,118,59260,1,0,0:0:0:0:
282,118,59357,1,0,0:0:0:0:
282,118,59454,2,0,L|289:181,1,52.5
179,229,59647,2,0,L|184:176,1,52.5
305,246,59841,2,0,L|312:309,1,52.5
166,357,60034,2,0,L|171:304,1,52.5
229,60,60228,6,0,P|315:49|345:173,1,210
51,208,61002,2,0,L|173:193,1,105
180,346,61389,1,0,0:0:0:0:
143,343,61485,1,0,0:0:0:0:
106,340,61582,1,0,0:0:0:0:
70,338,61679,1,0,0:0:0:0:
33,335,61776,6,0,P|25:266|53:213,1,105
473,235,62164,2,0,P|487:284|477:335,1,105
178,268,62551,1,0,0:0:0:0:
329,251,62744,1,0,0:0:0:0:
473,235,62938,2,0,L|490:97,1,105
485,130,63228,1,0,0:0:0:0:
485,130,63325,6,0,P|413:110|372:131,1,105
73,277,63712,2,0,L|204:265,1,105
207,289,64002,1,0,0:0:0:0:
207,289,64099,1,0,0:0:0:0:
280,85,64293,1,0,0:0:0:0:
385,321,64486,1,0,0:0:0:0:
207,50,64680,1,0,0:0:0:0:
207,50,64776,1,0,0:0:0:0:
207,50,64873,6,0,L|214:169,1,105
470,358,65260,2,0,L|485:228,1,105
341,169,65647,1,0,0:0:0:0:
341,169,65744,1,0,0:0:0:0:
341,169,65841,2,0,L|351:234,1,52.5
205,299,66034,1,0,0:0:0:0:
205,299,66131,1,0,0:0:0:0:
205,299,66228,2,0,L|215:234,1,52.5
62,43,66422,6,0,L|80:170,1,105
374,245,66809,2,0,L|359:141,1,105
169,213,67196,1,0,0:0:0:0:
144,211,67293,1,0,0:0:0:0:
116,208,67389,1,0,0:0:0:0:
280,112,67583,1,0,0:0:0:0:
316,107,67679,1,0,0:0:0:0:
352,102,67776,1,0,0:0:0:0:
389,97,67873,1,0,0:0:0:0:
425,92,67970,6,0,P|432:132|423:206,1,105
252,175,68357,2,0,L|131:187,1,105
90,220,68647,1,0,0:0:0:0:
90,220,68744,2,0,P|119:163|103:106,1,105
42,279,69131,2,0,P|110:291|151:255,1,105
262,106,69518,5,0,0:0:0:0:
258,132,69614,1,0,0:0:0:0:
255,158,69711,1,0,0:0:0:0:
266,287,69905,1,0,0:0:0:0:
113,124,70099,1,0,0:0:0:0:
335,58,70293,2,0,L|350:177,1,105
454,286,70680,1,0,0:0:0:0:
467,101,70873,1,0,0:0:0:0:
320,223,71067,6,0,P|280:168|373:101,1,210
356,308,71647,1,0,0:0:0:0:
356,308,71744,1,0,0:0:0:0:
356,308,71841,2,0,B|301:309|301:309|247:292|247:292|180:292,2,157.5
134,334,72615,6,0,P|169:255|84:268,1,210
65,151,73196,1,0,0:0:0:0:
65,151,73293,1,0,0:0:0:0:
65,151,73389,2,0,L|73:261,1,105
329,153,73776,2,0,L|336:48,1,105
82,45,74164,6,0,L|72:266,1,210
197,162,74744,1,0,0:0:0:0:
346,183,74938,2,0,P|259:232|197:146,1,210
323,61,75518,1,0,0:0:0:0:
323,61,75615,1,0,0:0:0:0:
323,61,75712,6,0,L|442:54,1,105
450,176,76099,2,0,L|345:182,1,105
171,316,76486,1,0,0:0:0:0:
196,161,76680,1,0,0:0:0:0:
307,266,76873,1,0,0:0:0:0:
136,200,77067,1,0,0:0:0:0:
136,200,77164,1,0,0:0:0:0:
136,200,77260,6,0,P|125:141|267:128,1,210
292,159,77841,1,0,0:0:0:0:
39,247,78034,2,0,L|281:229,1,210
366,269,78615,1,0,0:0:0:0:
230,218,78809,6,0,L|247:329,1,105
144,141,79196,1,0,0:0:0:0:
77,292,79389,1,0,0:0:0:0:
77,292,79486,1,0,0:0:0:0:
77,292,79583,2,0,L|8:286,1,52.5
144,141,79776,2,0,L|213:135,1,52.5
239,300,79970,2,0,L|170:294,1,52.5
306,149,80163,2,0,L|375:143,1,52.5
399,353,80357,6,0,P|288:330|284:246,1,210
355,182,80938,1,0,0:0:0:0:
502,202,81131,2,0,L|261:224,1,210
196,176,81712,1,0,0:0:0:0:
189,331,81905,6,0,P|134:265|224:174,1,210
355,80,82486,1,0,0:0:0:0:
355,80,82583,1,0,0:0:0:0:
355,80,82680,2,0,L|232:72,1,105
91,182,83067,2,0,L|214:174,1,105
375,55,83454,6,0,B|412:15|412:15|395:217,1,210
71,249,84034,1,0,0:0:0:0:
71,249,84131,1,0,0:0:0:0:
71,249,84228,2,0,L|200:240,1,105
444,141,84615,2,0,L|315:132,1,105
199,7,85002,6,0,L|208:136,1,105
307,380,85389,2,0,L|316:251,1,105
103,319,85776,2,0,P|41:251|117:171,1,210
328,255,86357,1,0,0:0:0:0:
328,255,86454,1,0,0:0:0:0:
328,255,86551,6,0,L|114:247,1,210
223,147,87131,1,0,0:0:0:0:
352,234,87325,2,0,P|335:304|357:340,1,105
429,149,87712,1,0,0:0:0:0:
379,75,87905,1,0,0:0:0:0:
345,83,88002,1,0,0:0:0:0:
318,88,88099,5,0,0:0:0:0:
289,96,88196,1,0,0:0:0:0:
254,104,88293,2,0,L|269:172,1,52.5
192,240,88486,1,0,0:0:0:0:
221,248,88583,1,0,0:0:0:0:
256,256,88680,2,0,L|241:324,1,52.5
93,227,88873,2,0,L|80:141,1,52.5
218,48,89067,2,0,L|210:99,1,52.5
69,257,89260,2,0,L|56:171,1,52.5
252,38,89454,2,0,L|244:89,1,52.5
320,318,89647,6,0,P|419:290|405:177,1,210
259,270,90228,1,0,0:0:0:0:
465,188,90422,2,0,L|349:178,1,105
150,31,90809,2,0,P|147:98|174:128,1,105
169,124,91099,1,0,0:0:0:0:
169,124,91196,6,0,P|116:141|58:127,1,105
372,74,91583,2,0,L|358:199,1,105
124,232,91970,1,0,0:0:0:0:
360,178,92164,1,0,0:0:0:0:
74,47,92357,1,0,0:0:0:0:
433,140,92551,1,0,0:0:0:0:
433,140,92647,1,0,0:0:0:0:
433,140,92744,6,0,L|443:214,1,52.5
64,241,95138,5,0,0:0:0:0:
246,53,95331,1,0,0:0:0:0:
338,209,95525,2,0,L|203:193,1,105
437,277,95912,1,0,0:0:0:0:
437,277,96008,1,0,0:0:0:0:
437,277,96105,1,0,0:0:0:0:
186,302,96299,1,0,0:0:0:0:
481,214,96492,6,0,P|490:331|412:351,1,210
94,331,97073,2,0,L|223:314,1,105
274,124,97460,1,0,0:0:0:0:
274,124,97557,1,0,0:0:0:0:
274,124,97654,1,0,0:0:0:0:
384,252,97847,1,0,0:0:0:0:
218,19,98041,2,0,L|242:242,1,210
39,48,98621,6,0,P|108:23|165:44,1,105
336,112,99008,1,0,0:0:0:0:
336,112,99105,1,0,0:0:0:0:
336,112,99202,1,0,0:0:0:0:
187,319,99396,2,0,L|204:189,1,105
200,214,99976,5,0,0:0:0:0:
400,76,100170,1,0,0:0:0:0:
389,293,100363,1,0,0:0:0:0:
250,96,100557,1,0,0:0:0:0:
250,96,100654,1,0,0:0:0:0:
250,96,100750,1,0,0:0:0:0:
44,236,100944,2,0,L|226:210,1,157.5
237,234,101331,5,0,0:0:0:0:
84,81,101525,1,0,0:0:0:0:
23,318,101718,2,0,P|91:299|119:266,1,105
84,81,102105,1,0,0:0:0:0:
84,81,102202,1,0,0:0:0:0:
84,81,102299,1,0,0:0:0:0:
292,63,102492,1,0,0:0:0:0:
499,47,102686,6,0,P|436:107|362:29,1,210
41,162,103267,2,0,L|186:144,1,105
352,294,103654,1,0,0:0:0:0:
352,294,103750,1,0,0:0:0:0:
352,294,103847,1,0,0:0:0:0:
160,136,104041,2,0,P|154:209|175:245,1,105
240,59,104428,5,0,0:0:0:0:
405,191,104621,1,0,0:0:0:0:
162,237,104815,2,0,L|36:227,1,105
240,59,105202,1,0,0:0:0:0:
240,59,105299,1,0,0:0:0:0:
240,59,105396,1,0,0:0:0:0:
266,309,105589,1,0,0:0:0:0:
384,114,105783,6,0,P|479:184|423:263,1,210
260,246,106363,1,0,0:0:0:0:
79,237,106557,1,0,0:0:0:0:
326,333,106750,1,0,0:0:0:0:
362,328,106846,1,0,0:0:0:0:
398,324,106943,1,0,0:0:0:0:
435,319,107040,1,0,0:0:0:0:
471,315,107137,2,0,L|464:374,1,52.5
241,165,107331,2,0,L|255:240,1,52.5
352,87,107525,5,0,0:0:0:0:
191,268,107718,1,0,0:0:0:0:
369,187,107912,2,0,L|385:71,1,105
179,80,108299,1,0,0:0:0:0:
205,77,108395,1,0,0:0:0:0:
231,74,108492,1,0,0:0:0:0:
66,189,108686,1,0,0:0:0:0:
301,34,108879,6,0,P|304:127|212:151,1,157.5
216,146,109267,1,0,0:0:0:0:
89,58,109460,1,0,0:0:0:0:
45,240,109654,1,0,0:0:0:0:
233,221,109847,1,0,0:0:0:0:
228,246,109943,1,0,0:0:0:0:
224,272,110040,1,0,0:0:0:0:
368,220,110234,1,0,0:0:0:0:
141,309,110428,1,0,0:0:0:0:
284,81,110621,6,0,L|301:203,1,105
439,348,111008,2,0,L|462:208,1,105
257,254,111396,1,0,0:0:0:0:
231,246,111492,1,0,0:0:0:0:
206,238,111589,1,0,0:0:0:0:
60,320,111783,1,0,0:0:0:0:
274,186,111976,6,0,P|333:253|241:326,1,210
30,231,112557,2,0,L|53:357,1,105
106,131,112944,1,0,0:0:0:0:
106,131,113041,1,0,0:0:0:0:
106,131,113137,1,0,0:0:0:0:
233,309,113331,2,0,P|169:298|144:198,1,157.5
153,203,113718,6,0,L|282:214,1,105
257,72,114105,1,0,0:0:0:0:
327,273,114299,1,0,0:0:0:0:
457,94,114492,1,0,0:0:0:0:
431,88,114588,1,0,0:0:0:0:
405,82,114685,1,0,0:0:0:0:
269,162,114879,1,0,0:0:0:0:
483,102,115073,5,0,0:0:0:0:
485,122,115460,1,0,0:0:0:0:
285,234,115654,2,0,P|198:169|197:153,1,105
26,350,116041,1,0,0:0:0:0:
51,344,116137,1,0,0:0:0:0:
77,338,116234,1,0,0:0:0:0:
201,183,116428,1,0,0:0:0:0:
54,68,116621,1,0,0:0:0:0:
229,151,116815,6,0,L|224:273,1,105
37,47,117202,2,0,L|53:170,1,105
291,105,117589,1,0,0:0:0:0:
291,105,117686,1,0,0:0:0:0:
291,105,117783,1,0,0:0:0:0:
141,282,117976,1,0,0:0:0:0:
384,152,118170,6,0,P|455:149|432:279,1,210
254,190,118750,1,0,0:0:0:0:
125,245,118944,1,0,0:0:0:0:
386,245,119137,2,0,L|379:297,1,52.5
125,245,119331,2,0,L|133:297,1,52.5
284,159,119525,1,0,0:0:0:0:
215,149,119621,1,0,0:0:0:0:
203,83,119718,1,0,0:0:0:0:
262,50,119815,1,0,0:0:0:0:
312,96,119912,5,0,0:0:0:0:
312,96,120492,1,0,0:0:0:0:
312,96,120589,1,0,0:0:0:0:
312,96,120686,2,0,L|422:87,1,105
274,317,121073,2,0,L|135:306,1,105
395,228,121460,6,0,B|433:250|479:237|479:237|504:293|459:363,1,210
363,328,122041,1,0,0:0:0:0:
221,139,122234,2,0,L|237:264,1,105
238,274,122525,1,0,0:0:0:0:
238,274,122621,2,0,P|165:248|119:264,1,105
13,377,123008,6,0,L|241:344,1,210
317,246,123589,1,0,0:0:0:0:
317,246,123686,1,0,0:0:0:0:
317,246,123783,2,0,L|397:255,1,52.5
326,125,123976,2,0,L|246:134,1,52.5
184,242,124170,2,0,L|264:251,1,52.5
179,142,124363,2,0,L|99:151,1,52.5
415,113,124557,5,0,0:0:0:0:
388,330,124750,1,0,0:0:0:0:
388,330,124847,1,0,0:0:0:0:
388,330,124944,2,0,L|258:320,1,105
45,354,125331,1,0,0:0:0:0:
150,181,125525,1,0,0:0:0:0:
150,181,125621,1,0,0:0:0:0:
150,181,125718,2,0,L|135:247,1,52.5
283,321,125912,2,0,L|271:269,1,52.5
133,77,126105,6,0,L|156:219,1,105
377,305,126492,2,0,L|393:201,1,105
288,91,126879,1,0,0:0:0:0:
207,324,127073,1,0,0:0:0:0:
353,47,127267,2,0,P|296:17|243:31,1,105
377,305,127654,6,0,L|499:294,1,105
149,180,128041,2,0,L|26:194,1,105
266,76,128428,1,0,0:0:0:0:
210,298,128621,1,0,0:0:0:0:
481,295,128815,2,0,B|493:245|493:245|482:191,1,105
43,89,129202,6,0,B|32:141|32:141|44:191,1,105
256,190,129589,1,0,0:0:0:0:
482,192,129783,1,0,0:0:0:0:
482,192,129879,1,0,0:0:0:0:
482,192,129976,2,0,L|415:178,1,52.5
353,293,130170,2,0,L|423:281,1,52.5
307,200,130363,2,0,L|240:186,1,52.5
178,301,130557,2,0,L|248:289,1,52.5
488,87,130750,6,0,L|479:223,1,105
24,87,131137,2,0,L|33:223,1,105
214,338,131525,1,0,0:0:0:0:
219,312,131621,1,0,0:0:0:0:
225,286,131718,1,0,0:0:0:0:
304,51,131912,1,0,0:0:0:0:
313,102,132008,1,0,0:0:0:0:
322,154,132105,1,0,0:0:0:0:
331,206,132202,1,0,0:0:0:0:
341,257,132299,5,0,0:0:0:0:
256,192,132396,12,0,138492,0:0:0:0:
