osu file format v14

[General]
AudioFilename: Dragon Ball Super Opening () OP [1080p](mp3)(mp3).mp3
AudioLeadIn: 0
PreviewTime: -1
Countdown: 1
SampleSet: None
StackLeniency: 0.7
Mode: 0
LetterboxInBreaks: 1
WidescreenStoryboard: 1

[Editor]
DistanceSpacing: 1
BeatDivisor: 4
GridSize: 4
TimelineZoom: 2.350001

[Metadata]
Title:ChouzetsuDynamic!
TitleUnicode:超絶☆ダイナミック!
Artist:Kazuya Yoshii
ArtistUnicode:吉井和哉
Creator:UltraRik
Version:Normal
Source:Dragon Ball Super
Tags:opening dbz dragonball
BeatmapID:819576
BeatmapSetID:333396

[Difficulty]
HPDrainRate:3
CircleSize:2.8
OverallDifficulty:3
ApproachRate:5
SliderMultiplier:0.9
SliderTickRate:1

[Events]
//Background and Video events
0,0,"DBSBG.jpg",0,0
//Break Periods
//Storyboard Layer 0 (Background)
//Storyboard Layer 1 (Fail)
//Storyboard Layer 2 (Pass)
//Storyboard Layer 3 (Foreground)
//Storyboard Sound Samples

[TimingPoints]
550,312.5,4,1,0,100,1,0
975.619680547596,-100,4,1,0,60,0,0
73018,312.5,4,1,0,60,1,0

[HitObjects]
88,128,550,6,0,P|96:208|104:236,1,90
160,284,1175,1,0,0:0:0:0:
240,240,1487,1,0,0:0:0:0:
316,292,1800,6,0,P|384:336|404:356,2,90
240,340,2737,1,0,0:0:0:0:
208,256,3050,2,0,P|204:184|208:148,1,90
116,160,3675,1,0,0:0:0:0:
56,92,3987,1,0,0:0:0:0:
140,60,4300,6,0,P|204:72|248:72,1,90
316,44,4925,2,0,P|348:80|344:132,2,90
260,116,5862,1,0,0:0:0:0:
196,180,6175,2,0,P|168:244|148:272,2,90
180,92,7112,1,0,0:0:0:0:
92,100,7425,2,0,L|124:192,2,90
160,40,8362,5,0,0:0:0:0:
240,80,8675,2,0,L|324:120,1,90
396,68,9300,1,0,0:0:0:0:
424,164,9612,1,0,0:0:0:0:
396,256,9925,2,0,P|392:308|400:344,2,90
328,196,10862,6,0,B|276:208|240:240|240:240|200:216|144:212,1,180
76,232,11800,1,0,0:0:0:0:
116,152,12112,1,0,0:0:0:0:
68,76,12425,1,0,0:0:0:0:
148,32,12737,1,0,0:0:0:0:
208,100,13050,2,0,P|264:124|312:128,1,90
380,148,13675,2,0,P|400:204|392:248,1,90
352,312,14300,2,0,P|300:320|252:344,1,90
176,324,14925,2,0,P|156:280|124:244,1,90
140,160,15550,5,0,0:0:0:0:
224,188,15862,1,0,0:0:0:0:
276,120,16175,1,0,0:0:0:0:
360,168,16487,1,0,0:0:0:0:
424,104,16800,2,0,P|464:148|472:192,1,90
456,288,17425,2,0,P|416:324|376:340,1,90
292,348,18050,5,0,0:0:0:0:
148,212,18675,1,0,0:0:0:0:
272,80,19300,1,0,0:0:0:0:
400,204,19925,1,0,0:0:0:0:
220,200,20550,6,0,P|184:152|64:132,1,180
64,220,21487,2,0,P|80:292|76:324,2,90
76,128,22425,2,0,P|104:84|136:56,1,90
204,108,23050,2,0,L|276:180,1,90
356,172,23675,2,0,L|440:120,1,90
456,212,24300,2,0,L|464:312,1,90
372,312,24925,6,0,L|368:216,2,90
284,332,25862,1,0,0:0:0:0:
192,332,26175,2,0,P|140:296|100:284,2,90
284,332,27112,2,0,L|284:232,1,90
284,152,27737,1,0,0:0:0:0:
104,152,28362,1,0,0:0:0:0:
240,268,28987,1,0,0:0:0:0:
264,84,29612,1,0,0:0:0:0:
344,244,30237,1,0,0:0:0:0:
256,192,30393,12,0,33050,0:0:0:0:
112,96,35550,6,0,P|160:120|208:132,1,90
284,136,36175,2,0,P|304:192|300:236,1,90
400,220,36800,2,0,P|396:176|408:132,1,90
348,64,37425,2,0,P|320:120|292:152,1,90
288,232,38050,2,0,L|276:328,1,90
188,324,38675,6,0,L|164:228,1,90
204,156,39300,2,0,L|112:128,1,90
80,48,39925,1,0,0:0:0:0:
80,48,40550,6,0,P|96:108|96:152,1,90
100,224,41175,2,0,P|104:288|100:328,1,90
192,300,41800,2,0,L|232:328,3,45
324,228,42737,2,0,P|332:160|344:124,1,90
272,80,43362,1,0,0:0:0:0:
184,96,43675,5,0,0:0:0:0:
100,68,43987,1,0,0:0:0:0:
64,152,44300,2,0,B|36:192|36:192|64:228,2,90
144,140,45237,6,0,P|216:156|244:176,2,90
136,228,46175,2,0,L|144:324,1,90
232,324,46800,2,0,L|320:340,1,90
300,252,47425,2,0,L|332:212,2,45
256,192,48050,12,0,49925,0:0:0:0:
128,96,50550,6,0,P|136:144|128:192,1,90
220,192,51175,2,0,P|220:136|232:96,1,90
320,92,51800,2,0,P|328:144|324:196,1,90
412,208,52425,2,0,P|408:148|416:100,1,90
380,36,53050,5,0,0:0:0:0:
196,68,53675,1,0,0:0:0:0:
112,224,54300,1,0,0:0:0:0:
288,280,54925,1,0,0:0:0:0:
340,108,55550,6,0,L|428:64,2,90
280,176,56487,1,0,0:0:0:0:
200,216,56800,2,0,L|96:212,2,90
276,264,57737,1,0,0:0:0:0:
348,316,58050,6,0,B|392:340|392:340|432:208,2,180
168,304,59925,2,0,P|132:256|104:224,1,90
104,144,60550,5,0,0:0:0:0:
180,100,60862,1,0,0:0:0:0:
240,168,61175,5,0,0:0:0:0:
300,236,61487,1,0,0:0:0:0:
392,208,61800,5,0,0:0:0:0:
368,120,62112,1,0,0:0:0:0:
284,156,62425,1,0,0:0:0:0:
308,244,62737,1,0,0:0:0:0:
304,332,63050,2,0,L|216:308,1,90
128,296,63675,2,0,L|108:208,1,90
128,120,64300,6,0,P|172:84|216:88,2,90
200,172,65237,1,0,0:0:0:0:
284,204,65550,2,0,P|296:276|288:304,1,90
368,340,66175,2,0,P|400:300|444:276,1,90
444,192,66800,6,0,P|460:128|476:92,3,90
404,44,68050,2,0,P|344:76|312:76,1,90
232,84,68675,2,0,P|180:84|128:72,1,90
56,104,69300,2,0,P|32:168|28:200,1,90
72,268,69925,6,0,P|80:304|80:356,2,90
140,200,70862,1,0,0:0:0:0:
216,248,71175,1,0,0:0:0:0:
288,192,71487,1,0,0:0:0:0:
364,248,71800,2,0,L|368:304,2,45
420,76,72737,2,0,L|472:36,1,45
