osu file format v14

[General]
AudioFilename: Dragon Ball Super Opening () OP [1080p](mp3)(mp3).mp3
AudioLeadIn: 0
PreviewTime: -1
Countdown: 1
SampleSet: Normal
StackLeniency: 0.7
Mode: 0
LetterboxInBreaks: 1
WidescreenStoryboard: 1

[Editor]
DistanceSpacing: 1.4
BeatDivisor: 4
GridSize: 4
TimelineZoom: 2.350001

[Metadata]
Title:ChouzetsuDynamic!
TitleUnicode:超絶☆ダイナミック!
Artist:Kazuya Yoshii
ArtistUnicode:吉井和哉
Creator:UltraRik
Version:Insane
Source:Dragon Ball Super
Tags:opening dbz dragonball
BeatmapID:745328
BeatmapSetID:333396

[Difficulty]
HPDrainRate:7
CircleSize:3.7
OverallDifficulty:7
ApproachRate:9.1
SliderMultiplier:2
SliderTickRate:1

[Events]
//Background and Video events
0,0,"DBSBG.jpg",0,0
//Break Periods
//Storyboard Layer 0 (Background)
//Storyboard Layer 1 (Fail)
//Storyboard Layer 2 (Pass)
//Storyboard Layer 3 (Foreground)
//Storyboard Sound Samples

[TimingPoints]
550,312.5,4,1,0,100,1,0
975.619680547596,-100,4,1,0,60,0,0
35550,-76.9230769230769,4,1,0,60,0,0
73018,312.5,4,1,0,60,1,0

[HitObjects]
100,128,550,5,0,0:0:0:0:
192,304,706,1,0,0:0:0:0:
284,128,862,1,0,0:0:0:0:
108,220,1018,1,0,0:0:0:0:
192,40,1175,5,0,0:0:0:0:
264,224,1331,1,0,0:0:0:0:
148,60,1487,1,0,0:0:0:0:
464,308,1800,6,0,L|344:316,1,100
388,116,2112,2,0,L|448:20,1,100
456,232,2425,2,0,P|472:284|460:368,2,100
80,96,3050,5,0,0:0:0:0:
276,128,3206,1,0,0:0:0:0:
76,112,3362,5,0,0:0:0:0:
164,292,3518,1,0,0:0:0:0:
188,92,3675,1,0,0:0:0:0:
24,204,3831,1,0,0:0:0:0:
224,188,3987,1,0,0:0:0:0:
224,188,4300,6,0,P|248:248|244:292,1,100
224,188,4612,2,0,P|220:120|236:80,1,100
388,212,4925,2,0,L|408:160,1,50
396,264,5081,2,0,L|400:336,1,50
360,224,5237,2,0,L|316:192,1,50
420,220,5393,1,0,0:0:0:0:
320,44,5550,6,0,P|232:84|132:104,1,200
448,348,6175,1,0,0:0:0:0:
392,156,6331,1,0,0:0:0:0:
396,356,6487,1,0,0:0:0:0:
52,152,6800,6,0,P|104:76|140:56,1,100
308,96,7112,2,0,P|296:148|240:192,1,100
128,328,7425,5,0,0:0:0:0:
52,144,7581,1,0,0:0:0:0:
248,116,7737,1,0,0:0:0:0:
296,340,8050,6,0,P|368:304|400:256,1,100
416,92,8362,2,0,L|408:200,1,100
208,180,8675,5,0,0:0:0:0:
380,290,8831,1,0,0:0:0:0:
332,96,8987,1,0,0:0:0:0:
20,348,9300,6,0,P|52:272|44:208,1,100
24,60,9612,2,0,P|16:124|28:172,1,100
192,268,9925,6,0,L|244:292,1,50
192,200,10081,2,0,L|196:144,1,50
128,228,10237,2,0,L|72:264,1,50
184,264,10393,1,0,0:0:0:0:
308,104,10550,6,0,P|352:64|416:52,1,100
352,248,10862,2,0,P|288:312|244:312,1,100
188,136,11175,2,0,P|168:80|136:52,1,100
128,252,11487,2,0,P|156:308|200:336,1,100
268,148,11800,6,0,L|300:44,1,100
200,224,12112,2,0,L|164:320,1,100
148,116,12425,2,0,L|116:20,1,100
252,168,12737,2,0,L|300:300,1,100
308,64,13050,6,0,P|360:84|416:72,1,100
204,64,13362,2,0,P|152:92|100:92,1,100
256,236,13675,2,0,L|256:336,2,100
164,192,14300,6,0,P|168:124|196:80,1,100
356,192,14612,2,0,P|352:124|328:84,1,100
256,280,14925,2,0,L|256:384,1,100
104,252,15237,5,2,0:0:0:0:
448,48,15550,2,0,P|460:124|444:184,1,100
384,332,15862,2,0,P|376:256|384:208,1,100
308,52,16175,2,0,P|320:128|308:168,1,100
248,340,16487,2,0,P|244:268|256:212,2,100
360,196,16956,5,0,0:0:0:0:
256,44,17112,1,0,0:0:0:0:
156,192,17268,1,0,0:0:0:0:
252,340,17425,1,0,0:0:0:0:
256,140,17581,1,0,0:0:0:0:
252,340,17737,1,0,0:0:0:0:
180,156,17893,6,0,P|156:100|124:64,1,100
256,228,18206,2,0,P|288:296|328:324,1,100
316,112,18518,2,0,P|352:48|356:12,1,100
348,224,18831,2,0,P|320:284|320:328,1,100
124,272,19143,2,0,L|44:336,1,100
80,136,19456,2,0,L|180:192,1,100
36,336,19768,2,0,L|36:232,1,100
44,36,20081,5,0,0:0:0:0:
36,236,20237,5,0,0:0:0:0:
144,64,20393,1,0,0:0:0:0:
136,232,20550,2,0,P|216:264|268:276,1,100
428,244,20862,2,0,P|432:140|424:108,1,100
244,76,21175,2,0,P|176:112|140:148,1,100
348,192,21487,6,0,L|460:192,1,100
248,196,21800,2,0,L|128:196,1,100
332,124,22112,2,0,L|420:64,1,100
332,252,22425,2,0,L|424:296,1,100
272,164,22737,2,0,P|236:96|188:68,1,100
212,284,23050,6,0,L|132:348,1,100
156,148,23362,2,0,L|96:56,1,100
300,80,23675,2,0,L|400:36,1,100
340,232,23987,2,0,L|400:332,1,100
360,120,24300,5,0,0:0:0:0:
164,88,24456,1,0,0:0:0:0:
124,284,24612,1,0,0:0:0:0:
320,328,24768,1,0,0:0:0:0:
316,128,24925,6,0,P|340:52|384:40,1,100
392,240,25237,2,0,L|408:348,1,100
260,196,25550,1,0,0:0:0:0:
256,196,25862,6,0,P|160:248|56:224,1,200
140,44,26331,1,0,0:0:0:0:
316,136,26487,2,0,P|372:108|448:96,1,100
376,296,26800,2,0,P|304:328|276:328,1,100
220,140,27112,2,0,P|240:212|240:248,1,100
84,364,27425,2,0,P|72:264|80:232,1,100
124,72,27737,5,0,0:0:0:0:
124,72,28050,6,0,L|216:148,1,100
392,72,28362,2,0,L|312:144,1,100
256,332,28675,2,0,L|256:212,1,100
256,32,28987,1,0,0:0:0:0:
256,32,29300,6,0,P|192:92|192:124,1,100
256,268,29612,2,0,P|300:224|304:184,1,100
104,208,29925,1,0,0:0:0:0:
124,248,30003,1,0,0:0:0:0:
152,280,30081,1,0,0:0:0:0:
184,308,30159,1,0,0:0:0:0:
220,332,30237,1,0,0:0:0:0:
264,344,30315,1,0,0:0:0:0:
308,336,30393,6,0,P|372:312|496:352,1,200
472,260,30862,5,0,0:0:0:0:
92,132,31175,5,0,0:0:0:0:
480,32,31487,5,0,0:0:0:0:
272,372,31800,5,0,0:0:0:0:
16,68,32112,5,0,0:0:0:0:
404,164,32425,5,0,0:0:0:0:
44,340,32737,5,0,0:0:0:0:
288,24,33050,5,0,0:0:0:0:
480,372,33362,5,0,0:0:0:0:
120,200,33675,5,0,0:0:0:0:
480,24,33987,5,0,0:0:0:0:
244,348,34300,5,0,0:0:0:0:
8,24,34612,5,0,0:0:0:0:
400,104,34925,1,0,0:0:0:0:
328,172,35081,1,0,0:0:0:0:
252,236,35237,5,0,0:0:0:0:
252,236,35550,6,0,P|168:152|16:160,1,259.999988098145
228,72,36175,1,0,0:0:0:0:
328,100,36331,1,0,0:0:0:0:
424,144,36487,5,0,0:0:0:0:
256,268,36800,2,0,P|144:240|104:88,1,259.999988098145
304,132,37425,1,0,0:0:0:0:
340,228,37581,1,0,0:0:0:0:
372,328,37737,5,0,0:0:0:0:
296,132,38050,2,0,B|372:88|456:80|456:80|432:120|440:172,1,259.999988098145
232,136,38675,2,0,B|144:104|60:88|60:88|60:88|60:88|60:88|76:140|56:204,1,259.999988098145
140,364,39300,2,0,B|180:352|216:352|216:352|224:308|220:280|192:232|192:232|252:248|316:232|316:232|292:284|288:312|296:352|296:352|336:344|388:364,1,519.99997619629
80,52,40550,5,0,0:0:0:0:
136,140,40706,1,0,0:0:0:0:
148,244,40862,1,0,0:0:0:0:
324,356,41175,5,2,0:0:0:0:
288,260,41331,1,0,0:0:0:0:
288,156,41487,1,0,0:0:0:0:
456,36,41800,5,0,0:0:0:0:
352,184,41956,1,0,0:0:0:0:
328,4,42112,1,0,0:0:0:0:
468,116,42268,1,0,0:0:0:0:
284,108,42425,1,0,0:0:0:0:
432,0,42581,5,0,0:0:0:0:
432,180,42737,2,0,P|432:264|400:328,2,129.999994049073
252,180,43206,1,0,0:0:0:0:
72,184,43362,2,0,P|80:120|104:60,1,129.999994049073
144,236,43675,6,0,L|88:356,1,129.999994049073
60,176,43987,1,0,0:0:0:0:
400,48,44300,6,0,P|416:112|388:196,1,129.999994049073
344,344,44612,1,0,0:0:0:0:
220,212,44768,1,0,0:0:0:0:
404,224,44925,1,0,0:0:0:0:
244,312,45081,1,0,0:0:0:0:
308,144,45237,2,0,P|276:80|228:40,1,129.999994049073
252,220,45550,2,0,P|300:292|360:324,1,129.999994049073
296,136,45862,2,0,P|224:120|140:148,1,129.999994049073
180,308,46175,2,0,P|252:328|312:320,1,129.999994049073
452,216,46487,5,0,0:0:0:0:
96,140,46800,6,0,L|228:168,1,129.999994049073
404,240,47112,2,0,L|276:220,1,129.999994049073
156,268,47425,1,0,0:0:0:0:
248,40,47581,1,0,0:0:0:0:
256,280,47737,5,0,0:0:0:0:
172,112,47893,1,0,0:0:0:0:
344,160,48050,5,0,0:0:0:0:
160,192,48206,1,0,0:0:0:0:
360,188,48362,1,0,0:0:0:0:
152,168,48518,1,0,0:0:0:0:
352,248,48675,5,0,0:0:0:0:
168,272,48831,1,0,0:0:0:0:
364,288,48987,1,0,0:0:0:0:
156,240,49143,1,0,0:0:0:0:
280,360,49300,5,0,0:0:0:0:
375,172,49456,1,0,0:0:0:0:
304,64,49612,2,0,L|380:180,1,129.999994049073
412,340,49925,6,0,P|324:288|240:288,1,129.999994049073
104,356,50237,2,0,P|168:300|228:280,1,129.999994049073
308,96,50550,2,0,L|292:232,1,129.999994049073
208,96,50862,2,0,L|220:244,1,129.999994049073
444,192,51175,6,0,L|312:196,1,129.999994049073
64,196,51487,2,0,L|196:196,1,129.999994049073
380,196,51800,5,0,0:0:0:0:
132,200,51956,1,0,0:0:0:0:
344,252,52112,1,0,0:0:0:0:
208,96,52268,1,0,0:0:0:0:
212,324,52425,2,0,P|244:240|276:176,1,129.999994049073
328,80,52737,5,0,0:0:0:0:
404,176,53050,2,0,P|344:244|280:232,1,129.999994049073
176,188,53362,2,0,P|184:112|252:72,1,129.999994049073
356,72,53675,2,0,P|424:104|440:200,1,129.999994049073
268,180,53987,2,0,P|184:148|168:68,1,129.999994049073
324,120,54300,2,0,P|344:200|272:264,1,129.999994049073
176,328,54612,5,0,0:0:0:0:
176,52,54925,5,0,0:0:0:0:
388,196,55237,5,0,0:0:0:0:
128,184,55550,6,0,L|76:308,1,129.999994049073
264,244,55862,2,0,L|316:120,1,129.999994049073
176,52,56175,1,0,0:0:0:0:
176,52,56331,1,0,0:0:0:0:
176,232,56487,5,0,0:0:0:0:
176,232,56800,2,0,L|304:120,1,129.999994049073
388,288,57112,2,0,L|288:376,1,129.999994049073
112,336,57425,1,0,0:0:0:0:
112,336,57581,1,0,0:0:0:0:
112,156,57737,5,0,0:0:0:0:
464,60,58050,2,0,P|460:160|444:208,1,129.999994049073
324,316,58362,2,0,P|224:320|184:308,1,129.999994049073
112,156,58675,2,0,P|140:80|180:32,1,129.999994049073
352,44,58987,2,0,P|404:120|404:164,1,129.999994049073
324,320,59300,5,0,0:0:0:0:
144,300,59456,1,0,0:0:0:0:
144,300,59612,5,0,0:0:0:0:
252,156,59768,1,0,0:0:0:0:
432,188,59925,5,0,0:0:0:0:
328,264,60081,1,0,0:0:0:0:
200,268,60237,1,0,0:0:0:0:
84,208,60393,1,0,0:0:0:0:
148,96,60550,6,0,P|148:48|72:4,2,129.999994049073
408,100,61175,2,0,P|416:24|472:0,2,129.999994049073
296,336,61800,2,0,L|432:352,1,129.999994049073
348,248,62112,2,0,L|356:92,1,129.999994049073
444,208,62425,2,0,L|432:344,1,129.999994049073
340,244,62737,5,0,0:0:0:0:
128,92,63050,1,0,0:0:0:0:
136,352,63362,1,0,0:0:0:0:
360,68,63675,5,0,0:0:0:0:
308,308,63987,1,0,0:0:0:0:
56,44,64300,6,0,P|96:156|88:216,1,129.999994049073
156,336,64612,2,0,P|68:336|28:352,2,129.999994049073
344,348,65081,1,0,0:0:0:0:
200,232,65237,6,0,P|168:172|208:80,1,129.999994049073
356,156,65550,2,0,B|356:260|272:312|144:292|112:148|136:56|280:24|336:100,2,519.99997619629
392,336,66956,5,0,0:0:0:0:
324,168,67112,1,0,0:0:0:0:
248,328,67268,1,0,0:0:0:0:
260,144,67425,1,0,0:0:0:0:
300,320,67581,5,0,0:0:0:0:
212,160,67737,1,0,0:0:0:0:
180,340,67893,1,0,0:0:0:0:
152,144,68050,1,0,0:0:0:0:
256,192,68206,12,0,69300,0:0:0:0:
268,92,69612,6,0,L|392:52,1,129.999994049073
356,232,69925,2,0,P|292:288|240:360,2,129.999994049073
0,72,70550,6,0,B|501:188|501:188|363:202|265:339,2,779.999964294435,0|0|0,3:3|3:3|3:3,3:3:0:0:
279,320,72737,1,0,0:0:0:0:
256,192,72893,1,0,0:0:0:0:
