osu file format v14

[General]
AudioFilename: Dragon Ball Super Opening () OP [1080p](mp3)(mp3).mp3
AudioLeadIn: 0
PreviewTime: -1
Countdown: 1
SampleSet: Normal
StackLeniency: 0.7
Mode: 0
LetterboxInBreaks: 1
WidescreenStoryboard: 1

[Editor]
DistanceSpacing: 0.9
BeatDivisor: 4
GridSize: 4
TimelineZoom: 2.350001

[Metadata]
Title:ChouzetsuDynamic!
TitleUnicode:超絶☆ダイナミック!
Artist:Kazuya Yoshii
ArtistUnicode:吉井和哉
Creator:UltraRik
Version:Hard
Source:Dragon Ball Super
Tags:opening dbz dragonball
BeatmapID:819563
BeatmapSetID:333396

[Difficulty]
HPDrainRate:6
CircleSize:3
OverallDifficulty:5
ApproachRate:8
SliderMultiplier:1.3
SliderTickRate:1

[Events]
//Background and Video events
0,0,"DBSBG.jpg",0,0
//Break Periods
//Storyboard Layer 0 (Background)
//Storyboard Layer 1 (Fail)
//Storyboard Layer 2 (Pass)
//Storyboard Layer 3 (Foreground)
//Storyboard Sound Samples

[TimingPoints]
550,312.5,4,1,0,100,1,0
975.619680547596,-100,4,1,0,60,0,0
24925,-66.6666666666667,4,1,0,60,0,0
25081,-100,4,1,0,60,0,0
73018,312.5,4,1,0,60,1,0

[HitObjects]
144,84,550,6,0,P|152:176|144:220,1,130
192,320,1175,2,0,L|224:376,2,65
224,208,1800,2,0,P|240:152|292:96,1,130
396,60,2425,2,0,L|448:16,2,65
396,176,3050,6,0,P|420:276|408:308,1,130
308,348,3675,2,0,L|248:384,2,65
320,224,4300,2,0,P|296:176|296:96,1,130
180,88,4925,2,0,L|144:148,1,65
156,200,5237,2,0,L|192:120,1,65
216,92,5550,6,0,P|272:72|344:72,1,130
428,152,6175,2,0,P|480:144|504:132,2,65
320,200,6800,2,0,P|228:192|172:212,1,130
76,200,7425,2,0,L|4:184,2,65
160,280,8050,6,0,P|236:316|272:364,1,130
308,240,8675,2,0,L|344:156,2,65
304,356,9300,2,0,P|420:340|432:320,1,130
428,224,9925,2,0,L|440:152,3,65
416,104,10550,5,2,0:0:0:0:
316,164,10862,1,2,0:0:0:0:
372,60,11175,1,0,0:0:0:0:
388,176,11487,1,0,0:0:0:0:
308,92,11800,1,0,0:0:0:0:
420,128,12112,1,0,0:0:0:0:
312,172,12425,2,0,P|288:244|284:304,1,130
176,340,13050,2,0,P|192:240|184:192,1,130
128,112,13675,5,0,0:0:0:0:
128,112,13987,2,0,L|276:48,1,130
364,48,14612,2,0,P|420:36|464:92,1,130
376,164,15237,2,0,P|304:184|272:120,1,130
332,48,15862,6,0,P|384:32|448:84,1,130
448,188,16487,1,0,0:0:0:0:
448,188,16800,2,0,P|408:272|396:320,2,130
448,72,17737,2,0,P|360:60|296:76,1,130
212,116,18362,2,0,P|144:124|64:112,1,130
164,32,18987,2,0,P|200:112|192:168,1,130
216,268,19612,2,0,P|260:276|368:264,1,130
456,240,20237,1,0,0:0:0:0:
456,240,20550,5,0,0:0:0:0:
364,168,20862,1,0,0:0:0:0:
364,168,21175,2,0,P|360:76|328:44,2,130
332,276,22112,2,0,P|292:336|240:360,2,130
348,160,23050,2,0,P|400:92|452:56,1,130
320,36,23675,2,0,P|260:56|208:112,1,130
324,140,24300,2,0,P|264:88|200:64,1,130
104,48,24925,2,0,L|56:148,1,97.50000371933
80,192,25237,5,0,0:0:0:0:
72,308,25550,2,0,P|168:320|216:288,1,130
304,268,26175,2,0,P|216:220|164:236,1,130
88,280,26800,2,0,P|124:336|204:348,1,130
228,244,27425,2,0,P|252:192|280:96,1,130
360,40,28050,5,2,0:0:0:0:
424,136,28362,2,0,L|396:208,1,65
432,308,28831,2,0,L|464:228,1,65
464,132,29300,6,0,L|376:108,1,65
344,132,29612,5,0,0:0:0:0:
232,168,29925,1,0,0:0:0:0:
180,192,30081,2,0,L|200:272,1,65
160,300,30393,5,0,0:0:0:0:
328,344,30862,1,0,0:0:0:0:
240,268,31175,1,0,0:0:0:0:
228,152,31487,1,0,0:0:0:0:
292,56,31800,1,0,0:0:0:0:
408,80,32112,1,0,0:0:0:0:
432,196,32425,1,0,0:0:0:0:
424,308,32737,1,0,0:0:0:0:
304,308,33050,5,0,0:0:0:0:
320,188,33362,1,0,0:0:0:0:
212,232,33675,1,0,0:0:0:0:
304,304,33987,1,0,0:0:0:0:
320,184,34300,1,0,0:0:0:0:
220,120,34612,1,0,0:0:0:0:
316,56,34925,2,0,L|384:28,2,65
220,120,35550,6,0,P|152:168|108:184,1,130
200,256,36175,2,0,L|252:300,2,65
156,148,36800,2,0,P|156:80|200:44,1,130
316,52,37425,2,0,L|396:48,2,65
336,168,38050,6,0,P|376:224|376:296,1,130
276,228,38675,2,0,L|248:144,2,65
168,180,39300,2,0,P|124:116|116:64,1,130
232,56,39925,5,0,0:0:0:0:
324,272,40550,6,0,L|400:296,2,65
216,224,41175,2,0,L|132:256,2,65
320,168,41800,2,0,L|364:112,2,65
292,220,42268,1,0,0:0:0:0:
288,44,42737,5,0,0:0:0:0:
292,160,43050,1,0,0:0:0:0:
192,100,43362,1,0,0:0:0:0:
308,100,43675,2,0,L|404:104,1,65
432,104,43987,1,0,0:0:0:0:
432,104,44300,6,0,P|440:180|420:244,1,130
416,288,44768,2,0,L|344:316,1,65
244,352,45237,1,0,0:0:0:0:
216,240,45550,1,0,0:0:0:0:
100,272,45862,1,0,0:0:0:0:
216,252,46175,1,0,0:0:0:0:
304,172,46487,1,0,0:0:0:0:
244,72,46800,6,0,P|320:52|392:52,1,130
412,160,47425,2,0,P|340:208|288:224,1,130
192,176,48050,2,0,B|180:136|208:108|232:84|180:52|160:44|144:84|156:36|100:72|104:116|120:132|88:148|48:140,1,260
68,260,48987,1,0,0:0:0:0:
136,164,49300,6,0,L|168:104,1,65
224,96,49612,2,0,L|296:76,1,65
324,124,49925,2,0,L|392:144,1,65
424,188,50237,1,0,0:0:0:0:
424,188,50550,6,0,P|408:256|360:312,1,130
260,344,51175,2,0,P|204:336|176:264,1,130
292,256,51800,2,0,P|344:232|416:280,1,130
324,340,52425,2,0,P|240:372|192:336,1,130
216,240,53050,2,0,L|256:116,1,130
320,20,53675,2,0,L|368:160,1,130
380,260,54300,2,0,P|312:232|232:256,1,130
144,272,54925,2,0,L|88:328,2,65
208,172,55550,6,0,P|236:116|240:48,1,130
356,68,56175,2,0,L|432:80,2,65
236,40,56800,2,0,P|248:120|272:192,1,130
172,240,57425,2,0,L|108:252,2,65
248,148,58050,6,0,B|280:84|336:56|392:76|408:60|392:56|384:64|396:80|448:136,2,260
256,268,59612,1,0,0:0:0:0:
168,192,59925,2,0,L|96:132,2,65
188,248,60393,2,0,L|200:324,1,65
316,316,60862,5,0,0:0:0:0:
212,260,61175,2,0,L|180:336,2,65
296,172,61800,2,0,L|368:176,2,65
248,140,62268,2,0,L|216:68,1,65
221,80,62737,5,0,0:0:0:0:
221,80,63050,6,0,P|156:120|120:176,1,130
244,152,63675,2,0,L|312:208,2,65
156,72,64300,6,0,P|120:128|124:212,1,130
136,248,64768,1,0,0:0:0:0:
100,76,65237,1,0,0:0:0:0:
200,136,65550,6,0,P|284:192|328:192,1,130
408,128,66175,2,0,P|364:84|284:64,1,130
184,72,66800,6,0,P|148:112|176:188,1,130
268,124,67425,2,0,P|296:80|236:44,1,130
168,136,68050,6,0,L|128:196,1,65
180,224,68362,2,0,L|208:300,1,65
260,296,68675,2,0,L|340:328,1,65
372,296,68987,2,0,L|432:256,1,65
424,200,69300,6,0,B|392:176|304:128|244:152|248:216|268:288|356:312|388:252|404:208|376:156|372:124|372:104|372:104,1,390
264,72,70550,2,0,L|176:88,1,65
240,128,70862,2,0,L|296:172,1,65
312,112,71175,2,0,L|312:48,1,65
252,52,71487,5,0,0:0:0:0:
148,108,71800,1,0,0:0:0:0:
164,224,72112,1,0,0:0:0:0:
276,188,72425,1,0,0:0:0:0:
310,81,72737,2,0,L|230:41,1,65
