osu file format v14

[General]
AudioFilename: audio.mp3
AudioLeadIn: 0
PreviewTime: 3668
Countdown: 0
SampleSet: Normal
StackLeniency: 0.7
Mode: 1
LetterboxInBreaks: 0
WidescreenStoryboard: 0

[Editor]
Bookmarks: 331,3668,20749,37831
DistanceSpacing: 1.2
BeatDivisor: 4
GridSize: 32
TimelineZoom: 2.1

[Metadata]
Title:K.K. Song
TitleUnicode:けけソング
Artist:Kazumi Totaka
ArtistUnicode:戸高一生
Creator:Weber
Version:Ayyri's Muzukashii
Source:ゼルダの伝説 夢をみる島DX
Tags:Ayyri video game short map digital eight bit 8-bit Nintendo The Legend of Zelda Link's Awakening Totaka's KK
BeatmapID:1193209
BeatmapSetID:558640

[Difficulty]
HPDrainRate:6
CircleSize:2
OverallDifficulty:5
ApproachRate:10
SliderMultiplier:1.4
SliderTickRate:1

[Events]
//Background and Video events
0,0,"links-awakening-shoplift-sign-big-1280x720.png",0,0
//Break Periods
//Storyboard Layer 0 (Background)
//Storyboard Layer 1 (Fail)
//Storyboard Layer 2 (Pass)
//Storyboard Layer 3 (Foreground)
//Storyboard Sound Samples

[TimingPoints]
3668,266.903914590747,4,1,0,50,1,0

[HitObjects]
256,192,2599,5,8,0:0:0:0:
256,192,2733,1,0,0:0:0:0:
256,192,3000,1,8,0:0:0:0:
256,192,3267,1,8,0:0:0:0:
256,192,3401,1,8,0:0:0:0:
256,192,3668,1,0,0:0:0:0:
256,192,3934,1,0,0:0:0:0:
256,192,4068,1,0,0:0:0:0:
256,192,4135,1,0,0:0:0:0:
256,192,4201,1,0,0:0:0:0:
256,192,4468,1,0,0:0:0:0:
256,192,4602,1,8,0:0:0:0:
256,192,4735,1,0,0:0:0:0:
256,192,5002,1,0,0:0:0:0:
256,192,5135,1,0,0:0:0:0:
256,192,5269,1,8,0:0:0:0:
256,192,5536,1,0,0:0:0:0:
256,192,5803,1,8,0:0:0:0:
256,192,6337,1,8,0:0:0:0:
256,192,6603,1,0,0:0:0:0:
256,192,6870,1,8,0:0:0:0:
256,192,7137,1,0,0:0:0:0:
256,192,7404,1,8,0:0:0:0:
256,192,7538,1,8,0:0:0:0:
256,192,7671,1,0,0:0:0:0:
256,192,7805,1,0,0:0:0:0:
256,192,7938,1,8,0:0:0:0:
256,192,8205,1,0,0:0:0:0:
256,192,8338,1,0,0:0:0:0:
256,192,8405,1,0,0:0:0:0:
256,192,8472,1,0,0:0:0:0:
256,192,8739,1,8,0:0:0:0:
256,192,8872,1,8,0:0:0:0:
256,192,9006,1,0,0:0:0:0:
256,192,9272,1,8,0:0:0:0:
256,192,9539,1,0,0:0:0:0:
256,192,9673,1,0,0:0:0:0:
256,192,9806,1,8,0:0:0:0:
256,192,9940,1,8,0:0:0:0:
256,192,10073,1,0,0:0:0:0:
256,192,10340,1,8,0:0:0:0:
256,192,10474,1,0,0:0:0:0:
256,192,10607,1,8,0:0:0:0:
256,192,11141,1,0,0:0:0:0:
256,192,11408,1,8,0:0:0:0:
256,192,11675,1,8,0:0:0:0:
256,192,11808,1,8,0:0:0:0:
256,192,11942,1,0,0:0:0:0:
256,192,12075,1,0,0:0:0:0:
256,192,12208,1,8,0:0:0:0:
256,192,12475,1,0,0:0:0:0:
256,192,12742,1,8,0:0:0:0:
256,192,13009,1,0,0:0:0:0:
256,192,13143,1,8,0:0:0:0:
256,192,13409,1,8,0:0:0:0:
256,192,13543,1,0,0:0:0:0:
256,192,13810,1,0,0:0:0:0:
256,192,13943,1,0,0:0:0:0:
256,192,14077,1,8,0:0:0:0:
256,192,14210,1,8,0:0:0:0:
256,192,14344,1,0,0:0:0:0:
256,192,14611,1,0,0:0:0:0:
256,192,14877,1,8,0:0:0:0:
256,192,15144,1,0,0:0:0:0:
256,192,15278,1,8,0:0:0:0:
256,192,15545,1,8,0:0:0:0:
256,192,15678,1,0,0:0:0:0:
256,192,15945,1,8,0:0:0:0:
256,192,16479,1,8,0:0:0:0:
256,192,16746,1,0,0:0:0:0:
256,192,17013,1,8,0:0:0:0:
256,192,17280,1,0,0:0:0:0:
256,192,17413,1,8,0:0:0:0:
256,192,17680,1,8,0:0:0:0:
256,192,17813,1,0,0:0:0:0:
256,192,18080,1,8,0:0:0:0:
256,192,18614,1,8,0:0:0:0:
256,192,18748,1,0,0:0:0:0:
256,192,19148,1,8,0:0:0:0:
256,192,19281,1,0,0:0:0:0:
256,192,19682,1,8,0:0:0:0:
256,192,19815,1,0,0:0:0:0:
256,192,20082,1,8,0:0:0:0:
256,192,20349,1,8,0:0:0:0:
256,192,20482,1,8,0:0:0:0:
256,192,20749,1,0,0:0:0:0:
256,192,21015,1,0,0:0:0:0:
256,192,21149,1,0,0:0:0:0:
256,192,21216,1,0,0:0:0:0:
256,192,21282,1,0,0:0:0:0:
256,192,21549,1,0,0:0:0:0:
256,192,21683,1,8,0:0:0:0:
256,192,21816,1,0,0:0:0:0:
256,192,22083,1,0,0:0:0:0:
256,192,22216,1,0,0:0:0:0:
256,192,22350,1,8,0:0:0:0:
256,192,22617,1,0,0:0:0:0:
256,192,22884,1,8,0:0:0:0:
256,192,23418,1,8,0:0:0:0:
256,192,23684,1,0,0:0:0:0:
256,192,23951,1,8,0:0:0:0:
256,192,24218,1,0,0:0:0:0:
256,192,24485,1,8,0:0:0:0:
256,192,24619,1,8,0:0:0:0:
256,192,24752,1,0,0:0:0:0:
256,192,24886,1,0,0:0:0:0:
256,192,25019,1,8,0:0:0:0:
256,192,25286,1,0,0:0:0:0:
256,192,25419,1,0,0:0:0:0:
256,192,25486,1,0,0:0:0:0:
256,192,25553,1,0,0:0:0:0:
256,192,25820,1,8,0:0:0:0:
256,192,25953,1,8,0:0:0:0:
256,192,26087,1,0,0:0:0:0:
256,192,26353,1,8,0:0:0:0:
256,192,26620,1,0,0:0:0:0:
256,192,26754,1,0,0:0:0:0:
256,192,26887,1,8,0:0:0:0:
256,192,27021,1,8,0:0:0:0:
256,192,27154,1,0,0:0:0:0:
256,192,27421,1,8,0:0:0:0:
256,192,27555,1,0,0:0:0:0:
256,192,27688,1,8,0:0:0:0:
256,192,28222,1,0,0:0:0:0:
256,192,28489,1,8,0:0:0:0:
256,192,28756,1,8,0:0:0:0:
256,192,28889,1,8,0:0:0:0:
256,192,29023,1,0,0:0:0:0:
256,192,29156,1,0,0:0:0:0:
256,192,29289,1,8,0:0:0:0:
256,192,29556,1,0,0:0:0:0:
256,192,29823,1,8,0:0:0:0:
256,192,30090,1,0,0:0:0:0:
256,192,30224,1,8,0:0:0:0:
256,192,30490,1,8,0:0:0:0:
256,192,30624,1,0,0:0:0:0:
256,192,30891,1,0,0:0:0:0:
256,192,31024,1,0,0:0:0:0:
256,192,31158,1,8,0:0:0:0:
256,192,31291,1,8,0:0:0:0:
256,192,31425,1,0,0:0:0:0:
256,192,31692,1,0,0:0:0:0:
256,192,31958,1,8,0:0:0:0:
256,192,32225,1,0,0:0:0:0:
256,192,32359,1,8,0:0:0:0:
256,192,32626,1,8,0:0:0:0:
256,192,32759,1,0,0:0:0:0:
256,192,33026,1,8,0:0:0:0:
256,192,33560,1,8,0:0:0:0:
256,192,33827,1,0,0:0:0:0:
256,192,34094,1,8,0:0:0:0:
256,192,34361,1,0,0:0:0:0:
256,192,34494,1,8,0:0:0:0:
256,192,34761,1,8,0:0:0:0:
256,192,34894,1,0,0:0:0:0:
256,192,35161,1,8,0:0:0:0:
256,192,35695,1,8,0:0:0:0:
256,192,35829,1,0,0:0:0:0:
256,192,36229,1,8,0:0:0:0:
256,192,36362,1,0,0:0:0:0:
256,192,36763,1,8,0:0:0:0:
256,192,36896,1,0,0:0:0:0:
256,192,37163,1,8,0:0:0:0:
256,192,37430,1,8,0:0:0:0:
256,192,37563,1,8,0:0:0:0:
256,192,37830,1,0,0:0:0:0:
