osu file format v14

[General]
AudioFilename: audio.mp3
AudioLeadIn: 0
PreviewTime: 4094
Countdown: 0
SampleSet: Normal
StackLeniency: 1
Mode: 1
LetterboxInBreaks: 0
WidescreenStoryboard: 0

[Editor]
DistanceSpacing: 1
BeatDivisor: 4
GridSize: 32
TimelineZoom: 2.2

[Metadata]
Title:Yoshi Story
TitleUnicode:ヨッシー・ストーリー
Artist:Kazumi Totaka
ArtistUnicode:戸高一生
Creator:Melissa
Version:Muzukashii
Source:ヨッシーストーリー
Tags:PCCG-00438 Video Game Instrumental Nintendo 64 N64 Title Screen Original Soundtrack OST オリジナル サウンドトラック BGM Background Music Yoshi's Story
BeatmapID:2359134
BeatmapSetID:1129278

[Difficulty]
HPDrainRate:8
CircleSize:2
OverallDifficulty:4
ApproachRate:10
SliderMultiplier:1.4
SliderTickRate:1

[Events]
//Background and Video events
0,0,"yoshis-story.jpg",0,-55
//Break Periods
//Storyboard Layer 0 (Background)
//Storyboard Layer 1 (Fail)
//Storyboard Layer 2 (Pass)
//Storyboard Layer 3 (Foreground)
//Storyboard Layer 4 (Overlay)
//Storyboard Sound Samples

[TimingPoints]
220,484.261501210654,4,1,0,50,1,0
220,-100,4,1,0,50,0,0
17653,-100,4,1,0,50,0,1
33149,-100,4,1,0,50,0,0
46709,-100,4,1,0,50,0,1
62205,-100,4,1,0,50,0,0
63173,-100,4,1,0,40,0,0
64142,-100,4,1,0,30,0,0
64505,-100,4,1,0,20,0,0
64868,-100,4,1,0,10,0,0
65353,-100,4,1,0,5,0,0

[HitObjects]
256,192,220,5,0,0:0:0:0:
256,192,583,1,8,0:0:0:0:
256,192,946,1,0,0:0:0:0:
256,192,1188,1,0,0:0:0:0:
256,192,1430,1,8,0:0:0:0:
256,192,1672,1,8,0:0:0:0:
256,192,2157,1,0,0:0:0:0:
256,192,2520,1,8,0:0:0:0:
256,192,2883,1,0,0:0:0:0:
256,192,3125,1,0,0:0:0:0:
256,192,3367,1,8,0:0:0:0:
256,192,3609,1,8,0:0:0:0:
256,192,3851,1,0,0:0:0:0:
256,192,4094,5,8,0:0:0:0:
256,192,4457,1,8,0:0:0:0:
256,192,4820,1,0,0:0:0:0:
256,192,5062,1,8,0:0:0:0:
256,192,5304,1,0,0:0:0:0:
256,192,5546,1,8,0:0:0:0:
256,192,6031,1,0,0:0:0:0:
256,192,6394,1,8,0:0:0:0:
256,192,6757,1,0,0:0:0:0:
256,192,6999,1,0,0:0:0:0:
256,192,7241,1,8,0:0:0:0:
256,192,7483,1,8,0:0:0:0:
256,192,7968,1,0,0:0:0:0:
256,192,8331,1,8,0:0:0:0:
256,192,8694,1,0,0:0:0:0:
256,192,8936,1,8,0:0:0:0:
256,192,9178,1,0,0:0:0:0:
256,192,9420,1,8,0:0:0:0:
256,192,9905,1,0,0:0:0:0:
256,192,10268,1,8,0:0:0:0:
256,192,10631,1,0,0:0:0:0:
256,192,10873,1,0,0:0:0:0:
256,192,11115,1,8,0:0:0:0:
256,192,11357,1,8,0:0:0:0:
256,192,11600,1,0,0:0:0:0:
256,192,11842,1,8,0:0:0:0:
256,192,12205,1,8,0:0:0:0:
256,192,12568,1,0,0:0:0:0:
256,192,12810,1,8,0:0:0:0:
256,192,13052,1,0,0:0:0:0:
256,192,13294,1,8,0:0:0:0:
256,192,13779,1,0,0:0:0:0:
256,192,14142,1,8,0:0:0:0:
256,192,14505,1,0,0:0:0:0:
256,192,14747,1,8,0:0:0:0:
256,192,14989,1,0,0:0:0:0:
256,192,15232,1,8,0:0:0:0:
256,192,15716,1,0,0:0:0:0:
256,192,16079,1,8,0:0:0:0:
256,192,16442,1,0,0:0:0:0:
256,192,16684,1,8,0:0:0:0:
256,192,16926,1,0,0:0:0:0:
256,192,17169,1,8,0:0:0:0:
256,192,17653,1,8,0:0:0:0:
256,192,17774,1,8,0:0:0:0:
256,192,18137,1,0,0:0:0:0:
256,192,18258,1,0,0:0:0:0:
256,192,18621,1,8,0:0:0:0:
256,192,18742,1,8,0:0:0:0:
256,192,19106,1,0,0:0:0:0:
256,192,19227,1,0,0:0:0:0:
256,192,19590,1,8,0:0:0:0:
256,192,19711,1,8,0:0:0:0:
256,192,20074,1,0,0:0:0:0:
256,192,20195,1,0,0:0:0:0:
256,192,20558,1,8,0:0:0:0:
256,192,20801,1,8,0:0:0:0:
256,192,21043,1,0,0:0:0:0:
256,192,21285,1,8,0:0:0:0:
256,192,21527,1,8,0:0:0:0:
256,192,21648,1,8,0:0:0:0:
256,192,22011,1,0,0:0:0:0:
256,192,22132,1,0,0:0:0:0:
256,192,22495,1,8,0:0:0:0:
256,192,22617,1,8,0:0:0:0:
256,192,22980,1,0,0:0:0:0:
256,192,23101,1,0,0:0:0:0:
256,192,23464,1,8,0:0:0:0:
256,192,23585,1,8,0:0:0:0:
256,192,23948,1,0,0:0:0:0:
256,192,24069,1,0,0:0:0:0:
256,192,24432,1,8,0:0:0:0:
256,192,24675,1,0,0:0:0:0:
256,192,24917,1,0,0:0:0:0:
256,192,25401,1,8,0:0:0:0:
256,192,25522,1,8,0:0:0:0:
256,192,25885,1,0,0:0:0:0:
256,192,26006,1,0,0:0:0:0:
256,192,26370,1,8,0:0:0:0:
256,192,26491,1,8,0:0:0:0:
256,192,26854,1,0,0:0:0:0:
256,192,26975,1,0,0:0:0:0:
256,192,27338,1,8,0:0:0:0:
256,192,27459,1,8,0:0:0:0:
256,192,27822,1,0,0:0:0:0:
256,192,27943,1,0,0:0:0:0:
256,192,28307,1,8,0:0:0:0:
256,192,28549,1,0,0:0:0:0:
256,192,28791,1,0,0:0:0:0:
257,182,29033,1,8,0:0:0:0:
256,192,29275,1,8,0:0:0:0:
256,192,29396,1,8,0:0:0:0:
256,192,29759,1,0,0:0:0:0:
256,192,29880,1,0,0:0:0:0:
256,192,30244,1,8,0:0:0:0:
256,192,30365,1,8,0:0:0:0:
256,192,30728,1,0,0:0:0:0:
256,192,30849,1,0,0:0:0:0:
256,192,31212,1,8,0:0:0:0:
256,192,31333,1,8,0:0:0:0:
256,192,31696,1,0,0:0:0:0:
256,192,31817,1,0,0:0:0:0:
256,192,32181,1,8,0:0:0:0:
256,192,32423,1,0,0:0:0:0:
256,192,32665,1,0,0:0:0:0:
256,192,33149,1,8,0:0:0:0:
256,192,33512,1,0,0:0:0:0:
256,192,33876,1,0,0:0:0:0:
256,192,34118,1,8,0:0:0:0:
256,192,34360,1,0,0:0:0:0:
256,192,34602,1,8,0:0:0:0:
256,192,35086,1,0,0:0:0:0:
256,192,35449,1,8,0:0:0:0:
256,192,35813,1,0,0:0:0:0:
256,192,36055,1,0,0:0:0:0:
256,192,36297,1,8,0:0:0:0:
256,192,36539,1,8,0:0:0:0:
256,192,37023,1,0,0:0:0:0:
256,192,37386,1,8,0:0:0:0:
256,192,37750,1,0,0:0:0:0:
256,192,37992,1,8,0:0:0:0:
256,192,38234,1,0,0:0:0:0:
256,192,38476,1,8,0:0:0:0:
256,192,38960,1,0,0:0:0:0:
256,192,39324,1,8,0:0:0:0:
256,192,39687,1,0,0:0:0:0:
256,192,39929,1,0,0:0:0:0:
256,192,40171,1,8,0:0:0:0:
256,192,40413,1,8,0:0:0:0:
256,192,40655,1,0,0:0:0:0:
256,192,40897,1,8,0:0:0:0:
256,192,41261,1,8,0:0:0:0:
256,192,41624,1,0,0:0:0:0:
256,192,41866,1,8,0:0:0:0:
256,192,42108,1,0,0:0:0:0:
256,192,42350,1,8,0:0:0:0:
256,192,42835,1,0,0:0:0:0:
256,192,43198,1,8,0:0:0:0:
256,192,43561,1,0,0:0:0:0:
256,192,43803,1,8,0:0:0:0:
256,192,44045,1,0,0:0:0:0:
256,192,44287,1,8,0:0:0:0:
256,192,44771,1,0,0:0:0:0:
256,192,45135,1,8,0:0:0:0:
256,192,45498,1,0,0:0:0:0:
256,192,45740,1,8,0:0:0:0:
256,192,45982,1,0,0:0:0:0:
256,192,46224,1,8,0:0:0:0:
256,192,46709,1,8,0:0:0:0:
256,192,46830,5,8,0:0:0:0:
256,192,47193,1,0,0:0:0:0:
256,192,47314,1,0,0:0:0:0:
256,192,47677,1,8,0:0:0:0:
256,192,47798,1,8,0:0:0:0:
256,192,48161,1,0,0:0:0:0:
256,192,48282,1,0,0:0:0:0:
256,192,48646,1,8,0:0:0:0:
256,192,48767,1,8,0:0:0:0:
256,192,49130,1,0,0:0:0:0:
256,192,49251,1,0,0:0:0:0:
256,192,49614,1,8,0:0:0:0:
256,192,49856,1,8,0:0:0:0:
256,192,50098,1,0,0:0:0:0:
256,192,50341,1,8,0:0:0:0:
256,192,50583,1,8,0:0:0:0:
256,192,50704,1,8,0:0:0:0:
256,192,51067,1,0,0:0:0:0:
256,192,51188,1,0,0:0:0:0:
256,192,51551,1,8,0:0:0:0:
256,192,51672,1,8,0:0:0:0:
256,192,52035,1,0,0:0:0:0:
256,192,52156,1,0,0:0:0:0:
256,192,52520,1,8,0:0:0:0:
256,192,52641,1,8,0:0:0:0:
256,192,53004,1,0,0:0:0:0:
256,192,53125,1,0,0:0:0:0:
256,192,53488,1,8,0:0:0:0:
256,192,53730,1,0,0:0:0:0:
256,192,53972,1,0,0:0:0:0:
256,192,54457,1,8,0:0:0:0:
256,192,54578,1,8,0:0:0:0:
256,192,54941,1,0,0:0:0:0:
256,192,55062,1,0,0:0:0:0:
256,192,55425,1,8,0:0:0:0:
256,192,55546,1,8,0:0:0:0:
256,192,55909,1,0,0:0:0:0:
256,192,56031,1,0,0:0:0:0:
256,192,56394,1,8,0:0:0:0:
256,192,56515,1,8,0:0:0:0:
256,192,56878,1,0,0:0:0:0:
256,192,56999,1,0,0:0:0:0:
256,192,57362,1,8,0:0:0:0:
256,192,57604,1,0,0:0:0:0:
256,192,57847,1,0,0:0:0:0:
243,191,58089,1,8,0:0:0:0:
256,192,58331,1,8,0:0:0:0:
256,192,58452,1,8,0:0:0:0:
256,224,58815,1,0,0:0:0:0:
256,224,58936,1,0,0:0:0:0:
256,224,59299,1,8,0:0:0:0:
256,224,59420,1,8,0:0:0:0:
256,224,59784,1,0,0:0:0:0:
256,224,59905,1,0,0:0:0:0:
256,224,60268,1,8,0:0:0:0:
256,224,60389,1,8,0:0:0:0:
256,224,60752,1,0,0:0:0:0:
256,224,60873,1,0,0:0:0:0:
256,224,61236,1,8,0:0:0:0:
256,224,61478,1,0,0:0:0:0:
256,224,61721,1,0,0:0:0:0:
256,224,62205,1,8,0:0:0:0:
256,192,62568,1,0,0:0:0:0:
256,192,62931,1,0,0:0:0:0:
256,224,63173,1,8,0:0:0:0:
256,224,63416,1,0,0:0:0:0:
256,224,63658,1,8,0:0:0:0:
256,224,64142,1,0,0:0:0:0:
256,192,64505,1,8,0:0:0:0:
256,192,65110,1,0,0:0:0:0:
256,192,65595,1,8,0:0:0:0:
