osu file format v14

[General]
AudioFilename: wii.mp3
AudioLeadIn: 0
PreviewTime: 6494
Countdown: 0
SampleSet: Soft
StackLeniency: 0.7
Mode: 3
LetterboxInBreaks: 0
SpecialStyle: 0
WidescreenStoryboard: 1

[Editor]
Bookmarks: 19750,25419,30481,32708,45665,52144
DistanceSpacing: 0.8
BeatDivisor: 8
GridSize: 32
TimelineZoom: 2.599999

[Metadata]
Title:Wii Shop Channel Theme
TitleUnicode:Wii Shop Channel Theme
Artist:Kazumi Totaka
ArtistUnicode:戸高 一生
Creator:diamant66
Version:norMii
Source:Wiiショッピングチャンネル
Tags:Nintendo Video Game Original Soundtrack OST Instrumental Main Theme ln sv
BeatmapID:3459959
BeatmapSetID:1683184

[Difficulty]
HPDrainRate:7.4
CircleSize:4
OverallDifficulty:6.8
ApproachRate:4
SliderMultiplier:1.4
SliderTickRate:1

[Events]
//Background and Video events
0,0,"Banner-WiiShopChannel(UpRGB)(noise_scale)(Level3)(1920x1080).jpg",0,0
//Break Periods
//Storyboard Layer 0 (Background)
//Storyboard Layer 1 (Fail)
//Storyboard Layer 2 (Pass)
//Storyboard Layer 3 (Foreground)
//Storyboard Layer 4 (Overlay)
//Storyboard Sound Samples
Sample,6504,0,"click.wav",50
Sample,7112,0,"click.wav",50
Sample,8936,0,"kick.wav",20
Sample,9747,0,"click.wav",50
Sample,10355,0,"click.wav",50
Sample,12180,0,"kick.wav",20
Sample,12990,0,"click.wav",50
Sample,13599,0,"click.wav",50
Sample,15423,0,"kick.wav",20
Sample,16234,0,"click.wav",50
Sample,16842,0,"click.wav",50
Sample,18666,0,"kick.wav",20
Sample,19274,0,"kick.wav",20
Sample,19477,0,"click.wav",50
Sample,20085,0,"click.wav",50
Sample,21707,0,"kick.wav",20
Sample,21909,0,"kick.wav",20
Sample,22517,0,"kick.wav",20
Sample,22720,0,"click.wav",50
Sample,23328,0,"click.wav",50
Sample,25963,0,"click.wav",50
Sample,26572,0,"click.wav",50
Sample,26774,0,"kick.wav",20
Sample,27585,0,"kick.wav",20
Sample,28396,0,"kick.wav",20
Sample,29207,0,"click.wav",50
Sample,29815,0,"click.wav",50
Sample,30017,0,"kick.wav",20
Sample,32247,0,"kick.wav",20
Sample,33058,0,"click.wav",50
Sample,34882,0,"kick.wav",20
Sample,35490,0,"kick.wav",20
Sample,35693,0,"click.wav",50
Sample,36301,0,"click.wav",50
Sample,38126,0,"kick.wav",20
Sample,38734,0,"kick.wav",20
Sample,38936,0,"click.wav",50
Sample,39545,0,"click.wav",50
Sample,41369,0,"kick.wav",20
Sample,41977,0,"kick.wav",20
Sample,42180,0,"click.wav",50
Sample,42788,0,"click.wav",50
Sample,44612,0,"kick.wav",20
Sample,45220,0,"kick.wav",20
Sample,45423,0,"click.wav",50
Sample,46031,0,"click.wav",50
Sample,46234,0,"kick.wav",20
Sample,46639,0,"click.wav",50
Sample,47653,0,"kick.wav",20
Sample,48666,0,"click.wav",50
Sample,49274,0,"click.wav",50
Sample,52517,0,"click.wav",50
Sample,54950,0,"kick.wav",20
Sample,55761,0,"click.wav",50

[TimingPoints]
18,405.405405405405,4,2,1,5,1,0
2450,-100.0,4,2,1,25,0,0
3261,-100.0,4,2,1,5,0,0
57585,-100.0,4,2,1,25,0,0

[HitObjects]
64,192,18,128,0,119:0:0:0:40:ride2.wav
192,192,18,1,0,0:0:0:0:
448,192,220,128,0,322:0:0:0:0:
64,192,423,128,0,524:0:0:0:0:
448,192,626,128,0,727:0:0:0:0:
64,192,828,128,0,930:0:0:0:0:
64,192,1234,1,0,0:0:0:40:ride2.wav
192,192,1234,128,0,1335:0:0:0:0:
448,192,1436,128,0,1538:0:0:0:0:
192,192,1639,128,0,1740:0:0:0:0:
448,192,1842,128,0,1943:0:0:0:0:
192,192,2045,128,0,2146:0:0:0:0:
64,192,2450,1,0,0:0:0:50:kick.wav
320,192,2450,128,0,2551:0:0:0:0:
448,192,2551,128,0,2653:0:0:0:50:kick.wav
320,192,2653,128,0,2754:0:0:0:50:kick.wav
192,192,2754,128,0,2855:0:0:0:50:kick.wav
64,192,2855,128,0,2957:0:0:0:50:kick.wav
448,192,2855,1,0,0:0:0:0:
448,192,3261,1,0,0:0:0:50:click.wav
448,192,3869,1,0,0:0:0:50:click.wav
64,192,4072,1,0,0:0:0:20:kick.wav
320,192,4477,1,0,0:0:0:50:click.wav
64,192,4680,1,0,0:0:0:20:kick.wav
448,192,4882,1,0,0:0:0:20:kick.wav
192,192,5288,1,0,0:0:0:50:click.wav
448,192,5490,1,0,0:0:0:20:kick.wav
64,192,5693,1,0,0:0:0:20:kick.wav
320,192,5896,1,0,0:0:0:50:click.wav
192,192,6301,1,0,0:0:0:20:kick.wav
320,192,6504,1,0,0:0:0:20:kick.wav
448,192,6707,128,0,6808:0:0:0:0:
448,192,6909,128,0,7011:0:0:0:0:
192,192,7112,1,0,0:0:0:20:kick.wav
64,192,7315,128,0,7416:0:0:0:20:kick.wav
64,192,7517,128,0,7619:0:0:0:0:
448,192,7720,1,0,0:0:0:50:click.wav
320,192,7923,128,0,8024:0:0:0:20:kick.wav
320,192,8126,128,0,8227:0:0:0:20:kick.wav
192,192,8531,128,0,8632:0:0:0:50:click.wav
192,192,8734,128,0,8835:0:0:0:20:kick.wav
448,192,9139,1,0,0:0:0:50:click.wav
320,192,9545,1,0,0:0:0:20:kick.wav
192,192,9747,1,0,0:0:0:20:kick.wav
64,192,9950,128,0,10051:0:0:0:0:
64,192,10153,128,0,10254:0:0:0:0:
320,192,10355,1,0,0:0:0:20:kick.wav
448,192,10558,128,0,10659:0:0:0:20:kick.wav
448,192,10761,128,0,10862:0:0:0:0:
64,192,10963,1,0,0:0:0:50:click.wav
192,192,11166,128,0,11267:0:0:0:20:kick.wav
192,192,11369,128,0,11470:0:0:0:20:kick.wav
320,192,11774,128,0,11876:0:0:0:50:click.wav
320,192,11977,128,0,12078:0:0:0:20:kick.wav
64,192,12382,1,0,0:0:0:50:click.wav
192,192,12788,1,0,0:0:0:20:kick.wav
448,192,12990,1,0,0:0:0:20:kick.wav
320,192,13193,128,0,13295:0:0:0:0:
320,192,13396,128,0,13497:0:0:0:0:
64,192,13599,1,0,0:0:0:20:kick.wav
192,192,13801,128,0,13903:0:0:0:20:kick.wav
192,192,14004,128,0,14105:0:0:0:0:
320,192,14207,1,0,0:0:0:50:click.wav
448,192,14409,128,0,14511:0:0:0:20:kick.wav
448,192,14612,128,0,14713:0:0:0:20:kick.wav
64,192,15017,128,0,15119:0:0:0:50:click.wav
64,192,15220,128,0,15322:0:0:0:20:kick.wav
320,192,15626,1,0,0:0:0:50:click.wav
448,192,16031,1,0,0:0:0:20:kick.wav
64,192,16234,1,0,0:0:0:20:kick.wav
192,192,16436,128,0,16538:0:0:0:0:
192,192,16639,128,0,16740:0:0:0:0:
448,192,16842,1,0,0:0:0:20:kick.wav
320,192,17045,128,0,17146:0:0:0:20:kick.wav
320,192,17247,128,0,17349:0:0:0:0:
192,192,17450,1,0,0:0:0:50:click.wav
64,192,17653,128,0,17754:0:0:0:20:kick.wav
64,192,17855,128,0,17957:0:0:0:20:kick.wav
448,192,18261,128,0,18362:0:0:0:50:click.wav
448,192,18463,128,0,18565:0:0:0:20:kick.wav
448,192,18869,128,0,19477:0:0:0:50:click.wav
64,192,19477,128,0,21099:0:0:0:20:kick.wav
448,192,20085,1,0,0:0:0:20:kick.wav
192,192,20288,128,0,20490:0:0:0:20:kick.wav
448,192,20693,128,0,20795:0:0:0:50:click.wav
320,192,20896,128,0,21504:0:0:0:20:kick.wav
192,192,21099,128,0,22720:0:0:0:20:kick.wav
448,192,21504,1,0,0:0:0:50:click.wav
320,192,22112,1,0,0:0:0:50:click.wav
448,192,22720,128,0,24342:0:0:0:20:kick.wav
64,192,23328,128,0,23531:0:0:0:20:kick.wav
192,192,23531,128,0,23632:0:0:0:20:kick.wav
320,192,23734,128,0,23835:0:0:0:0:
192,192,23936,128,0,24038:0:0:0:50:click.wav
64,192,24139,128,0,24240:0:0:0:20:kick.wav
192,192,24342,128,0,25153:0:0:0:20:kick.wav
320,192,24342,128,0,24747:0:0:0:0:
448,192,24747,1,0,0:0:0:50:click.wav
320,192,24950,128,0,25051:0:0:0:20:kick.wav
64,192,25153,128,0,25254:0:0:0:20:kick.wav
448,192,25355,128,0,25457:0:0:0:50:click.wav
192,192,25558,128,0,25659:0:0:0:0:
320,192,25761,128,0,25862:0:0:0:20:kick.wav
448,192,25963,128,0,26065:0:0:0:20:kick.wav
64,192,26369,128,0,26470:0:0:0:0:
448,192,26369,1,0,0:0:0:0:
64,192,26572,128,0,26673:0:0:0:20:kick.wav
448,192,26977,128,0,27078:0:0:0:0:
64,192,27180,1,0,0:0:0:50:click.wav
192,192,27382,128,0,27788:0:0:0:20:kick.wav
192,192,27990,1,0,0:0:0:50:click.wav
320,192,27990,128,0,28092:0:0:0:0:
320,192,28193,128,0,28295:0:0:0:20:kick.wav
192,192,28599,128,0,28700:0:0:0:50:click.wav
64,192,29004,128,0,30017:0:0:0:20:kick.wav
448,192,29207,1,0,0:0:0:20:kick.wav
448,192,29612,128,0,29713:0:0:0:0:
192,192,29815,1,0,0:0:0:20:kick.wav
320,192,30220,128,0,30322:0:0:0:0:
192,192,30423,1,0,0:0:0:50:click.wav
64,192,30626,1,0,0:0:0:20:kick.wav
448,192,30828,1,0,0:0:0:20:kick.wav
320,192,31234,128,0,31335:0:0:0:50:click.wav
192,192,31436,128,0,31538:0:0:0:20:kick.wav
64,192,31639,128,0,31740:0:0:0:20:kick.wav
448,192,31842,128,0,31943:0:0:0:50:click.wav
64,192,32045,128,0,32146:0:0:0:0:
64,192,32450,1,0,0:0:0:20:kick.wav
448,192,32450,128,0,32551:0:0:0:50:click.wav
192,192,32653,128,0,32754:0:0:0:0:
192,192,32855,128,0,32957:0:0:0:0:
320,192,33058,1,0,0:0:0:20:kick.wav
448,192,33261,128,0,33362:0:0:0:20:kick.wav
448,192,33463,128,0,33565:0:0:0:0:
192,192,33666,1,0,0:0:0:50:click.wav
64,192,33869,128,0,33970:0:0:0:20:kick.wav
64,192,34072,128,0,34173:0:0:0:20:kick.wav
320,192,34477,128,0,34578:0:0:0:50:click.wav
320,192,34680,128,0,34781:0:0:0:20:kick.wav
64,192,35085,128,0,35693:0:0:0:50:click.wav
448,192,35693,1,0,0:0:0:20:kick.wav
320,192,35896,128,0,35997:0:0:0:0:
320,192,36099,128,0,36200:0:0:0:0:
192,192,36301,1,0,0:0:0:20:kick.wav
64,192,36504,128,0,36605:0:0:0:20:kick.wav
64,192,36707,128,0,36808:0:0:0:0:
320,192,36909,1,0,0:0:0:50:click.wav
448,192,37112,128,0,37213:0:0:0:20:kick.wav
448,192,37315,128,0,37416:0:0:0:20:kick.wav
192,192,37720,128,0,37822:0:0:0:50:click.wav
192,192,37923,128,0,38024:0:0:0:20:kick.wav
448,192,38328,128,0,38936:0:0:0:50:click.wav
192,192,38936,1,0,0:0:0:20:kick.wav
64,192,39139,128,0,39240:0:0:0:0:
64,192,39342,128,0,39443:0:0:0:0:
448,192,39545,1,0,0:0:0:20:kick.wav
320,192,39747,128,0,39849:0:0:0:20:kick.wav
320,192,39950,128,0,40051:0:0:0:0:
64,192,40153,1,0,0:0:0:50:click.wav
192,192,40355,128,0,40457:0:0:0:20:kick.wav
192,192,40558,128,0,40659:0:0:0:20:kick.wav
448,192,40963,128,0,41065:0:0:0:50:click.wav
448,192,41166,128,0,41267:0:0:0:20:kick.wav
192,192,41572,128,0,42180:0:0:0:50:click.wav
320,192,42180,1,0,0:0:0:20:kick.wav
448,192,42382,128,0,42484:0:0:0:0:
448,192,42585,128,0,42686:0:0:0:0:
64,192,42788,1,0,0:0:0:20:kick.wav
192,192,42990,128,0,43092:0:0:0:20:kick.wav
192,192,43193,128,0,43295:0:0:0:0:
448,192,43396,1,0,0:0:0:50:click.wav
320,192,43599,128,0,43700:0:0:0:20:kick.wav
320,192,43801,128,0,43903:0:0:0:20:kick.wav
64,192,44207,128,0,44308:0:0:0:50:click.wav
64,192,44409,128,0,44511:0:0:0:20:kick.wav
320,192,44815,128,0,45423:0:0:0:50:click.wav
448,192,45423,128,0,47045:0:0:0:20:kick.wav
192,192,45828,128,0,45930:0:0:0:0:
192,192,46031,128,0,46132:0:0:0:20:kick.wav
64,192,46436,128,0,46538:0:0:0:0:
192,192,46842,128,0,47247:0:0:0:20:kick.wav
320,192,47045,128,0,48058:0:0:0:20:kick.wav
64,192,47450,1,0,0:0:0:50:click.wav
192,192,47855,128,0,48666:0:0:0:20:kick.wav
448,192,48058,1,0,0:0:0:50:click.wav
320,192,48463,1,0,0:0:0:20:kick.wav
64,192,48666,128,0,50288:0:0:0:20:kick.wav
448,192,48869,128,0,48970:0:0:0:0:
192,192,49274,128,0,49376:0:0:0:20:kick.wav
320,192,49477,128,0,49578:0:0:0:20:kick.wav
448,192,49680,128,0,49781:0:0:0:0:
320,192,49882,128,0,49984:0:0:0:50:click.wav
192,192,50085,128,0,50186:0:0:0:20:kick.wav
320,192,50288,128,0,50693:0:0:0:20:kick.wav
448,192,50288,128,0,51099:0:0:0:0:
64,192,50693,1,0,0:0:0:50:click.wav
192,192,50896,1,0,0:0:0:20:kick.wav
64,192,51099,128,0,51909:0:0:0:20:kick.wav
320,192,51099,128,0,51200:0:0:0:0:
448,192,51301,1,0,0:0:0:50:click.wav
320,192,51504,1,0,0:0:0:0:
192,192,51707,1,0,0:0:0:20:kick.wav
320,192,51909,128,0,52011:0:0:0:20:kick.wav
448,192,51909,1,0,0:0:0:50:click.wav
192,192,52112,128,0,52213:0:0:0:0:
320,192,52315,128,0,52416:0:0:0:0:
192,192,52517,128,0,52619:0:0:0:20:kick.wav
320,192,52720,128,0,52822:0:0:0:20:kick.wav
192,192,53126,1,0,0:0:0:50:click.wav
448,192,53328,1,0,0:0:0:20:kick.wav
64,192,53531,1,0,0:0:0:20:kick.wav
320,192,53936,128,0,54038:0:0:0:50:click.wav
448,192,53936,1,0,0:0:0:0:
192,192,54139,128,0,54240:0:0:0:20:kick.wav
320,192,54342,128,0,54443:0:0:0:20:kick.wav
192,192,54545,128,0,54646:0:0:0:50:click.wav
320,192,54747,128,0,54849:0:0:0:0:
64,192,55153,1,0,0:0:0:20:kick.wav
192,192,55153,128,0,55254:0:0:0:50:click.wav
448,192,55355,128,0,55457:0:0:0:0:
192,192,55558,128,0,55659:0:0:0:0:
448,192,55761,128,0,55862:0:0:0:20:kick.wav
192,192,55963,128,0,56065:0:0:0:20:kick.wav
64,192,56369,1,0,0:0:0:50:click.wav
320,192,56572,1,0,0:0:0:20:kick.wav
448,192,56774,1,0,0:0:0:20:kick.wav
64,192,57180,1,0,0:0:0:70:clap.wav
192,192,57180,1,0,0:0:0:0:
320,192,57585,128,0,57686:0:0:0:0:
192,192,57686,128,0,57788:0:0:0:0:
64,192,57788,128,0,57889:0:0:0:0:
448,192,57889,128,0,57990:0:0:0:0:
64,192,57990,128,0,58092:0:0:0:0:
