osu file format v14

[General]
AudioFilename: audio.mp3
AudioLeadIn: 0
PreviewTime: 3668
Countdown: 0
SampleSet: Normal
StackLeniency: 0.7
Mode: 1
LetterboxInBreaks: 0
WidescreenStoryboard: 0

[Editor]
DistanceSpacing: 1.2
BeatDivisor: 4
GridSize: 32
TimelineZoom: 2.1

[Metadata]
Title:K.K. Song
TitleUnicode:けけソング
Artist:Kazumi Totaka
ArtistUnicode:戸高一生
Creator:Weber
Version:Futsuu
Source:ゼルダの伝説 夢をみる島DX
Tags:Ayyri video game short map digital eight bit 8-bit Nintendo The Legend of Zelda Link's Awakening Totaka's KK
BeatmapID:1181619
BeatmapSetID:558640

[Difficulty]
HPDrainRate:7
CircleSize:5
OverallDifficulty:4
ApproachRate:5
SliderMultiplier:1.4
SliderTickRate:1

[Events]
//Background and Video events
0,0,"links-awakening-shoplift-sign-big-1280x720.png",0,0
//Break Periods
//Storyboard Layer 0 (Background)
//Storyboard Layer 1 (Fail)
//Storyboard Layer 2 (Pass)
//Storyboard Layer 3 (Foreground)
//Storyboard Sound Samples

[TimingPoints]
3668,266.903914590747,4,1,0,50,1,0

[HitObjects]
256,192,3668,5,0,0:0:0:0:
256,192,4068,1,0,0:0:0:0:
256,192,4201,1,8,0:0:0:0:
256,192,4602,1,8,0:0:0:0:
256,192,4735,1,0,0:0:0:0:
256,192,5269,1,8,0:0:0:0:
256,192,5536,1,8,0:0:0:0:
256,192,5803,1,0,0:0:0:0:
256,192,6337,1,8,0:0:0:0:
256,192,6603,1,8,0:0:0:0:
256,192,6870,1,0,0:0:0:0:
256,192,7137,1,0,0:0:0:0:
256,192,7404,1,8,0:0:0:0:
256,192,7938,1,0,0:0:0:0:
256,192,8338,1,8,0:0:0:0:
256,192,8472,1,0,0:0:0:0:
256,192,8872,1,8,0:0:0:0:
256,192,9006,1,0,0:0:0:0:
256,192,9272,1,0,0:0:0:0:
256,192,9539,1,8,0:0:0:0:
256,192,9806,1,0,0:0:0:0:
256,192,10073,1,0,0:0:0:0:
256,192,10607,1,8,0:0:0:0:
256,192,10874,1,8,0:0:0:0:
256,192,11141,1,0,0:0:0:0:
256,192,11675,1,8,0:0:0:0:
256,192,11942,1,0,0:0:0:0:
256,192,12208,1,0,0:0:0:0:
256,192,12742,1,8,0:0:0:0:
256,192,13143,1,0,0:0:0:0:
256,192,13543,1,0,0:0:0:0:
256,192,13810,1,8,0:0:0:0:
256,192,14077,1,8,0:0:0:0:
256,192,14344,1,0,0:0:0:0:
256,192,14877,1,8,0:0:0:0:
256,192,15278,1,0,0:0:0:0:
256,192,15678,1,0,0:0:0:0:
256,192,15945,1,8,0:0:0:0:
256,192,16212,5,8,0:0:0:0:
256,192,16479,1,0,0:0:0:0:
256,192,17013,1,8,0:0:0:0:
256,192,17413,1,0,0:0:0:0:
256,192,17813,1,0,0:0:0:0:
256,192,18080,1,8,0:0:0:0:
256,192,18614,1,8,0:0:0:0:
256,192,18748,1,8,0:0:0:0:
256,192,19148,1,8,0:0:0:0:
256,192,19281,1,8,0:0:0:0:
256,192,19682,1,8,0:0:0:0:
256,192,19815,1,8,0:0:0:0:
256,192,20082,1,8,0:0:0:0:
256,192,20482,1,8,0:0:0:0:
256,192,20749,5,0,0:0:0:0:
256,192,21150,1,0,0:0:0:0:
256,192,21283,1,8,0:0:0:0:
256,192,21684,1,8,0:0:0:0:
256,192,21817,1,0,0:0:0:0:
256,192,22351,1,8,0:0:0:0:
256,192,22618,1,0,0:0:0:0:
256,192,22885,1,0,0:0:0:0:
256,192,23418,1,8,0:0:0:0:
256,192,23685,1,8,0:0:0:0:
256,192,23952,1,0,0:0:0:0:
256,192,24219,1,0,0:0:0:0:
256,192,24486,1,8,0:0:0:0:
256,192,25020,1,0,0:0:0:0:
256,192,25420,1,0,0:0:0:0:
256,192,25554,1,8,0:0:0:0:
256,192,25954,1,8,0:0:0:0:
256,192,26087,1,0,0:0:0:0:
256,192,26354,1,0,0:0:0:0:
256,192,26621,1,8,0:0:0:0:
256,192,27155,1,0,0:0:0:0:
256,192,27422,1,0,0:0:0:0:
256,192,27689,1,8,0:0:0:0:
256,192,28223,1,0,0:0:0:0:
256,192,28490,1,8,0:0:0:0:
256,192,28756,1,8,0:0:0:0:
256,192,29023,1,0,0:0:0:0:
256,192,29290,1,0,0:0:0:0:
256,192,29824,1,8,0:0:0:0:
256,192,30224,1,0,0:0:0:0:
256,192,30625,1,0,0:0:0:0:
256,192,30892,1,8,0:0:0:0:
256,192,31159,1,8,0:0:0:0:
256,192,31426,1,0,0:0:0:0:
256,192,31959,1,8,0:0:0:0:
256,192,32360,1,0,0:0:0:0:
256,192,32760,1,0,0:0:0:0:
256,192,33027,1,8,0:0:0:0:
256,192,33294,5,8,0:0:0:0:
256,192,33561,1,0,0:0:0:0:
256,192,34095,1,8,0:0:0:0:
256,192,34495,1,0,0:0:0:0:
256,192,34895,1,0,0:0:0:0:
256,192,35162,1,8,0:0:0:0:
256,192,35696,1,8,0:0:0:0:
256,192,35829,1,8,0:0:0:0:
256,192,36230,1,8,0:0:0:0:
256,192,36363,1,8,0:0:0:0:
256,192,36764,1,8,0:0:0:0:
256,192,36897,1,8,0:0:0:0:
256,192,37164,1,8,0:0:0:0:
256,192,37564,1,8,0:0:0:0:
256,192,37831,1,0,0:0:0:0:
