osu file format v14

[General]
AudioFilename: audio.mp3
AudioLeadIn: 0
PreviewTime: 66156
Countdown: 0
SampleSet: Normal
StackLeniency: 0.2
Mode: 3
LetterboxInBreaks: 0
SpecialStyle: 0
WidescreenStoryboard: 1

[Editor]
Bookmarks: 14873,28251,41224,54197,66359,86629,96359,109738
DistanceSpacing: 1.2
BeatDivisor: 4
GridSize: 16
TimelineZoom: 1.9

[Metadata]
Title:Baka Mitai (Cut Ver.)
TitleUnicode:ばかみたい (Cut Ver.)
Artist:Kazuma Kiryu (CV: Takaya Kuroda)
ArtistUnicode:桐生 一馬 (CV: 黒田崇矢)
Creator:elexire
Version:Insane
Source:龍が如く5 夢、叶えし者
Tags:yakuza 0 5 japanese video game ryu ga gotoku studio 龍が如くスタジオ sega dumpstream stream osu!mania 4k mania world cup 2023 mwc23 4k world cup 2023 quarterfinals rc5 ska
BeatmapID:4340995
BeatmapSetID:2051835

[Difficulty]
HPDrainRate:7.5
CircleSize:4
OverallDifficulty:7.5
ApproachRate:7
SliderMultiplier:1.6
SliderTickRate:1

[Events]
//Background and Video events
0,0,"ngl they be lookin fly.jpg",0,0
//Break Periods
//Storyboard Layer 0 (Background)
//Storyboard Layer 1 (Fail)
//Storyboard Layer 2 (Pass)
//Storyboard Layer 3 (Foreground)
//Storyboard Layer 4 (Overlay)
//Storyboard Sound Samples

[TimingPoints]
684,405.405405405405,4,1,1,25,1,0
106494,454.545454545455,4,1,1,25,1,0
106494,-89.18918919,4,1,1,25,0,0

[HitObjects]
192,192,684,5,0,0:0:0:0:
320,192,785,1,0,0:0:0:0:
64,192,886,1,0,0:0:0:0:
320,192,988,1,0,0:0:0:0:
192,192,1089,1,0,0:0:0:0:
320,192,1190,1,0,0:0:0:0:
448,192,1292,1,0,0:0:0:0:
64,192,1393,1,0,0:0:0:0:
192,192,1444,1,0,0:0:0:0:
448,192,1494,1,0,0:0:0:0:
320,192,1494,1,0,0:0:0:0:
192,192,1596,1,0,0:0:0:0:
320,192,1697,1,0,0:0:0:0:
448,192,1697,1,0,0:0:0:0:
192,192,1798,1,0,0:0:0:0:
448,192,1900,1,0,0:0:0:0:
64,192,1900,1,0,0:0:0:0:
320,192,2001,1,0,0:0:0:0:
64,192,2102,1,0,0:0:0:0:
192,192,2170,1,0,0:0:0:0:
320,192,2238,1,0,0:0:0:0:
448,192,2305,1,0,0:0:0:0:
64,192,2305,1,0,0:0:0:0:
192,192,2386,1,0,0:0:0:0:
64,192,2467,1,0,0:0:0:0:
448,192,2548,1,0,0:0:0:0:
64,192,2629,1,0,0:0:0:0:
192,192,2711,1,0,0:0:0:0:
448,192,2778,1,0,0:0:0:0:
320,192,2846,1,0,0:0:0:0:
192,192,2913,1,0,0:0:0:0:
448,192,3015,1,0,0:0:0:0:
64,192,3065,1,0,0:0:0:0:
192,192,3116,1,0,0:0:0:0:
320,192,3116,1,0,0:0:0:0:
448,192,3217,1,0,0:0:0:0:
320,192,3319,1,0,0:0:0:0:
64,192,3386,1,0,0:0:0:0:
192,192,3454,1,0,0:0:0:0:
320,192,3521,1,0,0:0:0:0:
64,192,3589,1,0,0:0:0:0:
448,192,3656,1,0,0:0:0:0:
192,192,3724,1,0,0:0:0:0:
320,192,3792,1,0,0:0:0:0:
64,192,3859,1,0,0:0:0:0:
192,192,3927,1,0,0:0:0:0:
448,192,3994,1,0,0:0:0:0:
64,192,4062,1,0,0:0:0:0:
320,192,4129,1,0,0:0:0:0:
192,192,4197,1,0,0:0:0:0:
320,192,4265,1,0,0:0:0:0:
448,192,4332,1,0,0:0:0:0:
64,192,4332,1,0,0:0:0:0:
192,192,4400,1,0,0:0:0:0:
320,192,4467,1,0,0:0:0:0:
64,192,4535,1,0,0:0:0:0:
192,192,4535,1,0,0:0:0:0:
448,192,4602,1,0,0:0:0:0:
320,192,4670,1,0,0:0:0:0:
192,192,4738,1,0,0:0:0:0:
448,192,4738,1,0,0:0:0:0:
64,192,4805,1,0,0:0:0:0:
320,192,4873,1,0,0:0:0:0:
192,192,4940,1,0,0:0:0:0:
64,192,4940,1,0,0:0:0:0:
448,192,5008,1,0,0:0:0:0:
192,192,5075,1,0,0:0:0:0:
320,192,5143,1,0,0:0:0:0:
448,192,5143,1,0,0:0:0:0:
64,192,5211,1,0,0:0:0:0:
192,192,5278,1,0,0:0:0:0:
320,192,5346,1,0,0:0:0:0:
64,192,5346,1,0,0:0:0:0:
448,192,5413,1,0,0:0:0:0:
192,192,5481,1,0,0:0:0:0:
448,192,5548,1,0,0:0:0:0:
64,192,5548,1,0,0:0:0:0:
320,192,5650,1,0,0:0:0:0:
192,192,5751,1,0,0:0:0:0:
64,192,5751,1,0,0:0:0:0:
320,192,5852,1,0,0:0:0:0:
448,192,5954,1,0,0:0:0:0:
192,192,5954,1,0,0:0:0:0:
64,192,6055,1,0,0:0:0:0:
320,192,6156,1,0,0:0:0:0:
192,192,6258,1,0,0:0:0:0:
64,192,6359,1,0,0:0:0:0:
320,192,6359,1,0,0:0:0:0:
448,192,6461,1,0,0:0:0:0:
192,192,6562,1,0,0:0:0:0:
320,192,6663,1,0,0:0:0:0:
448,192,6765,1,0,0:0:0:0:
192,192,6765,1,0,0:0:0:0:
64,192,6832,1,0,0:0:0:0:
320,192,6900,1,0,0:0:0:0:
192,192,6967,1,0,0:0:0:0:
448,192,7069,1,0,0:0:0:0:
320,192,7119,1,0,0:0:0:0:
192,192,7170,1,0,0:0:0:0:
64,192,7170,1,0,0:0:0:0:
448,192,7271,1,0,0:0:0:0:
64,192,7373,1,0,0:0:0:0:
192,192,7440,1,0,0:0:0:0:
320,192,7508,1,0,0:0:0:0:
64,192,7575,1,0,0:0:0:0:
448,192,7633,1,0,0:0:0:0:
192,192,7691,1,0,0:0:0:0:
320,192,7749,1,0,0:0:0:0:
448,192,7807,1,0,0:0:0:0:
192,192,7865,1,0,0:0:0:0:
320,192,7923,1,0,0:0:0:0:
64,192,7981,1,0,0:0:0:0:
448,192,7981,1,0,0:0:0:0:
192,192,8039,1,0,0:0:0:0:
320,192,8097,1,0,0:0:0:0:
64,192,8155,1,0,0:0:0:0:
448,192,8212,1,0,0:0:0:0:
320,192,8270,1,0,0:0:0:0:
192,192,8328,1,0,0:0:0:0:
64,192,8386,1,0,0:0:0:0:
448,192,8386,1,0,0:0:0:0:
320,192,8437,1,0,0:0:0:0:
192,192,8488,1,0,0:0:0:0:
448,192,8538,1,0,0:0:0:0:
64,192,8589,1,0,0:0:0:0:
192,192,8640,1,0,0:0:0:0:
320,192,8690,1,0,0:0:0:0:
64,192,8741,1,0,0:0:0:0:
448,192,8792,1,0,0:0:0:0:
192,192,8792,1,0,0:0:0:0:
320,192,8873,1,0,0:0:0:0:
448,192,8954,1,0,0:0:0:0:
64,192,9035,1,0,0:0:0:0:
320,192,9116,1,0,0:0:0:0:
64,192,9197,1,0,0:0:0:0:
192,192,9278,1,0,0:0:0:0:
448,192,9359,1,0,0:0:0:0:
192,192,9440,1,0,0:0:0:0:
320,192,9521,1,0,0:0:0:0:
448,192,9602,1,0,0:0:0:0:
64,192,9602,1,0,0:0:0:0:
192,192,9683,1,0,0:0:0:0:
448,192,9765,1,0,0:0:0:0:
64,192,9846,1,0,0:0:0:0:
320,192,9927,1,0,0:0:0:0:
64,192,10008,1,0,0:0:0:0:
320,192,10089,1,0,0:0:0:0:
192,192,10170,1,0,0:0:0:0:
448,192,10251,1,0,0:0:0:0:
192,192,10332,1,0,0:0:0:0:
64,192,10413,1,0,0:0:0:0:
448,192,10413,1,0,0:0:0:0:
320,192,10494,1,0,0:0:0:0:
192,192,10575,1,0,0:0:0:0:
320,192,10656,1,0,0:0:0:0:
448,192,10738,1,0,0:0:0:0:
64,192,10819,1,0,0:0:0:0:
192,192,10900,1,0,0:0:0:0:
320,192,10981,1,0,0:0:0:0:
192,192,11062,1,0,0:0:0:0:
320,192,11143,1,0,0:0:0:0:
448,192,11224,1,0,0:0:0:0:
64,192,11224,1,0,0:0:0:0:
192,192,11305,1,0,0:0:0:0:
448,192,11386,1,0,0:0:0:0:
320,192,11467,1,0,0:0:0:0:
192,192,11548,1,0,0:0:0:0:
448,192,11629,1,0,0:0:0:0:
64,192,11629,1,0,0:0:0:0:
320,192,11629,1,0,0:0:0:0:
192,192,11711,1,0,0:0:0:0:
64,192,11792,1,0,0:0:0:0:
448,192,11861,1,0,0:0:0:0:
320,192,11919,1,0,0:0:0:0:
192,192,11977,1,0,0:0:0:0:
64,192,12035,1,0,0:0:0:0:
448,192,12035,1,0,0:0:0:0:
320,192,12080,1,0,0:0:0:0:
64,192,12440,1,0,0:0:0:0:
320,192,12440,1,0,0:0:0:0:
64,192,12846,1,0,0:0:0:0:
320,192,12846,1,0,0:0:0:0:
320,192,13555,1,0,0:0:0:0:
448,192,13606,1,0,0:0:0:0:
192,192,13656,1,0,0:0:0:0:
64,192,13656,1,0,0:0:0:0:
192,192,14062,1,0,0:0:0:0:
64,192,14062,1,0,0:0:0:0:
448,192,14873,1,0,0:0:0:0:
448,192,15075,1,0,0:0:0:0:
320,192,15177,1,0,0:0:0:0:
448,192,15278,1,0,0:0:0:0:
64,192,15278,1,0,0:0:0:0:
192,192,15379,1,0,0:0:0:0:
64,192,15481,1,0,0:0:0:0:
320,192,15582,1,0,0:0:0:0:
448,192,15683,1,0,0:0:0:0:
192,192,15765,1,0,0:0:0:0:
448,192,15846,1,0,0:0:0:0:
64,192,15927,1,0,0:0:0:0:
320,192,16008,1,0,0:0:0:0:
448,192,16089,1,0,0:0:0:0:
64,192,16089,1,0,0:0:0:0:
192,192,16494,1,0,0:0:0:0:
320,192,16855,1,0,0:0:0:0:
64,192,16900,1,0,0:0:0:0:
448,192,16900,1,0,0:0:0:0:
192,192,17102,1,0,0:0:0:0:
64,192,17305,1,0,0:0:0:0:
448,192,17373,1,0,0:0:0:0:
192,192,17440,1,0,0:0:0:0:
320,192,17508,1,0,0:0:0:0:
448,192,17575,1,0,0:0:0:0:
192,192,17643,1,0,0:0:0:0:
448,192,17711,1,0,0:0:0:0:
320,192,17711,1,0,0:0:0:0:
64,192,17792,1,0,0:0:0:0:
320,192,17873,1,0,0:0:0:0:
448,192,18116,1,0,0:0:0:0:
320,192,18183,1,0,0:0:0:0:
192,192,18251,1,0,0:0:0:0:
320,192,18319,1,0,0:0:0:0:
64,192,18420,1,0,0:0:0:0:
192,192,18521,1,0,0:0:0:0:
448,192,18521,1,0,0:0:0:0:
320,192,18589,1,0,0:0:0:0:
192,192,18724,1,0,0:0:0:0:
64,192,18724,1,0,0:0:0:0:
320,192,18825,1,0,0:0:0:0:
64,192,18927,1,0,0:0:0:0:
448,192,19008,1,0,0:0:0:0:
64,192,19089,1,0,0:0:0:0:
192,192,19170,1,0,0:0:0:0:
192,192,19332,1,0,0:0:0:0:
448,192,19332,1,0,0:0:0:0:
320,192,19687,1,0,0:0:0:0:
64,192,19738,1,0,0:0:0:0:
192,192,19853,1,0,0:0:0:0:
64,192,19966,1,0,0:0:0:0:
192,192,20143,1,0,0:0:0:0:
448,192,20143,1,0,0:0:0:0:
320,192,20224,1,0,0:0:0:0:
64,192,20305,1,0,0:0:0:0:
320,192,20386,1,0,0:0:0:0:
192,192,20467,1,0,0:0:0:0:
64,192,20503,1,0,0:0:0:0:
192,192,20852,1,0,0:0:0:0:
320,192,20954,1,0,0:0:0:0:
448,192,20954,1,0,0:0:0:0:
320,192,21292,1,0,0:0:0:0:
192,192,21359,1,0,0:0:0:0:
192,192,21533,1,0,0:0:0:0:
320,192,21591,1,0,0:0:0:0:
448,192,21649,1,0,0:0:0:0:
192,192,21765,1,0,0:0:0:0:
64,192,21765,1,0,0:0:0:0:
320,192,21846,1,0,0:0:0:0:
192,192,21927,1,0,0:0:0:0:
448,192,22008,1,0,0:0:0:0:
64,192,22170,1,0,0:0:0:0:
192,192,22575,1,0,0:0:0:0:
448,192,22575,1,0,0:0:0:0:
448,192,22981,1,0,0:0:0:0:
320,192,23062,1,0,0:0:0:0:
448,192,23143,1,0,0:0:0:0:
192,192,23224,1,0,0:0:0:0:
320,192,23305,1,0,0:0:0:0:
64,192,23386,1,0,0:0:0:0:
192,192,23386,1,0,0:0:0:0:
448,192,23454,1,0,0:0:0:0:
448,192,23792,1,0,0:0:0:0:
320,192,23850,1,0,0:0:0:0:
192,192,23907,1,0,0:0:0:0:
192,192,24197,1,0,0:0:0:0:
448,192,24197,1,0,0:0:0:0:
320,192,24278,1,0,0:0:0:0:
192,192,24359,1,0,0:0:0:0:
64,192,24440,1,0,0:0:0:0:
192,192,24521,1,0,0:0:0:0:
448,192,24602,1,0,0:0:0:0:
64,192,24670,1,0,0:0:0:0:
320,192,24738,1,0,0:0:0:0:
192,192,25008,1,0,0:0:0:0:
448,192,25008,1,0,0:0:0:0:
64,192,25089,1,0,0:0:0:0:
448,192,25170,1,0,0:0:0:0:
192,192,25413,1,0,0:0:0:0:
320,192,25515,1,0,0:0:0:0:
448,192,25616,1,0,0:0:0:0:
448,192,25819,1,0,0:0:0:0:
64,192,25819,1,0,0:0:0:0:
320,192,26021,1,0,0:0:0:0:
192,192,26224,1,0,0:0:0:0:
448,192,26427,1,0,0:0:0:0:
192,192,26629,1,0,0:0:0:0:
64,192,26629,1,0,0:0:0:0:
320,192,26731,1,0,0:0:0:0:
192,192,26832,1,0,0:0:0:0:
64,192,26933,1,0,0:0:0:0:
448,192,27035,1,0,0:0:0:0:
320,192,27035,1,0,0:0:0:0:
192,192,27136,1,0,0:0:0:0:
448,192,27238,1,0,0:0:0:0:
192,192,27339,1,0,0:0:0:0:
64,192,27440,1,0,0:0:0:0:
320,192,27440,1,0,0:0:0:0:
448,192,27542,1,0,0:0:0:0:
192,192,27643,1,0,0:0:0:0:
448,192,27744,1,0,0:0:0:0:
320,192,27846,1,0,0:0:0:0:
64,192,27927,1,0,0:0:0:0:
448,192,27998,1,0,0:0:0:0:
192,192,28048,1,0,0:0:0:0:
320,192,28150,1,0,0:0:0:0:
448,192,28251,1,0,0:0:0:0:
64,192,28251,1,0,0:0:0:0:
192,192,28332,1,0,0:0:0:0:
320,192,28413,1,0,0:0:0:0:
64,192,28494,1,0,0:0:0:0:
320,192,28575,1,0,0:0:0:0:
192,192,28656,1,0,0:0:0:0:
448,192,28758,1,0,0:0:0:0:
320,192,28859,1,0,0:0:0:0:
64,192,28961,1,0,0:0:0:0:
320,192,29062,1,0,0:0:0:0:
448,192,29062,1,0,0:0:0:0:
192,192,29163,1,0,0:0:0:0:
64,192,29265,1,0,0:0:0:0:
448,192,29366,1,0,0:0:0:0:
192,192,29467,1,0,0:0:0:0:
320,192,29569,1,0,0:0:0:0:
64,192,29670,1,0,0:0:0:0:
320,192,29771,1,0,0:0:0:0:
192,192,29822,1,0,0:0:0:0:
64,192,29873,1,0,0:0:0:0:
448,192,29873,1,0,0:0:0:0:
320,192,29974,1,0,0:0:0:0:
448,192,30075,1,0,0:0:0:0:
192,192,30177,1,0,0:0:0:0:
320,192,30278,1,0,0:0:0:0:
448,192,30336,1,0,0:0:0:0:
64,192,30394,1,0,0:0:0:0:
320,192,30452,1,0,0:0:0:0:
64,192,30521,1,0,0:0:0:0:
192,192,30602,1,0,0:0:0:0:
320,192,30683,1,0,0:0:0:0:
448,192,30683,1,0,0:0:0:0:
64,192,30751,1,0,0:0:0:0:
192,192,30819,1,0,0:0:0:0:
320,192,30886,1,0,0:0:0:0:
64,192,30954,1,0,0:0:0:0:
448,192,31021,1,0,0:0:0:0:
192,192,31089,1,0,0:0:0:0:
320,192,31089,1,0,0:0:0:0:
64,192,31156,1,0,0:0:0:0:
448,192,31224,1,0,0:0:0:0:
192,192,31292,1,0,0:0:0:0:
320,192,31393,1,0,0:0:0:0:
448,192,31494,1,0,0:0:0:0:
64,192,31494,1,0,0:0:0:0:
320,192,31900,1,0,0:0:0:0:
192,192,31900,1,0,0:0:0:0:
64,192,31981,1,0,0:0:0:0:
192,192,32062,1,0,0:0:0:0:
64,192,32143,1,0,0:0:0:0:
192,192,32224,1,0,0:0:0:0:
320,192,32305,1,0,0:0:0:0:
448,192,32305,1,0,0:0:0:0:
192,192,32406,1,0,0:0:0:0:
320,192,32508,1,0,0:0:0:0:
192,192,32609,1,0,0:0:0:0:
448,192,32711,1,0,0:0:0:0:
64,192,32711,1,0,0:0:0:0:
320,192,32792,1,0,0:0:0:0:
448,192,32873,1,0,0:0:0:0:
320,192,32954,1,0,0:0:0:0:
448,192,33035,1,0,0:0:0:0:
64,192,33116,1,0,0:0:0:0:
448,192,33217,1,0,0:0:0:0:
192,192,33319,1,0,0:0:0:0:
320,192,33420,1,0,0:0:0:0:
448,192,33521,1,0,0:0:0:0:
64,192,33521,1,0,0:0:0:0:
192,192,33589,1,0,0:0:0:0:
64,192,33656,1,0,0:0:0:0:
320,192,33724,1,0,0:0:0:0:
192,192,33825,1,0,0:0:0:0:
320,192,33927,1,0,0:0:0:0:
448,192,33927,1,0,0:0:0:0:
64,192,33994,1,0,0:0:0:0:
192,192,34062,1,0,0:0:0:0:
320,192,34129,1,0,0:0:0:0:
192,192,34231,1,0,0:0:0:0:
320,192,34332,1,0,0:0:0:0:
64,192,34332,1,0,0:0:0:0:
192,192,34433,1,0,0:0:0:0:
448,192,34535,1,0,0:0:0:0:
64,192,34535,1,0,0:0:0:0:
320,192,34636,1,0,0:0:0:0:
192,192,34738,1,0,0:0:0:0:
64,192,34738,1,0,0:0:0:0:
448,192,34805,1,0,0:0:0:0:
192,192,34873,1,0,0:0:0:0:
320,192,34940,1,0,0:0:0:0:
448,192,34940,1,0,0:0:0:0:
64,192,35008,1,0,0:0:0:0:
320,192,35075,1,0,0:0:0:0:
64,192,35143,1,0,0:0:0:0:
192,192,35143,1,0,0:0:0:0:
320,192,35224,1,0,0:0:0:0:
192,192,35305,1,0,0:0:0:0:
448,192,35386,1,0,0:0:0:0:
64,192,35467,1,0,0:0:0:0:
448,192,35548,1,0,0:0:0:0:
320,192,35548,1,0,0:0:0:0:
192,192,35954,1,0,0:0:0:0:
320,192,36021,1,0,0:0:0:0:
448,192,36089,1,0,0:0:0:0:
64,192,36156,1,0,0:0:0:0:
320,192,36224,1,0,0:0:0:0:
192,192,36292,1,0,0:0:0:0:
64,192,36359,1,0,0:0:0:0:
448,192,36359,1,0,0:0:0:0:
320,192,36427,1,0,0:0:0:0:
192,192,36494,1,0,0:0:0:0:
448,192,36591,1,0,0:0:0:0:
192,192,36683,1,0,0:0:0:0:
448,192,36765,1,0,0:0:0:0:
64,192,36866,1,0,0:0:0:0:
320,192,36967,1,0,0:0:0:0:
192,192,37069,1,0,0:0:0:0:
320,192,37170,1,0,0:0:0:0:
448,192,37170,1,0,0:0:0:0:
64,192,37228,1,0,0:0:0:0:
320,192,37286,1,0,0:0:0:0:
192,192,37344,1,0,0:0:0:0:
64,192,37413,1,0,0:0:0:0:
448,192,37494,1,0,0:0:0:0:
192,192,37575,1,0,0:0:0:0:
320,192,37677,1,0,0:0:0:0:
192,192,37778,1,0,0:0:0:0:
448,192,37879,1,0,0:0:0:0:
192,192,37981,1,0,0:0:0:0:
64,192,37981,1,0,0:0:0:0:
448,192,38082,1,0,0:0:0:0:
320,192,38183,1,0,0:0:0:0:
64,192,38183,1,0,0:0:0:0:
192,192,38285,1,0,0:0:0:0:
448,192,38386,1,0,0:0:0:0:
320,192,38386,1,0,0:0:0:0:
192,192,38467,1,0,0:0:0:0:
320,192,38548,1,0,0:0:0:0:
64,192,38629,1,0,0:0:0:0:
448,192,38711,1,0,0:0:0:0:
64,192,38792,1,0,0:0:0:0:
192,192,38792,1,0,0:0:0:0:
320,192,38873,1,0,0:0:0:0:
448,192,38954,1,0,0:0:0:0:
192,192,39035,1,0,0:0:0:0:
64,192,39116,1,0,0:0:0:0:
448,192,39197,1,0,0:0:0:0:
192,192,39278,1,0,0:0:0:0:
448,192,39359,1,0,0:0:0:0:
320,192,39440,1,0,0:0:0:0:
192,192,39521,1,0,0:0:0:0:
448,192,39602,5,0,0:0:0:0:
64,192,39602,1,0,0:0:0:0:
192,192,39670,1,0,0:0:0:0:
320,192,39738,1,0,0:0:0:0:
64,192,39805,1,0,0:0:0:0:
448,192,39873,1,0,0:0:0:0:
192,192,39940,1,0,0:0:0:0:
64,192,40008,1,0,0:0:0:0:
448,192,40075,1,0,0:0:0:0:
64,192,40143,1,0,0:0:0:0:
320,192,40211,1,0,0:0:0:0:
448,192,40278,1,0,0:0:0:0:
192,192,40346,5,0,0:0:0:0:
320,192,40413,1,0,0:0:0:0:
448,192,40413,1,0,0:0:0:0:
64,192,40481,1,0,0:0:0:0:
320,192,40548,1,0,0:0:0:0:
192,192,40656,1,0,0:0:0:0:
64,192,40738,1,0,0:0:0:0:
320,192,40819,1,0,0:0:0:0:
192,192,41021,1,0,0:0:0:0:
320,192,41224,5,0,0:0:0:0:
448,192,41224,1,0,0:0:0:0:
64,192,41292,1,0,0:0:0:0:
192,192,41359,1,0,0:0:0:0:
320,192,41427,1,0,0:0:0:0:
448,192,41427,1,0,0:0:0:0:
64,192,41494,1,0,0:0:0:0:
448,192,41562,1,0,0:0:0:0:
64,192,41629,1,0,0:0:0:0:
192,192,41629,1,0,0:0:0:0:
320,192,41697,1,0,0:0:0:0:
448,192,41765,1,0,0:0:0:0:
192,192,41832,1,0,0:0:0:0:
64,192,41832,1,0,0:0:0:0:
448,192,41900,1,0,0:0:0:0:
64,192,41967,1,0,0:0:0:0:
192,192,42035,1,0,0:0:0:0:
320,192,42035,1,0,0:0:0:0:
448,192,42116,1,0,0:0:0:0:
320,192,42197,1,0,0:0:0:0:
192,192,42305,1,0,0:0:0:0:
320,192,42440,1,0,0:0:0:0:
192,192,42643,1,0,0:0:0:0:
64,192,42643,1,0,0:0:0:0:
320,192,42744,1,0,0:0:0:0:
64,192,42846,1,0,0:0:0:0:
320,192,43251,1,0,0:0:0:0:
448,192,43555,1,0,0:0:0:0:
320,192,43656,1,0,0:0:0:0:
64,192,43656,1,0,0:0:0:0:
192,192,43724,1,0,0:0:0:0:
64,192,43792,1,0,0:0:0:0:
320,192,43927,1,0,0:0:0:0:
64,192,44062,1,0,0:0:0:0:
448,192,44143,1,0,0:0:0:0:
320,192,44224,1,0,0:0:0:0:
192,192,44305,1,0,0:0:0:0:
320,192,44386,1,0,0:0:0:0:
64,192,44467,1,0,0:0:0:0:
192,192,44467,1,0,0:0:0:0:
448,192,44535,1,0,0:0:0:0:
64,192,44602,1,0,0:0:0:0:
320,192,44670,1,0,0:0:0:0:
192,192,44771,1,0,0:0:0:0:
64,192,44873,1,0,0:0:0:0:
448,192,44954,1,0,0:0:0:0:
320,192,45035,1,0,0:0:0:0:
192,192,45116,1,0,0:0:0:0:
320,192,45197,1,0,0:0:0:0:
448,192,45278,1,0,0:0:0:0:
64,192,45278,1,0,0:0:0:0:
192,192,45346,1,0,0:0:0:0:
448,192,45413,1,0,0:0:0:0:
64,192,45521,1,0,0:0:0:0:
448,192,45602,1,0,0:0:0:0:
64,192,45683,1,0,0:0:0:0:
320,192,45734,1,0,0:0:0:0:
448,192,45819,1,0,0:0:0:0:
64,192,45886,1,0,0:0:0:0:
320,192,45937,1,0,0:0:0:0:
192,192,45988,1,0,0:0:0:0:
448,192,46089,1,0,0:0:0:0:
320,192,46089,1,0,0:0:0:0:
64,192,46190,1,0,0:0:0:0:
192,192,46292,1,0,0:0:0:0:
320,192,46393,1,0,0:0:0:0:
64,192,46494,1,0,0:0:0:0:
192,192,46575,1,0,0:0:0:0:
64,192,46656,1,0,0:0:0:0:
320,192,46726,1,0,0:0:0:0:
192,192,46784,1,0,0:0:0:0:
320,192,46842,1,0,0:0:0:0:
64,192,46900,1,0,0:0:0:0:
448,192,46900,1,0,0:0:0:0:
192,192,46981,1,0,0:0:0:0:
320,192,47062,1,0,0:0:0:0:
64,192,47143,1,0,0:0:0:0:
320,192,47224,1,0,0:0:0:0:
192,192,47305,1,0,0:0:0:0:
320,192,47406,1,0,0:0:0:0:
448,192,47508,1,0,0:0:0:0:
192,192,47711,1,0,0:0:0:0:
64,192,47711,1,0,0:0:0:0:
448,192,47778,1,0,0:0:0:0:
64,192,47846,1,0,0:0:0:0:
320,192,47913,1,0,0:0:0:0:
448,192,47913,1,0,0:0:0:0:
192,192,47981,1,0,0:0:0:0:
320,192,48048,1,0,0:0:0:0:
192,192,48116,1,0,0:0:0:0:
64,192,48116,1,0,0:0:0:0:
448,192,48183,1,0,0:0:0:0:
64,192,48251,1,0,0:0:0:0:
320,192,48319,1,0,0:0:0:0:
448,192,48319,1,0,0:0:0:0:
192,192,48386,1,0,0:0:0:0:
320,192,48454,1,0,0:0:0:0:
64,192,48521,1,0,0:0:0:0:
192,192,48521,1,0,0:0:0:0:
448,192,48579,1,0,0:0:0:0:
320,192,48637,1,0,0:0:0:0:
64,192,48695,1,0,0:0:0:0:
320,192,48765,1,0,0:0:0:0:
192,192,48846,1,0,0:0:0:0:
448,192,48927,1,0,0:0:0:0:
448,192,49129,1,0,0:0:0:0:
320,192,49129,1,0,0:0:0:0:
64,192,49197,1,0,0:0:0:0:
192,192,49265,1,0,0:0:0:0:
320,192,49332,1,0,0:0:0:0:
64,192,49400,1,0,0:0:0:0:
448,192,49467,1,0,0:0:0:0:
192,192,49535,1,0,0:0:0:0:
320,192,49602,1,0,0:0:0:0:
448,192,49670,1,0,0:0:0:0:
192,192,49738,1,0,0:0:0:0:
448,192,49819,1,0,0:0:0:0:
64,192,49900,1,0,0:0:0:0:
320,192,49981,1,0,0:0:0:0:
64,192,50062,1,0,0:0:0:0:
448,192,50143,1,0,0:0:0:0:
192,192,50143,1,0,0:0:0:0:
320,192,50211,1,0,0:0:0:0:
192,192,50278,1,0,0:0:0:0:
320,192,50346,1,0,0:0:0:0:
64,192,50413,1,0,0:0:0:0:
192,192,50481,1,0,0:0:0:0:
320,192,50548,1,0,0:0:0:0:
64,192,50616,1,0,0:0:0:0:
448,192,50683,1,0,0:0:0:0:
64,192,50751,1,0,0:0:0:0:
448,192,50819,1,0,0:0:0:0:
192,192,50886,1,0,0:0:0:0:
320,192,50954,1,0,0:0:0:0:
448,192,50954,1,0,0:0:0:0:
320,192,51055,1,0,0:0:0:0:
192,192,51156,1,0,0:0:0:0:
64,192,51156,1,0,0:0:0:0:
192,192,51258,1,0,0:0:0:0:
448,192,51359,1,0,0:0:0:0:
64,192,51410,1,0,0:0:0:0:
320,192,51461,1,0,0:0:0:0:
192,192,51562,1,0,0:0:0:0:
448,192,51663,1,0,0:0:0:0:
320,192,51765,1,0,0:0:0:0:
64,192,51765,1,0,0:0:0:0:
192,192,51866,1,0,0:0:0:0:
320,192,51967,1,0,0:0:0:0:
64,192,52069,1,0,0:0:0:0:
448,192,52170,1,0,0:0:0:0:
320,192,52251,1,0,0:0:0:0:
192,192,52332,1,0,0:0:0:0:
448,192,52413,1,0,0:0:0:0:
192,192,52494,1,0,0:0:0:0:
448,192,52575,1,0,0:0:0:0:
320,192,52575,1,0,0:0:0:0:
64,192,52643,1,0,0:0:0:0:
192,192,52711,1,0,0:0:0:0:
320,192,52778,1,0,0:0:0:0:
64,192,52846,1,0,0:0:0:0:
448,192,52913,1,0,0:0:0:0:
320,192,52981,1,0,0:0:0:0:
192,192,52981,1,0,0:0:0:0:
64,192,53048,1,0,0:0:0:0:
448,192,53116,1,0,0:0:0:0:
320,192,53183,1,0,0:0:0:0:
64,192,53251,1,0,0:0:0:0:
448,192,53319,1,0,0:0:0:0:
64,192,53386,1,0,0:0:0:0:
192,192,53386,1,0,0:0:0:0:
320,192,53444,1,0,0:0:0:0:
448,192,53502,1,0,0:0:0:0:
192,192,53560,1,0,0:0:0:0:
320,192,53618,1,0,0:0:0:0:
448,192,53676,1,0,0:0:0:0:
192,192,53734,1,0,0:0:0:0:
64,192,53792,1,0,0:0:0:0:
320,192,53792,1,0,0:0:0:0:
192,192,53873,1,0,0:0:0:0:
64,192,53954,1,0,0:0:0:0:
320,192,54035,1,0,0:0:0:0:
192,192,54116,1,0,0:0:0:0:
64,192,54197,1,0,0:0:0:0:
448,192,54197,1,0,0:0:0:0:
320,192,54265,1,0,0:0:0:0:
192,192,54332,1,0,0:0:0:0:
448,192,54400,1,0,0:0:0:0:
64,192,54467,1,0,0:0:0:0:
192,192,54535,1,0,0:0:0:0:
320,192,54602,1,0,0:0:0:0:
64,192,54683,1,0,0:0:0:0:
320,192,54765,1,0,0:0:0:0:
192,192,54834,1,0,0:0:0:0:
448,192,54892,1,0,0:0:0:0:
320,192,54950,1,0,0:0:0:0:
192,192,55008,1,0,0:0:0:0:
64,192,55008,1,0,0:0:0:0:
448,192,55089,1,0,0:0:0:0:
64,192,55170,1,0,0:0:0:0:
320,192,55251,1,0,0:0:0:0:
192,192,55332,1,0,0:0:0:0:
64,192,55413,1,0,0:0:0:0:
448,192,55515,1,0,0:0:0:0:
192,192,55616,1,0,0:0:0:0:
320,192,55616,1,0,0:0:0:0:
64,192,55683,1,0,0:0:0:0:
192,192,55751,1,0,0:0:0:0:
320,192,55819,1,0,0:0:0:0:
64,192,55900,1,0,0:0:0:0:
448,192,55981,1,0,0:0:0:0:
192,192,56062,1,0,0:0:0:0:
448,192,56143,1,0,0:0:0:0:
320,192,56224,1,0,0:0:0:0:
64,192,56224,1,0,0:0:0:0:
192,192,56292,1,0,0:0:0:0:
320,192,56359,1,0,0:0:0:0:
64,192,56427,1,0,0:0:0:0:
448,192,56494,1,0,0:0:0:0:
320,192,56562,1,0,0:0:0:0:
192,192,56629,1,0,0:0:0:0:
64,192,56629,1,0,0:0:0:0:
448,192,56711,1,0,0:0:0:0:
64,192,56792,1,0,0:0:0:0:
448,192,56873,1,0,0:0:0:0:
64,192,56954,1,0,0:0:0:0:
192,192,57035,1,0,0:0:0:0:
448,192,57035,1,0,0:0:0:0:
320,192,57116,1,0,0:0:0:0:
192,192,57197,1,0,0:0:0:0:
320,192,57278,1,0,0:0:0:0:
64,192,57359,1,0,0:0:0:0:
192,192,57440,1,0,0:0:0:0:
448,192,57440,1,0,0:0:0:0:
320,192,57498,1,0,0:0:0:0:
64,192,57556,1,0,0:0:0:0:
448,192,57614,1,0,0:0:0:0:
192,192,57672,1,0,0:0:0:0:
320,192,57730,1,0,0:0:0:0:
448,192,57788,1,0,0:0:0:0:
64,192,57846,1,0,0:0:0:0:
192,192,57913,1,0,0:0:0:0:
320,192,57981,1,0,0:0:0:0:
64,192,58048,1,0,0:0:0:0:
448,192,58116,1,0,0:0:0:0:
192,192,58161,1,0,0:0:0:0:
320,192,58206,1,0,0:0:0:0:
448,192,58251,1,0,0:0:0:0:
64,192,58251,1,0,0:0:0:0:
192,192,58296,1,0,0:0:0:0:
192,192,58656,1,0,0:0:0:0:
320,192,58656,1,0,0:0:0:0:
64,192,58724,1,0,0:0:0:0:
448,192,58792,1,0,0:0:0:0:
192,192,58859,1,0,0:0:0:0:
448,192,58927,1,0,0:0:0:0:
320,192,58994,1,0,0:0:0:0:
192,192,59062,1,0,0:0:0:0:
448,192,59143,1,0,0:0:0:0:
64,192,59224,1,0,0:0:0:0:
320,192,59305,1,0,0:0:0:0:
64,192,59386,1,0,0:0:0:0:
192,192,59467,1,0,0:0:0:0:
448,192,59467,1,0,0:0:0:0:
320,192,59569,1,0,0:0:0:0:
192,192,59670,1,0,0:0:0:0:
448,192,59771,1,0,0:0:0:0:
64,192,59873,1,0,0:0:0:0:
320,192,59873,1,0,0:0:0:0:
192,192,59974,1,0,0:0:0:0:
64,192,60075,1,0,0:0:0:0:
448,192,60177,1,0,0:0:0:0:
192,192,60278,1,0,0:0:0:0:
320,192,60278,1,0,0:0:0:0:
64,192,60346,1,0,0:0:0:0:
320,192,60413,1,0,0:0:0:0:
192,192,60481,1,0,0:0:0:0:
64,192,60481,1,0,0:0:0:0:
448,192,60548,1,0,0:0:0:0:
192,192,60616,1,0,0:0:0:0:
320,192,60683,1,0,0:0:0:0:
448,192,60683,1,0,0:0:0:0:
64,192,60751,1,0,0:0:0:0:
320,192,60819,1,0,0:0:0:0:
64,192,60886,1,0,0:0:0:0:
448,192,60886,1,0,0:0:0:0:
192,192,60954,1,0,0:0:0:0:
320,192,61021,1,0,0:0:0:0:
64,192,61089,1,0,0:0:0:0:
192,192,61089,1,0,0:0:0:0:
448,192,61190,1,0,0:0:0:0:
192,192,61292,1,0,0:0:0:0:
448,192,61393,1,0,0:0:0:0:
320,192,61494,1,0,0:0:0:0:
64,192,61494,1,0,0:0:0:0:
448,192,61596,1,0,0:0:0:0:
192,192,61697,1,0,0:0:0:0:
320,192,61798,1,0,0:0:0:0:
448,192,61900,1,0,0:0:0:0:
64,192,61900,1,0,0:0:0:0:
192,192,62001,1,0,0:0:0:0:
64,192,62102,1,0,0:0:0:0:
448,192,62204,1,0,0:0:0:0:
192,192,62305,1,0,0:0:0:0:
320,192,62305,1,0,0:0:0:0:
64,192,62406,1,0,0:0:0:0:
320,192,62508,1,0,0:0:0:0:
64,192,62609,1,0,0:0:0:0:
448,192,62711,1,0,0:0:0:0:
192,192,62711,1,0,0:0:0:0:
64,192,62778,1,0,0:0:0:0:
320,192,62846,1,0,0:0:0:0:
192,192,62913,1,0,0:0:0:0:
448,192,62981,1,0,0:0:0:0:
64,192,63026,1,0,0:0:0:0:
192,192,63071,5,0,0:0:0:0:
320,192,63116,1,0,0:0:0:0:
448,192,63116,1,0,0:0:0:0:
64,192,63183,1,0,0:0:0:0:
192,192,63251,1,0,0:0:0:0:
320,192,63319,1,0,0:0:0:0:
64,192,63386,1,0,0:0:0:0:
448,192,63454,1,0,0:0:0:0:
320,192,63521,1,0,0:0:0:0:
192,192,63521,1,0,0:0:0:0:
64,192,63579,1,0,0:0:0:0:
448,192,63637,1,0,0:0:0:0:
320,192,63695,1,0,0:0:0:0:
192,192,63753,1,0,0:0:0:0:
64,192,63811,1,0,0:0:0:0:
192,192,63869,1,0,0:0:0:0:
448,192,63927,5,0,0:0:0:0:
320,192,63927,1,0,0:0:0:0:
64,192,63994,1,0,0:0:0:0:
448,192,64062,1,0,0:0:0:0:
192,192,64129,1,0,0:0:0:0:
320,192,64197,1,0,0:0:0:0:
64,192,64242,1,0,0:0:0:0:
192,192,64287,1,0,0:0:0:0:
320,192,64332,1,0,0:0:0:0:
448,192,64332,1,0,0:0:0:0:
64,192,64400,1,0,0:0:0:0:
192,192,64467,1,0,0:0:0:0:
320,192,64535,1,0,0:0:0:0:
448,192,64602,1,0,0:0:0:0:
64,192,64670,1,0,0:0:0:0:
320,192,64738,1,0,0:0:0:0:
192,192,64738,1,0,0:0:0:0:
448,192,64795,1,0,0:0:0:0:
64,192,64853,1,0,0:0:0:0:
320,192,64911,1,0,0:0:0:0:
192,192,64969,1,0,0:0:0:0:
64,192,65027,1,0,0:0:0:0:
448,192,65085,1,0,0:0:0:0:
192,192,65143,1,0,0:0:0:0:
320,192,65201,1,0,0:0:0:0:
448,192,65259,1,0,0:0:0:0:
64,192,65317,1,0,0:0:0:0:
320,192,65375,5,0,0:0:0:0:
192,192,65433,1,0,0:0:0:0:
64,192,65490,1,0,0:0:0:0:
448,192,65548,1,0,0:0:0:0:
320,192,65548,1,0,0:0:0:0:
192,192,65599,1,0,0:0:0:0:
192,192,66224,5,0,0:0:0:0:
320,192,66292,1,0,0:0:0:0:
192,192,66359,1,0,0:0:0:0:
448,192,66359,1,0,0:0:0:0:
64,192,66427,1,0,0:0:0:0:
320,192,66494,1,0,0:0:0:0:
448,192,66562,1,0,0:0:0:0:
64,192,66562,1,0,0:0:0:0:
192,192,66629,1,0,0:0:0:0:
448,192,66697,1,0,0:0:0:0:
64,192,66765,1,0,0:0:0:0:
320,192,66765,1,0,0:0:0:0:
448,192,66832,1,0,0:0:0:0:
192,192,66900,1,0,0:0:0:0:
64,192,66967,1,0,0:0:0:0:
448,192,66967,1,0,0:0:0:0:
320,192,67018,1,0,0:0:0:0:
192,192,67069,1,0,0:0:0:0:
64,192,67119,1,0,0:0:0:0:
320,192,67170,1,0,0:0:0:0:
448,192,67170,1,0,0:0:0:0:
192,192,67238,1,0,0:0:0:0:
320,192,67305,1,0,0:0:0:0:
64,192,67373,1,0,0:0:0:0:
192,192,67440,1,0,0:0:0:0:
448,192,67508,1,0,0:0:0:0:
64,192,67575,1,0,0:0:0:0:
320,192,67643,1,0,0:0:0:0:
192,192,67711,1,0,0:0:0:0:
320,192,67778,1,0,0:0:0:0:
448,192,67846,1,0,0:0:0:0:
192,192,67913,1,0,0:0:0:0:
320,192,67981,1,0,0:0:0:0:
448,192,67981,1,0,0:0:0:0:
64,192,68048,1,0,0:0:0:0:
192,192,68116,1,0,0:0:0:0:
320,192,68183,1,0,0:0:0:0:
192,192,68251,1,0,0:0:0:0:
448,192,68319,1,0,0:0:0:0:
64,192,68386,1,0,0:0:0:0:
320,192,68386,1,0,0:0:0:0:
192,192,68454,1,0,0:0:0:0:
448,192,68521,1,0,0:0:0:0:
192,192,68589,1,0,0:0:0:0:
64,192,68589,1,0,0:0:0:0:
320,192,68656,1,0,0:0:0:0:
64,192,68724,1,0,0:0:0:0:
320,192,68792,1,0,0:0:0:0:
448,192,68792,1,0,0:0:0:0:
192,192,68850,1,0,0:0:0:0:
64,192,68907,1,0,0:0:0:0:
448,192,68965,1,0,0:0:0:0:
192,192,69023,1,0,0:0:0:0:
320,192,69081,1,0,0:0:0:0:
448,192,69139,1,0,0:0:0:0:
64,192,69197,1,0,0:0:0:0:
320,192,69265,1,0,0:0:0:0:
192,192,69332,1,0,0:0:0:0:
320,192,69400,1,0,0:0:0:0:
448,192,69467,1,0,0:0:0:0:
64,192,69535,1,0,0:0:0:0:
192,192,69602,1,0,0:0:0:0:
448,192,69602,1,0,0:0:0:0:
320,192,69660,1,0,0:0:0:0:
64,192,69718,1,0,0:0:0:0:
320,192,69776,1,0,0:0:0:0:
192,192,69834,1,0,0:0:0:0:
64,192,69892,1,0,0:0:0:0:
320,192,69950,1,0,0:0:0:0:
448,192,70008,1,0,0:0:0:0:
192,192,70008,1,0,0:0:0:0:
64,192,70066,1,0,0:0:0:0:
448,192,70124,1,0,0:0:0:0:
192,192,70182,1,0,0:0:0:0:
320,192,70239,1,0,0:0:0:0:
448,192,70297,1,0,0:0:0:0:
64,192,70355,1,0,0:0:0:0:
192,192,70413,1,0,0:0:0:0:
320,192,70413,1,0,0:0:0:0:
448,192,70481,1,0,0:0:0:0:
192,192,70548,1,0,0:0:0:0:
320,192,70616,1,0,0:0:0:0:
64,192,70616,1,0,0:0:0:0:
448,192,70683,1,0,0:0:0:0:
192,192,70751,1,0,0:0:0:0:
64,192,70819,1,0,0:0:0:0:
448,192,70819,1,0,0:0:0:0:
320,192,70886,1,0,0:0:0:0:
192,192,70954,1,0,0:0:0:0:
320,192,71021,1,0,0:0:0:0:
64,192,71089,1,0,0:0:0:0:
192,192,71156,1,0,0:0:0:0:
320,192,71224,1,0,0:0:0:0:
448,192,71224,1,0,0:0:0:0:
64,192,71292,1,0,0:0:0:0:
448,192,71359,1,0,0:0:0:0:
192,192,71427,1,0,0:0:0:0:
320,192,71494,1,0,0:0:0:0:
64,192,71562,1,0,0:0:0:0:
192,192,71629,1,0,0:0:0:0:
448,192,71629,1,0,0:0:0:0:
320,192,71731,1,0,0:0:0:0:
448,192,71832,1,0,0:0:0:0:
64,192,71832,1,0,0:0:0:0:
192,192,71933,1,0,0:0:0:0:
320,192,72035,1,0,0:0:0:0:
64,192,72035,1,0,0:0:0:0:
448,192,72102,1,0,0:0:0:0:
192,192,72170,1,0,0:0:0:0:
320,192,72238,1,0,0:0:0:0:
448,192,72305,1,0,0:0:0:0:
64,192,72373,1,0,0:0:0:0:
320,192,72440,1,0,0:0:0:0:
192,192,72508,1,0,0:0:0:0:
64,192,72575,1,0,0:0:0:0:
448,192,72643,1,0,0:0:0:0:
320,192,72711,1,0,0:0:0:0:
64,192,72778,1,0,0:0:0:0:
192,192,72846,1,0,0:0:0:0:
448,192,72846,1,0,0:0:0:0:
320,192,72913,1,0,0:0:0:0:
64,192,72981,1,0,0:0:0:0:
448,192,73048,1,0,0:0:0:0:
320,192,73048,1,0,0:0:0:0:
192,192,73116,1,0,0:0:0:0:
448,192,73183,1,0,0:0:0:0:
320,192,73251,1,0,0:0:0:0:
64,192,73251,1,0,0:0:0:0:
192,192,73319,1,0,0:0:0:0:
448,192,73386,1,0,0:0:0:0:
192,192,73454,1,0,0:0:0:0:
64,192,73454,1,0,0:0:0:0:
320,192,73521,1,0,0:0:0:0:
448,192,73589,1,0,0:0:0:0:
192,192,73656,1,0,0:0:0:0:
320,192,73656,1,0,0:0:0:0:
64,192,73738,1,0,0:0:0:0:
320,192,73819,1,0,0:0:0:0:
192,192,73900,1,0,0:0:0:0:
64,192,73981,1,0,0:0:0:0:
448,192,74062,1,0,0:0:0:0:
320,192,74129,1,0,0:0:0:0:
192,192,74197,1,0,0:0:0:0:
448,192,74265,1,0,0:0:0:0:
64,192,74332,1,0,0:0:0:0:
192,192,74400,1,0,0:0:0:0:
320,192,74467,1,0,0:0:0:0:
448,192,74467,1,0,0:0:0:0:
64,192,74535,1,0,0:0:0:0:
320,192,74602,1,0,0:0:0:0:
192,192,74670,1,0,0:0:0:0:
64,192,74738,1,0,0:0:0:0:
448,192,74805,1,0,0:0:0:0:
192,192,74873,1,0,0:0:0:0:
320,192,74873,1,0,0:0:0:0:
64,192,74940,1,0,0:0:0:0:
448,192,75008,1,0,0:0:0:0:
192,192,75075,1,0,0:0:0:0:
64,192,75075,1,0,0:0:0:0:
320,192,75143,1,0,0:0:0:0:
192,192,75211,1,0,0:0:0:0:
320,192,75278,1,0,0:0:0:0:
448,192,75278,1,0,0:0:0:0:
64,192,75336,1,0,0:0:0:0:
192,192,75394,1,0,0:0:0:0:
320,192,75452,1,0,0:0:0:0:
448,192,75521,1,0,0:0:0:0:
64,192,75602,1,0,0:0:0:0:
192,192,75683,1,0,0:0:0:0:
448,192,75751,1,0,0:0:0:0:
320,192,75819,1,0,0:0:0:0:
192,192,75886,1,0,0:0:0:0:
448,192,75954,1,0,0:0:0:0:
320,192,76021,1,0,0:0:0:0:
192,192,76089,1,0,0:0:0:0:
64,192,76089,1,0,0:0:0:0:
448,192,76147,1,0,0:0:0:0:
64,192,76205,1,0,0:0:0:0:
320,192,76263,1,0,0:0:0:0:
192,192,76332,1,0,0:0:0:0:
64,192,76413,1,0,0:0:0:0:
448,192,76494,1,0,0:0:0:0:
320,192,76494,1,0,0:0:0:0:
192,192,76562,1,0,0:0:0:0:
320,192,76629,1,0,0:0:0:0:
64,192,76697,1,0,0:0:0:0:
192,192,76765,1,0,0:0:0:0:
320,192,76832,1,0,0:0:0:0:
448,192,76900,1,0,0:0:0:0:
64,192,76900,1,0,0:0:0:0:
192,192,76967,1,0,0:0:0:0:
448,192,77035,1,0,0:0:0:0:
64,192,77102,1,0,0:0:0:0:
192,192,77102,1,0,0:0:0:0:
320,192,77170,1,0,0:0:0:0:
64,192,77238,1,0,0:0:0:0:
192,192,77305,1,0,0:0:0:0:
320,192,77373,1,0,0:0:0:0:
448,192,77373,1,0,0:0:0:0:
64,192,77440,1,0,0:0:0:0:
320,192,77508,1,0,0:0:0:0:
192,192,77575,1,0,0:0:0:0:
64,192,77643,1,0,0:0:0:0:
320,192,77711,1,0,0:0:0:0:
448,192,77711,1,0,0:0:0:0:
192,192,77792,1,0,0:0:0:0:
320,192,77873,1,0,0:0:0:0:
192,192,77954,1,0,0:0:0:0:
320,192,78035,1,0,0:0:0:0:
448,192,78116,1,0,0:0:0:0:
64,192,78116,1,0,0:0:0:0:
192,192,78217,1,0,0:0:0:0:
320,192,78319,1,0,0:0:0:0:
448,192,78319,1,0,0:0:0:0:
192,192,78420,1,0,0:0:0:0:
64,192,78521,1,0,0:0:0:0:
448,192,78521,1,0,0:0:0:0:
320,192,78589,1,0,0:0:0:0:
192,192,78656,1,0,0:0:0:0:
448,192,78724,1,0,0:0:0:0:
320,192,78792,1,0,0:0:0:0:
192,192,78859,1,0,0:0:0:0:
64,192,78927,1,0,0:0:0:0:
320,192,78985,1,0,0:0:0:0:
192,192,79043,1,0,0:0:0:0:
64,192,79100,1,0,0:0:0:0:
448,192,79170,1,0,0:0:0:0:
320,192,79251,1,0,0:0:0:0:
192,192,79332,1,0,0:0:0:0:
448,192,79332,1,0,0:0:0:0:
64,192,79400,1,0,0:0:0:0:
320,192,79467,1,0,0:0:0:0:
192,192,79535,1,0,0:0:0:0:
64,192,79535,1,0,0:0:0:0:
448,192,79602,1,0,0:0:0:0:
192,192,79670,1,0,0:0:0:0:
320,192,79738,1,0,0:0:0:0:
64,192,79738,1,0,0:0:0:0:
448,192,79805,1,0,0:0:0:0:
192,192,79873,1,0,0:0:0:0:
320,192,79940,1,0,0:0:0:0:
448,192,79940,1,0,0:0:0:0:
64,192,79991,1,0,0:0:0:0:
192,192,80042,1,0,0:0:0:0:
320,192,80092,1,0,0:0:0:0:
448,192,80143,1,0,0:0:0:0:
64,192,80143,1,0,0:0:0:0:
192,192,80201,1,0,0:0:0:0:
320,192,80259,1,0,0:0:0:0:
64,192,80317,1,0,0:0:0:0:
448,192,80375,1,0,0:0:0:0:
192,192,80433,1,0,0:0:0:0:
320,192,80490,1,0,0:0:0:0:
448,192,80548,1,0,0:0:0:0:
64,192,80629,1,0,0:0:0:0:
320,192,80711,1,0,0:0:0:0:
64,192,80792,1,0,0:0:0:0:
448,192,80873,1,0,0:0:0:0:
320,192,80954,1,0,0:0:0:0:
192,192,80954,1,0,0:0:0:0:
64,192,81035,1,0,0:0:0:0:
320,192,81116,1,0,0:0:0:0:
192,192,81197,1,0,0:0:0:0:
320,192,81278,1,0,0:0:0:0:
448,192,81359,1,0,0:0:0:0:
64,192,81417,1,0,0:0:0:0:
320,192,81475,1,0,0:0:0:0:
192,192,81533,1,0,0:0:0:0:
64,192,81591,1,0,0:0:0:0:
320,192,81649,1,0,0:0:0:0:
448,192,81707,1,0,0:0:0:0:
192,192,81765,1,0,0:0:0:0:
64,192,81765,1,0,0:0:0:0:
320,192,81832,1,0,0:0:0:0:
64,192,81900,1,0,0:0:0:0:
448,192,81967,1,0,0:0:0:0:
192,192,82035,1,0,0:0:0:0:
448,192,82102,1,0,0:0:0:0:
64,192,82170,1,0,0:0:0:0:
320,192,82170,1,0,0:0:0:0:
192,192,82251,1,0,0:0:0:0:
320,192,82332,1,0,0:0:0:0:
192,192,82413,1,0,0:0:0:0:
448,192,82494,1,0,0:0:0:0:
320,192,82575,1,0,0:0:0:0:
64,192,82575,1,0,0:0:0:0:
192,192,82643,1,0,0:0:0:0:
320,192,82711,1,0,0:0:0:0:
64,192,82819,1,0,0:0:0:0:
448,192,82900,1,0,0:0:0:0:
320,192,82981,1,0,0:0:0:0:
192,192,83062,1,0,0:0:0:0:
448,192,83143,1,0,0:0:0:0:
64,192,83224,1,0,0:0:0:0:
320,192,83305,1,0,0:0:0:0:
448,192,83386,1,0,0:0:0:0:
64,192,83386,1,0,0:0:0:0:
192,192,83454,1,0,0:0:0:0:
320,192,83521,1,0,0:0:0:0:
192,192,83589,1,0,0:0:0:0:
320,192,83656,1,0,0:0:0:0:
448,192,83724,1,0,0:0:0:0:
64,192,83792,1,0,0:0:0:0:
192,192,83792,1,0,0:0:0:0:
320,192,83850,1,0,0:0:0:0:
64,192,83907,1,0,0:0:0:0:
192,192,83965,1,0,0:0:0:0:
320,192,84023,1,0,0:0:0:0:
448,192,84081,1,0,0:0:0:0:
64,192,84139,1,0,0:0:0:0:
192,192,84197,1,0,0:0:0:0:
320,192,84265,1,0,0:0:0:0:
448,192,84332,1,0,0:0:0:0:
320,192,84400,1,0,0:0:0:0:
192,192,84467,1,0,0:0:0:0:
64,192,84535,1,0,0:0:0:0:
320,192,84602,1,0,0:0:0:0:
448,192,84602,1,0,0:0:0:0:
192,192,84660,1,0,0:0:0:0:
448,192,84718,1,0,0:0:0:0:
64,192,84776,1,0,0:0:0:0:
192,192,84834,1,0,0:0:0:0:
320,192,84892,1,0,0:0:0:0:
448,192,84950,1,0,0:0:0:0:
64,192,85008,1,0,0:0:0:0:
320,192,85075,1,0,0:0:0:0:
192,192,85143,1,0,0:0:0:0:
448,192,85211,1,0,0:0:0:0:
64,192,85278,1,0,0:0:0:0:
320,192,85346,1,0,0:0:0:0:
192,192,85413,1,0,0:0:0:0:
64,192,85413,1,0,0:0:0:0:
448,192,85515,1,0,0:0:0:0:
320,192,85616,1,0,0:0:0:0:
192,192,85616,1,0,0:0:0:0:
64,192,85717,1,0,0:0:0:0:
320,192,85819,1,0,0:0:0:0:
448,192,85819,1,0,0:0:0:0:
192,192,85886,1,0,0:0:0:0:
320,192,85954,1,0,0:0:0:0:
64,192,86021,1,0,0:0:0:0:
192,192,86123,1,0,0:0:0:0:
320,192,86224,1,0,0:0:0:0:
448,192,86224,1,0,0:0:0:0:
64,192,86292,1,0,0:0:0:0:
448,192,86359,1,0,0:0:0:0:
192,192,86427,1,0,0:0:0:0:
64,192,86427,1,0,0:0:0:0:
448,192,86494,1,0,0:0:0:0:
64,192,86562,1,0,0:0:0:0:
320,192,86629,1,0,0:0:0:0:
192,192,86629,1,0,0:0:0:0:
448,192,86697,1,0,0:0:0:0:
192,192,86765,1,0,0:0:0:0:
320,192,86832,1,0,0:0:0:0:
448,192,86832,1,0,0:0:0:0:
64,192,86900,1,0,0:0:0:0:
320,192,86967,1,0,0:0:0:0:
64,192,87035,1,0,0:0:0:0:
448,192,87093,1,0,0:0:0:0:
192,192,87151,1,0,0:0:0:0:
320,192,87238,1,0,0:0:0:0:
192,192,87305,1,0,0:0:0:0:
448,192,87305,1,0,0:0:0:0:
64,192,87373,1,0,0:0:0:0:
448,192,87440,1,0,0:0:0:0:
192,192,87440,1,0,0:0:0:0:
320,192,87521,1,0,0:0:0:0:
64,192,87602,1,0,0:0:0:0:
192,192,87683,1,0,0:0:0:0:
320,192,87765,1,0,0:0:0:0:
448,192,87846,1,0,0:0:0:0:
64,192,87927,1,0,0:0:0:0:
192,192,88008,1,0,0:0:0:0:
320,192,88116,1,0,0:0:0:0:
64,192,88116,1,0,0:0:0:0:
448,192,88183,1,0,0:0:0:0:
320,192,88251,1,0,0:0:0:0:
64,192,88251,1,0,0:0:0:0:
192,192,88332,1,0,0:0:0:0:
320,192,88413,1,0,0:0:0:0:
64,192,88494,1,0,0:0:0:0:
448,192,88575,1,0,0:0:0:0:
192,192,88656,1,0,0:0:0:0:
320,192,88656,1,0,0:0:0:0:
64,192,88724,1,0,0:0:0:0:
448,192,88792,1,0,0:0:0:0:
192,192,88859,1,0,0:0:0:0:
320,192,88927,1,0,0:0:0:0:
448,192,88994,1,0,0:0:0:0:
192,192,89062,1,0,0:0:0:0:
64,192,89062,1,0,0:0:0:0:
320,192,89120,1,0,0:0:0:0:
448,192,89178,1,0,0:0:0:0:
64,192,89236,1,0,0:0:0:0:
320,192,89294,1,0,0:0:0:0:
192,192,89351,1,0,0:0:0:0:
64,192,89409,1,0,0:0:0:0:
320,192,89467,1,0,0:0:0:0:
448,192,89467,1,0,0:0:0:0:
192,192,89535,1,0,0:0:0:0:
448,192,89602,1,0,0:0:0:0:
192,192,89670,1,0,0:0:0:0:
64,192,89670,1,0,0:0:0:0:
320,192,89738,1,0,0:0:0:0:
64,192,89805,1,0,0:0:0:0:
448,192,89873,1,0,0:0:0:0:
192,192,89873,1,0,0:0:0:0:
320,192,89940,1,0,0:0:0:0:
192,192,90008,1,0,0:0:0:0:
320,192,90075,1,0,0:0:0:0:
64,192,90075,1,0,0:0:0:0:
448,192,90143,1,0,0:0:0:0:
64,192,90211,1,0,0:0:0:0:
448,192,90278,1,0,0:0:0:0:
192,192,90336,1,0,0:0:0:0:
320,192,90394,1,0,0:0:0:0:
64,192,90481,1,0,0:0:0:0:
320,192,90548,1,0,0:0:0:0:
192,192,90548,1,0,0:0:0:0:
448,192,90616,1,0,0:0:0:0:
192,192,90683,1,0,0:0:0:0:
320,192,90683,1,0,0:0:0:0:
64,192,90765,1,0,0:0:0:0:
192,192,90846,1,0,0:0:0:0:
448,192,90927,1,0,0:0:0:0:
320,192,91008,1,0,0:0:0:0:
64,192,91089,1,0,0:0:0:0:
192,192,91170,1,0,0:0:0:0:
320,192,91251,1,0,0:0:0:0:
64,192,91359,1,0,0:0:0:0:
448,192,91359,1,0,0:0:0:0:
192,192,91427,1,0,0:0:0:0:
64,192,91494,1,0,0:0:0:0:
448,192,91494,1,0,0:0:0:0:
320,192,91575,1,0,0:0:0:0:
64,192,91656,1,0,0:0:0:0:
192,192,91738,1,0,0:0:0:0:
320,192,91819,1,0,0:0:0:0:
64,192,91900,1,0,0:0:0:0:
448,192,91981,1,0,0:0:0:0:
192,192,92062,1,0,0:0:0:0:
320,192,92143,1,0,0:0:0:0:
448,192,92224,5,0,0:0:0:0:
64,192,92305,1,0,0:0:0:0:
192,192,92305,1,0,0:0:0:0:
320,192,92406,1,0,0:0:0:0:
448,192,92508,1,0,0:0:0:0:
64,192,92508,1,0,0:0:0:0:
192,192,92609,1,0,0:0:0:0:
320,192,92711,1,0,0:0:0:0:
448,192,92711,1,0,0:0:0:0:
64,192,92812,1,0,0:0:0:0:
192,192,92913,1,0,0:0:0:0:
320,192,92913,1,0,0:0:0:0:
64,192,92981,1,0,0:0:0:0:
448,192,93048,1,0,0:0:0:0:
192,192,93116,5,0,0:0:0:0:
320,192,93167,1,0,0:0:0:0:
64,192,93217,1,0,0:0:0:0:
320,192,93521,1,0,0:0:0:0:
448,192,93521,1,0,0:0:0:0:
320,192,93927,1,0,0:0:0:0:
448,192,93927,1,0,0:0:0:0:
192,192,94028,1,0,0:0:0:0:
320,192,94129,1,0,0:0:0:0:
64,192,94129,1,0,0:0:0:0:
448,192,94231,1,0,0:0:0:0:
320,192,94332,1,0,0:0:0:0:
192,192,94332,1,0,0:0:0:0:
64,192,94433,1,0,0:0:0:0:
192,192,94535,1,0,0:0:0:0:
448,192,94535,1,0,0:0:0:0:
320,192,94602,1,0,0:0:0:0:
64,192,94670,1,0,0:0:0:0:
320,192,94738,1,0,0:0:0:0:
448,192,94738,1,0,0:0:0:0:
192,192,94805,1,0,0:0:0:0:
320,192,94873,1,0,0:0:0:0:
64,192,94940,1,0,0:0:0:0:
448,192,95008,1,0,0:0:0:0:
192,192,95075,5,0,0:0:0:0:
64,192,95143,1,0,0:0:0:0:
320,192,95143,1,0,0:0:0:0:
448,192,95224,1,0,0:0:0:0:
64,192,95305,1,0,0:0:0:0:
192,192,95386,1,0,0:0:0:0:
320,192,95467,1,0,0:0:0:0:
448,192,95548,1,0,0:0:0:0:
64,192,95548,1,0,0:0:0:0:
192,192,95650,1,0,0:0:0:0:
320,192,95751,1,0,0:0:0:0:
448,192,95751,1,0,0:0:0:0:
192,192,95852,1,0,0:0:0:0:
64,192,95954,5,0,0:0:0:0:
320,192,96004,1,0,0:0:0:0:
192,192,96055,1,0,0:0:0:0:
448,192,96156,1,0,0:0:0:0:
64,192,96207,1,0,0:0:0:0:
192,192,96292,1,0,0:0:0:0:
320,192,96359,1,0,0:0:0:0:
448,192,96359,1,0,0:0:0:0:
64,192,96440,1,0,0:0:0:0:
448,192,96521,1,0,0:0:0:0:
192,192,96602,1,0,0:0:0:0:
320,192,96683,1,0,0:0:0:0:
64,192,96765,1,0,0:0:0:0:
320,192,96832,1,0,0:0:0:0:
192,192,96900,1,0,0:0:0:0:
64,192,96967,1,0,0:0:0:0:
448,192,97035,1,0,0:0:0:0:
192,192,97102,1,0,0:0:0:0:
320,192,97170,1,0,0:0:0:0:
448,192,97170,1,0,0:0:0:0:
64,192,97238,1,0,0:0:0:0:
320,192,97305,1,0,0:0:0:0:
192,192,97373,1,0,0:0:0:0:
64,192,97440,1,0,0:0:0:0:
448,192,97508,1,0,0:0:0:0:
192,192,97575,1,0,0:0:0:0:
320,192,97643,1,0,0:0:0:0:
448,192,97711,1,0,0:0:0:0:
64,192,97778,1,0,0:0:0:0:
192,192,97778,1,0,0:0:0:0:
320,192,97879,1,0,0:0:0:0:
192,192,97981,1,0,0:0:0:0:
64,192,97981,1,0,0:0:0:0:
448,192,98048,1,0,0:0:0:0:
320,192,98116,1,0,0:0:0:0:
192,192,98183,1,0,0:0:0:0:
448,192,98251,1,0,0:0:0:0:
192,192,98319,1,0,0:0:0:0:
320,192,98386,1,0,0:0:0:0:
64,192,98386,1,0,0:0:0:0:
448,192,98454,1,0,0:0:0:0:
64,192,98521,1,0,0:0:0:0:
192,192,98589,1,0,0:0:0:0:
320,192,98589,1,0,0:0:0:0:
448,192,98656,1,0,0:0:0:0:
320,192,98724,1,0,0:0:0:0:
192,192,98792,1,0,0:0:0:0:
64,192,98792,1,0,0:0:0:0:
320,192,98893,1,0,0:0:0:0:
64,192,98994,1,0,0:0:0:0:
448,192,98994,1,0,0:0:0:0:
192,192,99062,1,0,0:0:0:0:
320,192,99129,1,0,0:0:0:0:
64,192,99197,1,0,0:0:0:0:
448,192,99197,1,0,0:0:0:0:
192,192,99298,1,0,0:0:0:0:
448,192,99400,1,0,0:0:0:0:
320,192,99400,1,0,0:0:0:0:
64,192,99467,1,0,0:0:0:0:
448,192,99535,1,0,0:0:0:0:
192,192,99602,1,0,0:0:0:0:
64,192,99602,1,0,0:0:0:0:
320,192,99670,1,0,0:0:0:0:
448,192,99738,1,0,0:0:0:0:
192,192,99805,1,0,0:0:0:0:
320,192,99805,1,0,0:0:0:0:
64,192,99873,1,0,0:0:0:0:
192,192,99940,1,0,0:0:0:0:
448,192,100008,1,0,0:0:0:0:
320,192,100008,1,0,0:0:0:0:
64,192,100075,1,0,0:0:0:0:
192,192,100143,1,0,0:0:0:0:
320,192,100211,1,0,0:0:0:0:
64,192,100278,1,0,0:0:0:0:
448,192,100346,1,0,0:0:0:0:
320,192,100413,1,0,0:0:0:0:
192,192,100413,1,0,0:0:0:0:
64,192,100494,1,0,0:0:0:0:
320,192,100575,1,0,0:0:0:0:
192,192,100656,1,0,0:0:0:0:
320,192,100738,1,0,0:0:0:0:
448,192,100819,1,0,0:0:0:0:
64,192,100819,1,0,0:0:0:0:
192,192,100920,1,0,0:0:0:0:
320,192,101021,1,0,0:0:0:0:
448,192,101021,1,0,0:0:0:0:
64,192,101089,1,0,0:0:0:0:
192,192,101156,1,0,0:0:0:0:
320,192,101224,1,0,0:0:0:0:
448,192,101275,1,0,0:0:0:0:
64,192,101325,1,0,0:0:0:0:
192,192,101427,1,0,0:0:0:0:
320,192,101494,1,0,0:0:0:0:
64,192,101562,1,0,0:0:0:0:
448,192,101629,1,0,0:0:0:0:
192,192,101680,1,0,0:0:0:0:
320,192,101731,1,0,0:0:0:0:
64,192,101832,1,0,0:0:0:0:
448,192,101900,1,0,0:0:0:0:
320,192,101967,1,0,0:0:0:0:
192,192,102035,1,0,0:0:0:0:
64,192,102035,1,0,0:0:0:0:
448,192,102102,1,0,0:0:0:0:
64,192,102170,1,0,0:0:0:0:
192,192,102238,1,0,0:0:0:0:
320,192,102238,1,0,0:0:0:0:
448,192,102305,1,0,0:0:0:0:
192,192,102373,1,0,0:0:0:0:
64,192,102440,1,0,0:0:0:0:
320,192,102440,1,0,0:0:0:0:
448,192,102508,1,0,0:0:0:0:
64,192,102575,1,0,0:0:0:0:
320,192,102643,1,0,0:0:0:0:
192,192,102643,1,0,0:0:0:0:
448,192,102711,1,0,0:0:0:0:
64,192,102778,1,0,0:0:0:0:
192,192,102846,1,0,0:0:0:0:
448,192,102846,1,0,0:0:0:0:
320,192,102904,1,0,0:0:0:0:
64,192,102961,1,0,0:0:0:0:
448,192,103019,1,0,0:0:0:0:
192,192,103077,1,0,0:0:0:0:
64,192,103135,1,0,0:0:0:0:
320,192,103193,1,0,0:0:0:0:
192,192,103251,1,0,0:0:0:0:
448,192,103319,1,0,0:0:0:0:
320,192,103386,1,0,0:0:0:0:
192,192,103454,1,0,0:0:0:0:
448,192,103521,1,0,0:0:0:0:
64,192,103589,1,0,0:0:0:0:
192,192,103656,1,0,0:0:0:0:
320,192,103656,1,0,0:0:0:0:
64,192,103724,1,0,0:0:0:0:
448,192,103792,1,0,0:0:0:0:
192,192,103859,1,0,0:0:0:0:
320,192,103927,1,0,0:0:0:0:
448,192,103994,1,0,0:0:0:0:
192,192,104062,1,0,0:0:0:0:
64,192,104062,1,0,0:0:0:0:
320,192,104129,1,0,0:0:0:0:
64,192,104197,1,0,0:0:0:0:
192,192,104265,1,0,0:0:0:0:
448,192,104265,1,0,0:0:0:0:
320,192,104366,1,0,0:0:0:0:
448,192,104467,1,0,0:0:0:0:
64,192,104467,1,0,0:0:0:0:
192,192,104569,1,0,0:0:0:0:
320,192,104670,1,0,0:0:0:0:
448,192,104738,1,0,0:0:0:0:
192,192,104805,1,0,0:0:0:0:
448,192,104873,1,0,0:0:0:0:
64,192,104873,1,0,0:0:0:0:
320,192,104940,1,0,0:0:0:0:
192,192,105008,1,0,0:0:0:0:
64,192,105075,1,0,0:0:0:0:
320,192,105177,1,0,0:0:0:0:
448,192,105278,1,0,0:0:0:0:
192,192,105278,1,0,0:0:0:0:
64,192,105336,1,0,0:0:0:0:
320,192,105394,1,0,0:0:0:0:
192,192,105452,1,0,0:0:0:0:
64,192,105510,1,0,0:0:0:0:
320,192,105568,1,0,0:0:0:0:
192,192,105626,1,0,0:0:0:0:
64,192,105683,1,0,0:0:0:0:
448,192,105683,1,0,0:0:0:0:
320,192,105751,1,0,0:0:0:0:
192,192,105819,1,0,0:0:0:0:
448,192,105886,1,0,0:0:0:0:
64,192,105886,1,0,0:0:0:0:
320,192,105988,1,0,0:0:0:0:
192,192,106089,1,0,0:0:0:0:
64,192,106089,1,0,0:0:0:0:
448,192,106494,1,0,0:0:0:0:
192,192,106494,1,0,0:0:0:0:
448,192,106948,1,0,0:0:0:0:
192,192,106948,1,0,0:0:0:0:
192,192,107744,1,0,0:0:0:0:
64,192,107800,1,0,0:0:0:0:
448,192,107857,1,0,0:0:0:0:
320,192,107857,1,0,0:0:0:0:
448,192,108312,1,0,0:0:0:0:
320,192,108312,1,0,0:0:0:0:
320,192,109789,1,0,0:0:0:0:
448,192,109865,1,0,0:0:0:0:
192,192,109940,1,0,0:0:0:0:
64,192,110016,1,0,0:0:0:0:
448,192,110073,1,0,0:0:0:0:
192,192,110130,1,0,0:0:0:0:
320,192,110206,1,0,0:0:0:0:
192,192,110281,1,0,0:0:0:0:
