osu file format v14

[General]
AudioFilename: audio.mp3
AudioLeadIn: 0
PreviewTime: 66156
Countdown: 0
SampleSet: Normal
StackLeniency: 0.2
Mode: 3
LetterboxInBreaks: 0
SpecialStyle: 0
WidescreenStoryboard: 1

[Editor]
Bookmarks: 14873,28251,41224,54197,66359,86629,96359,109738
DistanceSpacing: 1.2
BeatDivisor: 4
GridSize: 16
TimelineZoom: 1.9

[Metadata]
Title:Baka Mitai (Cut Ver.)
TitleUnicode:ばかみたい (Cut Ver.)
Artist:Kazuma Kiryu (CV: Takaya Kuroda)
ArtistUnicode:桐生 一馬 (CV: 黒田崇矢)
Creator:elexire
Version:Hyper
Source:龍が如く5 夢、叶えし者
Tags:yakuza 0 5 japanese video game ryu ga gotoku studio 龍が如くスタジオ sega dumpstream stream osu!mania 4k mania world cup 2023 mwc23 4k world cup 2023 quarterfinals rc5 ska
BeatmapID:4340994
BeatmapSetID:2051835

[Difficulty]
HPDrainRate:7.2
CircleSize:4
OverallDifficulty:7.4
ApproachRate:7
SliderMultiplier:1.6
SliderTickRate:1

[Events]
//Background and Video events
0,0,"ngl they be lookin fly.jpg",0,0
//Break Periods
//Storyboard Layer 0 (Background)
//Storyboard Layer 1 (Fail)
//Storyboard Layer 2 (Pass)
//Storyboard Layer 3 (Foreground)
//Storyboard Layer 4 (Overlay)
//Storyboard Sound Samples

[TimingPoints]
684,405.405405405405,4,1,1,25,1,0
106494,454.545454545455,4,1,1,25,1,0
106494,-89.2857142857143,4,1,1,25,0,0

[HitObjects]
192,192,684,5,0,0:0:0:0:
320,192,785,1,0,0:0:0:0:
448,192,886,1,0,0:0:0:0:
64,192,988,1,0,0:0:0:0:
320,192,1089,1,0,0:0:0:0:
192,192,1190,1,0,0:0:0:0:
320,192,1292,1,0,0:0:0:0:
448,192,1393,1,0,0:0:0:0:
64,192,1494,1,0,0:0:0:0:
320,192,1494,1,0,0:0:0:0:
192,192,1596,1,0,0:0:0:0:
320,192,1697,1,0,0:0:0:0:
64,192,1697,1,0,0:0:0:0:
448,192,1798,1,0,0:0:0:0:
192,192,1900,1,0,0:0:0:0:
64,192,1900,1,0,0:0:0:0:
320,192,2001,1,0,0:0:0:0:
448,192,2102,1,0,0:0:0:0:
64,192,2204,1,0,0:0:0:0:
192,192,2305,1,0,0:0:0:0:
448,192,2305,1,0,0:0:0:0:
320,192,2406,1,0,0:0:0:0:
64,192,2508,1,0,0:0:0:0:
192,192,2609,1,0,0:0:0:0:
448,192,2711,1,0,0:0:0:0:
320,192,2792,1,0,0:0:0:0:
64,192,2873,1,0,0:0:0:0:
192,192,2954,1,0,0:0:0:0:
320,192,3035,1,0,0:0:0:0:
448,192,3116,1,0,0:0:0:0:
64,192,3116,1,0,0:0:0:0:
192,192,3217,1,0,0:0:0:0:
320,192,3319,1,0,0:0:0:0:
64,192,3420,1,0,0:0:0:0:
448,192,3521,1,0,0:0:0:0:
320,192,3602,1,0,0:0:0:0:
192,192,3683,1,0,0:0:0:0:
448,192,3765,1,0,0:0:0:0:
320,192,3846,1,0,0:0:0:0:
64,192,3927,1,0,0:0:0:0:
192,192,3927,1,0,0:0:0:0:
448,192,4008,1,0,0:0:0:0:
64,192,4089,1,0,0:0:0:0:
192,192,4170,1,0,0:0:0:0:
320,192,4251,1,0,0:0:0:0:
448,192,4332,1,0,0:0:0:0:
64,192,4332,1,0,0:0:0:0:
192,192,4433,1,0,0:0:0:0:
320,192,4535,1,0,0:0:0:0:
448,192,4535,1,0,0:0:0:0:
64,192,4636,1,0,0:0:0:0:
192,192,4738,1,0,0:0:0:0:
320,192,4738,1,0,0:0:0:0:
448,192,4839,1,0,0:0:0:0:
64,192,4940,1,0,0:0:0:0:
192,192,4940,1,0,0:0:0:0:
448,192,5042,1,0,0:0:0:0:
64,192,5143,1,0,0:0:0:0:
320,192,5143,1,0,0:0:0:0:
192,192,5244,1,0,0:0:0:0:
448,192,5346,1,0,0:0:0:0:
320,192,5346,1,0,0:0:0:0:
64,192,5447,1,0,0:0:0:0:
320,192,5548,1,0,0:0:0:0:
192,192,5548,1,0,0:0:0:0:
448,192,5650,1,0,0:0:0:0:
192,192,5751,1,0,0:0:0:0:
64,192,5751,1,0,0:0:0:0:
320,192,5852,1,0,0:0:0:0:
64,192,5954,1,0,0:0:0:0:
448,192,5954,1,0,0:0:0:0:
192,192,6055,1,0,0:0:0:0:
320,192,6156,1,0,0:0:0:0:
448,192,6258,1,0,0:0:0:0:
192,192,6359,1,0,0:0:0:0:
64,192,6359,1,0,0:0:0:0:
320,192,6461,1,0,0:0:0:0:
192,192,6562,1,0,0:0:0:0:
320,192,6663,1,0,0:0:0:0:
448,192,6765,1,0,0:0:0:0:
64,192,6846,1,0,0:0:0:0:
192,192,6927,1,0,0:0:0:0:
320,192,7008,1,0,0:0:0:0:
64,192,7089,1,0,0:0:0:0:
320,192,7170,1,0,0:0:0:0:
448,192,7170,1,0,0:0:0:0:
192,192,7271,1,0,0:0:0:0:
448,192,7373,1,0,0:0:0:0:
320,192,7474,1,0,0:0:0:0:
192,192,7575,1,0,0:0:0:0:
64,192,7656,1,0,0:0:0:0:
448,192,7738,1,0,0:0:0:0:
320,192,7819,1,0,0:0:0:0:
64,192,7900,1,0,0:0:0:0:
192,192,7981,1,0,0:0:0:0:
448,192,7981,1,0,0:0:0:0:
320,192,8062,1,0,0:0:0:0:
64,192,8143,1,0,0:0:0:0:
192,192,8224,1,0,0:0:0:0:
320,192,8305,1,0,0:0:0:0:
448,192,8386,1,0,0:0:0:0:
192,192,8454,1,0,0:0:0:0:
320,192,8521,1,0,0:0:0:0:
64,192,8589,1,0,0:0:0:0:
192,192,8690,1,0,0:0:0:0:
448,192,8792,1,0,0:0:0:0:
320,192,8792,1,0,0:0:0:0:
64,192,8893,1,0,0:0:0:0:
448,192,8994,1,0,0:0:0:0:
320,192,9096,1,0,0:0:0:0:
192,192,9197,1,0,0:0:0:0:
64,192,9298,1,0,0:0:0:0:
448,192,9400,1,0,0:0:0:0:
192,192,9501,1,0,0:0:0:0:
320,192,9602,1,0,0:0:0:0:
448,192,9602,1,0,0:0:0:0:
64,192,9704,1,0,0:0:0:0:
448,192,9805,1,0,0:0:0:0:
192,192,9906,1,0,0:0:0:0:
64,192,10008,1,0,0:0:0:0:
320,192,10109,1,0,0:0:0:0:
192,192,10211,1,0,0:0:0:0:
320,192,10312,1,0,0:0:0:0:
448,192,10413,1,0,0:0:0:0:
64,192,10413,1,0,0:0:0:0:
192,192,10515,1,0,0:0:0:0:
320,192,10616,1,0,0:0:0:0:
64,192,10717,1,0,0:0:0:0:
192,192,10819,1,0,0:0:0:0:
448,192,10819,1,0,0:0:0:0:
320,192,10920,1,0,0:0:0:0:
64,192,11021,1,0,0:0:0:0:
448,192,11123,5,0,0:0:0:0:
192,192,11224,1,0,0:0:0:0:
64,192,11224,1,0,0:0:0:0:
320,192,11325,1,0,0:0:0:0:
448,192,11427,1,0,0:0:0:0:
64,192,11528,1,0,0:0:0:0:
192,192,11629,1,0,0:0:0:0:
448,192,11629,1,0,0:0:0:0:
320,192,11731,1,0,0:0:0:0:
192,192,11832,1,0,0:0:0:0:
320,192,11933,1,0,0:0:0:0:
64,192,11990,5,0,0:0:0:0:
448,192,12035,1,0,0:0:0:0:
320,192,12440,5,0,0:0:0:0:
192,192,12440,1,0,0:0:0:0:
320,192,12846,1,0,0:0:0:0:
192,192,12846,1,0,0:0:0:0:
192,192,13656,1,0,0:0:0:0:
320,192,13656,1,0,0:0:0:0:
320,192,14062,1,0,0:0:0:0:
192,192,14062,1,0,0:0:0:0:
320,192,14873,1,0,0:0:0:0:
320,192,15075,1,0,0:0:0:0:
192,192,15278,1,0,0:0:0:0:
448,192,15278,1,0,0:0:0:0:
64,192,15379,1,0,0:0:0:0:
448,192,15481,1,0,0:0:0:0:
64,192,15582,1,0,0:0:0:0:
320,192,15683,1,0,0:0:0:0:
192,192,15785,1,0,0:0:0:0:
64,192,15886,1,0,0:0:0:0:
64,192,16089,1,0,0:0:0:0:
320,192,16089,1,0,0:0:0:0:
192,192,16494,1,0,0:0:0:0:
320,192,16900,1,0,0:0:0:0:
448,192,17102,1,0,0:0:0:0:
320,192,17305,1,0,0:0:0:0:
192,192,17406,1,0,0:0:0:0:
320,192,17508,1,0,0:0:0:0:
192,192,17609,1,0,0:0:0:0:
320,192,17711,1,0,0:0:0:0:
64,192,17711,1,0,0:0:0:0:
448,192,17812,1,0,0:0:0:0:
192,192,17913,1,0,0:0:0:0:
64,192,18217,1,0,0:0:0:0:
320,192,18319,1,0,0:0:0:0:
192,192,18420,1,0,0:0:0:0:
448,192,18521,1,0,0:0:0:0:
64,192,18521,1,0,0:0:0:0:
320,192,18623,1,0,0:0:0:0:
64,192,18724,1,0,0:0:0:0:
192,192,18724,1,0,0:0:0:0:
320,192,18825,1,0,0:0:0:0:
64,192,18927,1,0,0:0:0:0:
448,192,18927,1,0,0:0:0:0:
192,192,19028,1,0,0:0:0:0:
320,192,19129,1,0,0:0:0:0:
192,192,19231,1,0,0:0:0:0:
448,192,19332,1,0,0:0:0:0:
64,192,19332,1,0,0:0:0:0:
192,192,19687,1,0,0:0:0:0:
320,192,19853,1,0,0:0:0:0:
192,192,19966,1,0,0:0:0:0:
448,192,20143,1,0,0:0:0:0:
320,192,20143,1,0,0:0:0:0:
448,192,20548,1,0,0:0:0:0:
192,192,20852,1,0,0:0:0:0:
320,192,20954,1,0,0:0:0:0:
64,192,20954,1,0,0:0:0:0:
448,192,21292,1,0,0:0:0:0:
192,192,21359,1,0,0:0:0:0:
320,192,21562,1,0,0:0:0:0:
192,192,21663,1,0,0:0:0:0:
320,192,21765,1,0,0:0:0:0:
448,192,21765,1,0,0:0:0:0:
64,192,21866,1,0,0:0:0:0:
192,192,21967,1,0,0:0:0:0:
320,192,22069,1,0,0:0:0:0:
64,192,22170,1,0,0:0:0:0:
320,192,22575,1,0,0:0:0:0:
448,192,22575,1,0,0:0:0:0:
192,192,22981,1,0,0:0:0:0:
320,192,23082,1,0,0:0:0:0:
448,192,23183,1,0,0:0:0:0:
64,192,23285,1,0,0:0:0:0:
320,192,23386,1,0,0:0:0:0:
448,192,23386,1,0,0:0:0:0:
192,192,23792,1,0,0:0:0:0:
320,192,23873,1,0,0:0:0:0:
64,192,23954,1,0,0:0:0:0:
64,192,24197,1,0,0:0:0:0:
320,192,24197,1,0,0:0:0:0:
192,192,24298,1,0,0:0:0:0:
320,192,24400,1,0,0:0:0:0:
192,192,24501,1,0,0:0:0:0:
448,192,24602,1,0,0:0:0:0:
320,192,24704,1,0,0:0:0:0:
192,192,24805,1,0,0:0:0:0:
64,192,25008,1,0,0:0:0:0:
320,192,25008,1,0,0:0:0:0:
448,192,25109,1,0,0:0:0:0:
320,192,25211,1,0,0:0:0:0:
64,192,25413,1,0,0:0:0:0:
192,192,25515,1,0,0:0:0:0:
192,192,25819,1,0,0:0:0:0:
448,192,25819,1,0,0:0:0:0:
320,192,26021,1,0,0:0:0:0:
448,192,26224,1,0,0:0:0:0:
192,192,26427,1,0,0:0:0:0:
448,192,26629,1,0,0:0:0:0:
64,192,26629,1,0,0:0:0:0:
320,192,26832,1,0,0:0:0:0:
192,192,27035,1,0,0:0:0:0:
64,192,27035,1,0,0:0:0:0:
320,192,27238,1,0,0:0:0:0:
448,192,27440,1,0,0:0:0:0:
192,192,27440,1,0,0:0:0:0:
64,192,27643,1,0,0:0:0:0:
320,192,27846,1,0,0:0:0:0:
192,192,27947,1,0,0:0:0:0:
320,192,28048,1,0,0:0:0:0:
64,192,28150,1,0,0:0:0:0:
192,192,28251,1,0,0:0:0:0:
448,192,28251,1,0,0:0:0:0:
320,192,28332,1,0,0:0:0:0:
192,192,28413,1,0,0:0:0:0:
64,192,28494,1,0,0:0:0:0:
320,192,28575,1,0,0:0:0:0:
192,192,28656,1,0,0:0:0:0:
320,192,29062,1,0,0:0:0:0:
64,192,29062,1,0,0:0:0:0:
448,192,29467,1,0,0:0:0:0:
192,192,29828,1,0,0:0:0:0:
320,192,29873,1,0,0:0:0:0:
64,192,30278,1,0,0:0:0:0:
192,192,30359,1,0,0:0:0:0:
320,192,30440,1,0,0:0:0:0:
64,192,30521,1,0,0:0:0:0:
448,192,30602,1,0,0:0:0:0:
320,192,30683,1,0,0:0:0:0:
64,192,30683,1,0,0:0:0:0:
192,192,30765,1,0,0:0:0:0:
320,192,30846,1,0,0:0:0:0:
448,192,30927,1,0,0:0:0:0:
64,192,31008,1,0,0:0:0:0:
192,192,31089,1,0,0:0:0:0:
320,192,31089,1,0,0:0:0:0:
448,192,31190,1,0,0:0:0:0:
192,192,31292,1,0,0:0:0:0:
320,192,31494,1,0,0:0:0:0:
64,192,31494,1,0,0:0:0:0:
192,192,31900,1,0,0:0:0:0:
320,192,31900,1,0,0:0:0:0:
448,192,32001,1,0,0:0:0:0:
64,192,32102,1,0,0:0:0:0:
448,192,32204,1,0,0:0:0:0:
64,192,32305,1,0,0:0:0:0:
192,192,32305,1,0,0:0:0:0:
320,192,32406,1,0,0:0:0:0:
448,192,32508,1,0,0:0:0:0:
192,192,32711,1,0,0:0:0:0:
320,192,32711,1,0,0:0:0:0:
64,192,32812,1,0,0:0:0:0:
320,192,32913,1,0,0:0:0:0:
192,192,33521,1,0,0:0:0:0:
320,192,33724,1,0,0:0:0:0:
192,192,33927,1,0,0:0:0:0:
64,192,33927,1,0,0:0:0:0:
320,192,34332,1,0,0:0:0:0:
192,192,34332,1,0,0:0:0:0:
448,192,34433,1,0,0:0:0:0:
64,192,34535,1,0,0:0:0:0:
448,192,34636,1,0,0:0:0:0:
192,192,34738,1,0,0:0:0:0:
320,192,34738,1,0,0:0:0:0:
64,192,34839,1,0,0:0:0:0:
448,192,34940,1,0,0:0:0:0:
192,192,34940,1,0,0:0:0:0:
64,192,35042,1,0,0:0:0:0:
320,192,35143,1,0,0:0:0:0:
448,192,35143,1,0,0:0:0:0:
192,192,35244,1,0,0:0:0:0:
64,192,35548,1,0,0:0:0:0:
192,192,35548,1,0,0:0:0:0:
320,192,35954,1,0,0:0:0:0:
448,192,36055,1,0,0:0:0:0:
192,192,36156,1,0,0:0:0:0:
448,192,36258,1,0,0:0:0:0:
320,192,36359,1,0,0:0:0:0:
64,192,36359,1,0,0:0:0:0:
192,192,36461,1,0,0:0:0:0:
320,192,36562,1,0,0:0:0:0:
448,192,36663,1,0,0:0:0:0:
64,192,36765,1,0,0:0:0:0:
320,192,36866,1,0,0:0:0:0:
192,192,36967,1,0,0:0:0:0:
64,192,37069,1,0,0:0:0:0:
192,192,37170,1,0,0:0:0:0:
448,192,37170,1,0,0:0:0:0:
320,192,37251,1,0,0:0:0:0:
192,192,37332,1,0,0:0:0:0:
448,192,37413,1,0,0:0:0:0:
64,192,37494,1,0,0:0:0:0:
320,192,37575,1,0,0:0:0:0:
64,192,37981,1,0,0:0:0:0:
448,192,37981,1,0,0:0:0:0:
192,192,38082,1,0,0:0:0:0:
448,192,38183,1,0,0:0:0:0:
320,192,38285,1,0,0:0:0:0:
448,192,38386,1,0,0:0:0:0:
64,192,38386,1,0,0:0:0:0:
192,192,38488,1,0,0:0:0:0:
320,192,38589,1,0,0:0:0:0:
64,192,38690,1,0,0:0:0:0:
192,192,38792,1,0,0:0:0:0:
448,192,38792,1,0,0:0:0:0:
320,192,38893,1,0,0:0:0:0:
192,192,38994,1,0,0:0:0:0:
448,192,39096,1,0,0:0:0:0:
320,192,39197,1,0,0:0:0:0:
64,192,39298,1,0,0:0:0:0:
320,192,39400,1,0,0:0:0:0:
192,192,39501,1,0,0:0:0:0:
64,192,39602,1,0,0:0:0:0:
448,192,39602,1,0,0:0:0:0:
320,192,39704,1,0,0:0:0:0:
448,192,39805,1,0,0:0:0:0:
192,192,39906,1,0,0:0:0:0:
320,192,40008,1,0,0:0:0:0:
64,192,40089,1,0,0:0:0:0:
192,192,40170,1,0,0:0:0:0:
320,192,40251,1,0,0:0:0:0:
448,192,40332,1,0,0:0:0:0:
192,192,40413,1,0,0:0:0:0:
64,192,40413,1,0,0:0:0:0:
320,192,40494,1,0,0:0:0:0:
64,192,40575,1,0,0:0:0:0:
448,192,40656,1,0,0:0:0:0:
320,192,40738,1,0,0:0:0:0:
192,192,40819,1,0,0:0:0:0:
192,192,41224,1,0,0:0:0:0:
320,192,41224,1,0,0:0:0:0:
64,192,41325,1,0,0:0:0:0:
320,192,41427,1,0,0:0:0:0:
192,192,41427,1,0,0:0:0:0:
448,192,41528,1,0,0:0:0:0:
320,192,41629,1,0,0:0:0:0:
192,192,41629,1,0,0:0:0:0:
64,192,41731,1,0,0:0:0:0:
192,192,41832,1,0,0:0:0:0:
320,192,41832,1,0,0:0:0:0:
448,192,41933,1,0,0:0:0:0:
192,192,42035,1,0,0:0:0:0:
320,192,42035,1,0,0:0:0:0:
64,192,42116,1,0,0:0:0:0:
448,192,42197,1,0,0:0:0:0:
64,192,42278,1,0,0:0:0:0:
448,192,42359,1,0,0:0:0:0:
192,192,42440,1,0,0:0:0:0:
192,192,42643,1,0,0:0:0:0:
320,192,42643,1,0,0:0:0:0:
320,192,43251,1,0,0:0:0:0:
448,192,43656,1,0,0:0:0:0:
192,192,43656,1,0,0:0:0:0:
192,192,44062,1,0,0:0:0:0:
320,192,44163,1,0,0:0:0:0:
448,192,44265,1,0,0:0:0:0:
192,192,44366,1,0,0:0:0:0:
448,192,44467,1,0,0:0:0:0:
320,192,44467,1,0,0:0:0:0:
64,192,44548,1,0,0:0:0:0:
192,192,44629,1,0,0:0:0:0:
320,192,44711,1,0,0:0:0:0:
64,192,44792,1,0,0:0:0:0:
448,192,44873,1,0,0:0:0:0:
192,192,44974,1,0,0:0:0:0:
64,192,45075,1,0,0:0:0:0:
320,192,45177,1,0,0:0:0:0:
448,192,45278,1,0,0:0:0:0:
192,192,45278,1,0,0:0:0:0:
64,192,45359,1,0,0:0:0:0:
320,192,45440,1,0,0:0:0:0:
192,192,45521,1,0,0:0:0:0:
64,192,45602,1,0,0:0:0:0:
320,192,45683,1,0,0:0:0:0:
448,192,45683,1,0,0:0:0:0:
192,192,45785,1,0,0:0:0:0:
320,192,45886,1,0,0:0:0:0:
64,192,45886,1,0,0:0:0:0:
448,192,45988,1,0,0:0:0:0:
192,192,46089,1,0,0:0:0:0:
64,192,46089,1,0,0:0:0:0:
320,192,46190,1,0,0:0:0:0:
448,192,46292,1,0,0:0:0:0:
192,192,46393,1,0,0:0:0:0:
320,192,46494,1,0,0:0:0:0:
64,192,46596,1,0,0:0:0:0:
448,192,46697,1,0,0:0:0:0:
192,192,46798,1,0,0:0:0:0:
64,192,46900,1,0,0:0:0:0:
320,192,46900,1,0,0:0:0:0:
448,192,47001,1,0,0:0:0:0:
192,192,47102,1,0,0:0:0:0:
320,192,47204,1,0,0:0:0:0:
64,192,47305,1,0,0:0:0:0:
64,192,47711,1,0,0:0:0:0:
448,192,47711,1,0,0:0:0:0:
320,192,47812,1,0,0:0:0:0:
448,192,47913,1,0,0:0:0:0:
64,192,47913,1,0,0:0:0:0:
192,192,48015,1,0,0:0:0:0:
64,192,48116,1,0,0:0:0:0:
448,192,48116,1,0,0:0:0:0:
320,192,48217,1,0,0:0:0:0:
64,192,48319,1,0,0:0:0:0:
448,192,48319,1,0,0:0:0:0:
192,192,48420,1,0,0:0:0:0:
448,192,48521,1,0,0:0:0:0:
64,192,48521,1,0,0:0:0:0:
320,192,48602,1,0,0:0:0:0:
192,192,48683,1,0,0:0:0:0:
320,192,48765,1,0,0:0:0:0:
192,192,48846,1,0,0:0:0:0:
448,192,48927,1,0,0:0:0:0:
448,192,49129,1,0,0:0:0:0:
64,192,49129,1,0,0:0:0:0:
320,192,49211,1,0,0:0:0:0:
192,192,49292,1,0,0:0:0:0:
64,192,49373,1,0,0:0:0:0:
448,192,49454,1,0,0:0:0:0:
192,192,49535,1,0,0:0:0:0:
320,192,49616,1,0,0:0:0:0:
64,192,49697,1,0,0:0:0:0:
192,192,49778,1,0,0:0:0:0:
320,192,49859,1,0,0:0:0:0:
64,192,49940,1,0,0:0:0:0:
448,192,50042,1,0,0:0:0:0:
192,192,50143,1,0,0:0:0:0:
64,192,50143,1,0,0:0:0:0:
320,192,50244,1,0,0:0:0:0:
64,192,50346,1,0,0:0:0:0:
448,192,50548,1,0,0:0:0:0:
64,192,50650,1,0,0:0:0:0:
320,192,50751,1,0,0:0:0:0:
448,192,50852,1,0,0:0:0:0:
192,192,50954,1,0,0:0:0:0:
64,192,50954,1,0,0:0:0:0:
64,192,51156,1,0,0:0:0:0:
448,192,51359,1,0,0:0:0:0:
192,192,51461,1,0,0:0:0:0:
320,192,51562,1,0,0:0:0:0:
64,192,51663,1,0,0:0:0:0:
448,192,51765,1,0,0:0:0:0:
192,192,51765,1,0,0:0:0:0:
320,192,51866,1,0,0:0:0:0:
448,192,51967,1,0,0:0:0:0:
64,192,52069,1,0,0:0:0:0:
192,192,52170,1,0,0:0:0:0:
320,192,52271,1,0,0:0:0:0:
192,192,52373,1,0,0:0:0:0:
64,192,52474,1,0,0:0:0:0:
320,192,52575,1,0,0:0:0:0:
448,192,52575,1,0,0:0:0:0:
64,192,52677,1,0,0:0:0:0:
320,192,52778,1,0,0:0:0:0:
192,192,52879,1,0,0:0:0:0:
64,192,52981,1,0,0:0:0:0:
448,192,52981,1,0,0:0:0:0:
320,192,53082,1,0,0:0:0:0:
192,192,53183,1,0,0:0:0:0:
448,192,53285,1,0,0:0:0:0:
192,192,53386,1,0,0:0:0:0:
320,192,53386,1,0,0:0:0:0:
64,192,53488,1,0,0:0:0:0:
320,192,53589,1,0,0:0:0:0:
448,192,53589,1,0,0:0:0:0:
192,192,53690,1,0,0:0:0:0:
448,192,53792,1,0,0:0:0:0:
64,192,53792,1,0,0:0:0:0:
320,192,53893,1,0,0:0:0:0:
192,192,53994,1,0,0:0:0:0:
64,192,54096,1,0,0:0:0:0:
192,192,54197,1,0,0:0:0:0:
448,192,54197,1,0,0:0:0:0:
320,192,54298,1,0,0:0:0:0:
192,192,54400,1,0,0:0:0:0:
448,192,54501,1,0,0:0:0:0:
64,192,54602,1,0,0:0:0:0:
192,192,54602,1,0,0:0:0:0:
320,192,54704,1,0,0:0:0:0:
64,192,54805,1,0,0:0:0:0:
448,192,54805,1,0,0:0:0:0:
192,192,54906,1,0,0:0:0:0:
320,192,55008,1,0,0:0:0:0:
448,192,55008,1,0,0:0:0:0:
192,192,55211,1,0,0:0:0:0:
64,192,55413,1,0,0:0:0:0:
320,192,55616,1,0,0:0:0:0:
448,192,55616,1,0,0:0:0:0:
192,192,55717,1,0,0:0:0:0:
448,192,55819,1,0,0:0:0:0:
320,192,55920,1,0,0:0:0:0:
192,192,56021,1,0,0:0:0:0:
192,192,56224,1,0,0:0:0:0:
64,192,56224,1,0,0:0:0:0:
448,192,56305,1,0,0:0:0:0:
320,192,56386,1,0,0:0:0:0:
192,192,56467,1,0,0:0:0:0:
448,192,56548,1,0,0:0:0:0:
64,192,56629,1,0,0:0:0:0:
320,192,56629,1,0,0:0:0:0:
192,192,56731,1,0,0:0:0:0:
448,192,56832,1,0,0:0:0:0:
64,192,56933,1,0,0:0:0:0:
320,192,57035,1,0,0:0:0:0:
192,192,57035,1,0,0:0:0:0:
448,192,57136,1,0,0:0:0:0:
192,192,57238,1,0,0:0:0:0:
320,192,57339,1,0,0:0:0:0:
448,192,57440,1,0,0:0:0:0:
64,192,57440,1,0,0:0:0:0:
192,192,57521,1,0,0:0:0:0:
320,192,57602,1,0,0:0:0:0:
64,192,57683,1,0,0:0:0:0:
192,192,57765,1,0,0:0:0:0:
320,192,57846,1,0,0:0:0:0:
64,192,57927,1,0,0:0:0:0:
448,192,58008,1,0,0:0:0:0:
320,192,58089,1,0,0:0:0:0:
192,192,58170,1,0,0:0:0:0:
64,192,58251,1,0,0:0:0:0:
448,192,58251,1,0,0:0:0:0:
320,192,58352,1,0,0:0:0:0:
192,192,58352,1,0,0:0:0:0:
320,192,58656,1,0,0:0:0:0:
192,192,58656,1,0,0:0:0:0:
64,192,58738,1,0,0:0:0:0:
320,192,58819,1,0,0:0:0:0:
192,192,58900,1,0,0:0:0:0:
64,192,58981,1,0,0:0:0:0:
448,192,59062,1,0,0:0:0:0:
320,192,59163,1,0,0:0:0:0:
192,192,59265,1,0,0:0:0:0:
448,192,59366,1,0,0:0:0:0:
64,192,59467,1,0,0:0:0:0:
192,192,59569,1,0,0:0:0:0:
320,192,59670,1,0,0:0:0:0:
64,192,59771,1,0,0:0:0:0:
448,192,59873,1,0,0:0:0:0:
192,192,59873,1,0,0:0:0:0:
320,192,59974,1,0,0:0:0:0:
448,192,60075,1,0,0:0:0:0:
192,192,60177,1,0,0:0:0:0:
64,192,60278,1,0,0:0:0:0:
320,192,60278,1,0,0:0:0:0:
192,192,60379,1,0,0:0:0:0:
64,192,60481,1,0,0:0:0:0:
448,192,60481,1,0,0:0:0:0:
320,192,60582,1,0,0:0:0:0:
192,192,60683,1,0,0:0:0:0:
64,192,60683,1,0,0:0:0:0:
448,192,60785,1,0,0:0:0:0:
320,192,60886,1,0,0:0:0:0:
192,192,60886,1,0,0:0:0:0:
64,192,60988,1,0,0:0:0:0:
448,192,61089,1,0,0:0:0:0:
320,192,61170,1,0,0:0:0:0:
192,192,61251,1,0,0:0:0:0:
448,192,61332,1,0,0:0:0:0:
64,192,61413,1,0,0:0:0:0:
192,192,61494,1,0,0:0:0:0:
320,192,61494,1,0,0:0:0:0:
320,192,61900,1,0,0:0:0:0:
448,192,62102,1,0,0:0:0:0:
64,192,62204,1,0,0:0:0:0:
192,192,62305,1,0,0:0:0:0:
320,192,62305,1,0,0:0:0:0:
320,192,62508,1,0,0:0:0:0:
192,192,62711,1,0,0:0:0:0:
64,192,62711,1,0,0:0:0:0:
320,192,62812,1,0,0:0:0:0:
64,192,62913,1,0,0:0:0:0:
192,192,63015,1,0,0:0:0:0:
320,192,63116,1,0,0:0:0:0:
448,192,63116,1,0,0:0:0:0:
64,192,63197,1,0,0:0:0:0:
192,192,63278,1,0,0:0:0:0:
320,192,63359,1,0,0:0:0:0:
64,192,63440,1,0,0:0:0:0:
448,192,63521,1,0,0:0:0:0:
192,192,63521,1,0,0:0:0:0:
320,192,63602,1,0,0:0:0:0:
64,192,63683,1,0,0:0:0:0:
448,192,63765,1,0,0:0:0:0:
320,192,63846,1,0,0:0:0:0:
64,192,63927,1,0,0:0:0:0:
192,192,63927,1,0,0:0:0:0:
448,192,64028,1,0,0:0:0:0:
192,192,64129,1,0,0:0:0:0:
320,192,64231,1,0,0:0:0:0:
448,192,64332,1,0,0:0:0:0:
64,192,64332,1,0,0:0:0:0:
192,192,64413,1,0,0:0:0:0:
320,192,64494,1,0,0:0:0:0:
64,192,64575,1,0,0:0:0:0:
192,192,64656,1,0,0:0:0:0:
320,192,64738,1,0,0:0:0:0:
448,192,64738,1,0,0:0:0:0:
64,192,64819,1,0,0:0:0:0:
192,192,64900,1,0,0:0:0:0:
320,192,64981,1,0,0:0:0:0:
448,192,65062,1,0,0:0:0:0:
64,192,65143,1,0,0:0:0:0:
192,192,65211,1,0,0:0:0:0:
320,192,65278,1,0,0:0:0:0:
448,192,65346,1,0,0:0:0:0:
64,192,65413,5,0,0:0:0:0:
192,192,65481,1,0,0:0:0:0:
320,192,65548,1,0,0:0:0:0:
448,192,65548,1,0,0:0:0:0:
192,192,66258,5,0,0:0:0:0:
448,192,66359,1,0,0:0:0:0:
64,192,66359,1,0,0:0:0:0:
320,192,66461,1,0,0:0:0:0:
448,192,66562,1,0,0:0:0:0:
64,192,66562,1,0,0:0:0:0:
192,192,66663,1,0,0:0:0:0:
448,192,66765,1,0,0:0:0:0:
320,192,66765,1,0,0:0:0:0:
64,192,66866,1,0,0:0:0:0:
448,192,66967,1,0,0:0:0:0:
192,192,67035,1,0,0:0:0:0:
320,192,67102,1,0,0:0:0:0:
64,192,67170,1,0,0:0:0:0:
192,192,67170,1,0,0:0:0:0:
448,192,67251,1,0,0:0:0:0:
64,192,67332,1,0,0:0:0:0:
192,192,67413,1,0,0:0:0:0:
320,192,67494,1,0,0:0:0:0:
448,192,67575,1,0,0:0:0:0:
192,192,67677,1,0,0:0:0:0:
64,192,67778,1,0,0:0:0:0:
320,192,67879,1,0,0:0:0:0:
192,192,67981,1,0,0:0:0:0:
448,192,67981,1,0,0:0:0:0:
64,192,68082,1,0,0:0:0:0:
320,192,68183,1,0,0:0:0:0:
64,192,68285,1,0,0:0:0:0:
448,192,68386,1,0,0:0:0:0:
320,192,68386,1,0,0:0:0:0:
192,192,68488,1,0,0:0:0:0:
448,192,68589,1,0,0:0:0:0:
64,192,68589,1,0,0:0:0:0:
320,192,68690,1,0,0:0:0:0:
192,192,68792,1,0,0:0:0:0:
64,192,68792,1,0,0:0:0:0:
448,192,68873,1,0,0:0:0:0:
64,192,68954,1,0,0:0:0:0:
320,192,69035,1,0,0:0:0:0:
448,192,69116,1,0,0:0:0:0:
192,192,69197,1,0,0:0:0:0:
64,192,69298,1,0,0:0:0:0:
320,192,69400,1,0,0:0:0:0:
448,192,69501,1,0,0:0:0:0:
192,192,69602,1,0,0:0:0:0:
64,192,69602,1,0,0:0:0:0:
320,192,69683,1,0,0:0:0:0:
448,192,69765,1,0,0:0:0:0:
64,192,69846,1,0,0:0:0:0:
192,192,69927,1,0,0:0:0:0:
448,192,70008,1,0,0:0:0:0:
320,192,70008,1,0,0:0:0:0:
192,192,70089,1,0,0:0:0:0:
64,192,70170,1,0,0:0:0:0:
448,192,70251,1,0,0:0:0:0:
320,192,70332,1,0,0:0:0:0:
64,192,70413,1,0,0:0:0:0:
448,192,70413,1,0,0:0:0:0:
192,192,70515,1,0,0:0:0:0:
320,192,70616,1,0,0:0:0:0:
448,192,70616,1,0,0:0:0:0:
192,192,70717,1,0,0:0:0:0:
64,192,70819,1,0,0:0:0:0:
448,192,70819,1,0,0:0:0:0:
320,192,70900,1,0,0:0:0:0:
192,192,70981,1,0,0:0:0:0:
448,192,71062,1,0,0:0:0:0:
320,192,71143,1,0,0:0:0:0:
192,192,71224,1,0,0:0:0:0:
64,192,71224,1,0,0:0:0:0:
320,192,71325,1,0,0:0:0:0:
64,192,71427,1,0,0:0:0:0:
448,192,71528,1,0,0:0:0:0:
320,192,71629,1,0,0:0:0:0:
448,192,71731,1,0,0:0:0:0:
192,192,71832,1,0,0:0:0:0:
64,192,71933,1,0,0:0:0:0:
320,192,72035,1,0,0:0:0:0:
448,192,72035,1,0,0:0:0:0:
192,192,72136,1,0,0:0:0:0:
64,192,72238,1,0,0:0:0:0:
320,192,72339,1,0,0:0:0:0:
448,192,72440,1,0,0:0:0:0:
64,192,72542,1,0,0:0:0:0:
320,192,72643,1,0,0:0:0:0:
64,192,72744,1,0,0:0:0:0:
192,192,72846,1,0,0:0:0:0:
448,192,72846,1,0,0:0:0:0:
320,192,72947,1,0,0:0:0:0:
192,192,73048,1,0,0:0:0:0:
64,192,73048,1,0,0:0:0:0:
448,192,73150,1,0,0:0:0:0:
64,192,73251,1,0,0:0:0:0:
320,192,73251,1,0,0:0:0:0:
192,192,73352,1,0,0:0:0:0:
64,192,73454,1,0,0:0:0:0:
448,192,73454,1,0,0:0:0:0:
320,192,73555,1,0,0:0:0:0:
448,192,73656,1,0,0:0:0:0:
192,192,73656,1,0,0:0:0:0:
64,192,73758,1,0,0:0:0:0:
320,192,73859,1,0,0:0:0:0:
192,192,73961,1,0,0:0:0:0:
64,192,74062,1,0,0:0:0:0:
448,192,74163,1,0,0:0:0:0:
320,192,74265,1,0,0:0:0:0:
192,192,74366,1,0,0:0:0:0:
320,192,74467,1,0,0:0:0:0:
64,192,74467,1,0,0:0:0:0:
448,192,74569,1,0,0:0:0:0:
192,192,74670,1,0,0:0:0:0:
64,192,74771,1,0,0:0:0:0:
320,192,74873,1,0,0:0:0:0:
448,192,74873,1,0,0:0:0:0:
192,192,74974,1,0,0:0:0:0:
448,192,75075,1,0,0:0:0:0:
64,192,75075,1,0,0:0:0:0:
320,192,75177,1,0,0:0:0:0:
192,192,75278,1,0,0:0:0:0:
64,192,75278,1,0,0:0:0:0:
448,192,75359,1,0,0:0:0:0:
64,192,75440,1,0,0:0:0:0:
320,192,75521,1,0,0:0:0:0:
192,192,75602,1,0,0:0:0:0:
64,192,75683,1,0,0:0:0:0:
448,192,75785,1,0,0:0:0:0:
192,192,75886,1,0,0:0:0:0:
320,192,75988,1,0,0:0:0:0:
448,192,76089,1,0,0:0:0:0:
64,192,76089,1,0,0:0:0:0:
192,192,76170,1,0,0:0:0:0:
320,192,76251,1,0,0:0:0:0:
64,192,76332,1,0,0:0:0:0:
320,192,76413,1,0,0:0:0:0:
192,192,76494,1,0,0:0:0:0:
64,192,76494,1,0,0:0:0:0:
448,192,76596,1,0,0:0:0:0:
192,192,76697,1,0,0:0:0:0:
320,192,76798,1,0,0:0:0:0:
448,192,76900,1,0,0:0:0:0:
64,192,76900,1,0,0:0:0:0:
192,192,77001,1,0,0:0:0:0:
64,192,77102,1,0,0:0:0:0:
320,192,77102,1,0,0:0:0:0:
448,192,77204,1,0,0:0:0:0:
320,192,77305,1,0,0:0:0:0:
192,192,77373,1,0,0:0:0:0:
64,192,77440,1,0,0:0:0:0:
320,192,77508,1,0,0:0:0:0:
192,192,77609,1,0,0:0:0:0:
320,192,77711,1,0,0:0:0:0:
448,192,77711,1,0,0:0:0:0:
64,192,77812,1,0,0:0:0:0:
448,192,77913,1,0,0:0:0:0:
320,192,78015,1,0,0:0:0:0:
192,192,78116,1,0,0:0:0:0:
64,192,78116,1,0,0:0:0:0:
320,192,78217,1,0,0:0:0:0:
448,192,78319,1,0,0:0:0:0:
64,192,78319,1,0,0:0:0:0:
192,192,78420,1,0,0:0:0:0:
320,192,78521,1,0,0:0:0:0:
448,192,78521,1,0,0:0:0:0:
64,192,78602,1,0,0:0:0:0:
192,192,78683,1,0,0:0:0:0:
320,192,78765,1,0,0:0:0:0:
64,192,78846,1,0,0:0:0:0:
448,192,78927,1,0,0:0:0:0:
192,192,79008,1,0,0:0:0:0:
320,192,79089,1,0,0:0:0:0:
448,192,79170,1,0,0:0:0:0:
64,192,79251,1,0,0:0:0:0:
192,192,79332,1,0,0:0:0:0:
448,192,79332,1,0,0:0:0:0:
320,192,79433,1,0,0:0:0:0:
192,192,79535,1,0,0:0:0:0:
448,192,79602,1,0,0:0:0:0:
64,192,79670,1,0,0:0:0:0:
192,192,79738,1,0,0:0:0:0:
320,192,79738,1,0,0:0:0:0:
448,192,79839,1,0,0:0:0:0:
64,192,79940,1,0,0:0:0:0:
448,192,80008,1,0,0:0:0:0:
320,192,80075,1,0,0:0:0:0:
64,192,80143,1,0,0:0:0:0:
192,192,80143,1,0,0:0:0:0:
320,192,80244,1,0,0:0:0:0:
448,192,80346,1,0,0:0:0:0:
64,192,80447,1,0,0:0:0:0:
192,192,80548,1,0,0:0:0:0:
448,192,80650,1,0,0:0:0:0:
64,192,80751,1,0,0:0:0:0:
320,192,80852,1,0,0:0:0:0:
192,192,80954,1,0,0:0:0:0:
64,192,80954,1,0,0:0:0:0:
448,192,81055,1,0,0:0:0:0:
64,192,81156,1,0,0:0:0:0:
320,192,81258,1,0,0:0:0:0:
448,192,81359,1,0,0:0:0:0:
192,192,81359,1,0,0:0:0:0:
64,192,81461,1,0,0:0:0:0:
448,192,81562,1,0,0:0:0:0:
320,192,81562,1,0,0:0:0:0:
192,192,81663,1,0,0:0:0:0:
64,192,81765,1,0,0:0:0:0:
448,192,81765,1,0,0:0:0:0:
320,192,81846,1,0,0:0:0:0:
64,192,81927,1,0,0:0:0:0:
448,192,82008,1,0,0:0:0:0:
192,192,82089,1,0,0:0:0:0:
320,192,82170,1,0,0:0:0:0:
64,192,82170,1,0,0:0:0:0:
192,192,82251,1,0,0:0:0:0:
320,192,82332,1,0,0:0:0:0:
448,192,82413,1,0,0:0:0:0:
64,192,82494,1,0,0:0:0:0:
448,192,82575,1,0,0:0:0:0:
192,192,82575,1,0,0:0:0:0:
320,192,82677,1,0,0:0:0:0:
64,192,82778,1,0,0:0:0:0:
448,192,82879,1,0,0:0:0:0:
192,192,82981,1,0,0:0:0:0:
64,192,82981,1,0,0:0:0:0:
320,192,83082,1,0,0:0:0:0:
448,192,83183,1,0,0:0:0:0:
448,192,83386,1,0,0:0:0:0:
320,192,83386,1,0,0:0:0:0:
64,192,83488,1,0,0:0:0:0:
192,192,83589,1,0,0:0:0:0:
320,192,83690,1,0,0:0:0:0:
64,192,83792,1,0,0:0:0:0:
192,192,83792,1,0,0:0:0:0:
448,192,83859,1,0,0:0:0:0:
320,192,83927,1,0,0:0:0:0:
192,192,83994,1,0,0:0:0:0:
64,192,84062,1,0,0:0:0:0:
448,192,84129,1,0,0:0:0:0:
320,192,84197,1,0,0:0:0:0:
192,192,84298,1,0,0:0:0:0:
64,192,84400,1,0,0:0:0:0:
320,192,84501,1,0,0:0:0:0:
64,192,84602,1,0,0:0:0:0:
448,192,84602,1,0,0:0:0:0:
192,192,84683,1,0,0:0:0:0:
320,192,84765,1,0,0:0:0:0:
64,192,84846,1,0,0:0:0:0:
448,192,84927,1,0,0:0:0:0:
192,192,85008,1,0,0:0:0:0:
320,192,85109,1,0,0:0:0:0:
448,192,85211,1,0,0:0:0:0:
64,192,85312,1,0,0:0:0:0:
320,192,85413,1,0,0:0:0:0:
192,192,85413,1,0,0:0:0:0:
448,192,85515,1,0,0:0:0:0:
64,192,85616,1,0,0:0:0:0:
192,192,85717,1,0,0:0:0:0:
320,192,85819,1,0,0:0:0:0:
448,192,85819,1,0,0:0:0:0:
64,192,85920,1,0,0:0:0:0:
448,192,86021,1,0,0:0:0:0:
192,192,86123,1,0,0:0:0:0:
64,192,86224,1,0,0:0:0:0:
320,192,86224,1,0,0:0:0:0:
448,192,86325,1,0,0:0:0:0:
192,192,86427,1,0,0:0:0:0:
320,192,86427,1,0,0:0:0:0:
64,192,86528,1,0,0:0:0:0:
192,192,86629,1,0,0:0:0:0:
448,192,86629,1,0,0:0:0:0:
320,192,86731,1,0,0:0:0:0:
448,192,86832,1,0,0:0:0:0:
64,192,86832,1,0,0:0:0:0:
192,192,86933,1,0,0:0:0:0:
64,192,87035,1,0,0:0:0:0:
320,192,87136,1,0,0:0:0:0:
192,192,87238,1,0,0:0:0:0:
320,192,87305,1,0,0:0:0:0:
448,192,87305,1,0,0:0:0:0:
192,192,87440,1,0,0:0:0:0:
64,192,87440,1,0,0:0:0:0:
448,192,87542,1,0,0:0:0:0:
320,192,87643,1,0,0:0:0:0:
192,192,87744,1,0,0:0:0:0:
448,192,87846,1,0,0:0:0:0:
64,192,87947,1,0,0:0:0:0:
320,192,88048,1,0,0:0:0:0:
448,192,88116,1,0,0:0:0:0:
192,192,88116,1,0,0:0:0:0:
64,192,88251,1,0,0:0:0:0:
320,192,88251,1,0,0:0:0:0:
192,192,88352,1,0,0:0:0:0:
320,192,88454,1,0,0:0:0:0:
64,192,88555,1,0,0:0:0:0:
192,192,88656,1,0,0:0:0:0:
448,192,88656,1,0,0:0:0:0:
320,192,88758,1,0,0:0:0:0:
448,192,88859,1,0,0:0:0:0:
64,192,88961,1,0,0:0:0:0:
320,192,89062,1,0,0:0:0:0:
192,192,89062,1,0,0:0:0:0:
448,192,89143,1,0,0:0:0:0:
64,192,89224,1,0,0:0:0:0:
320,192,89305,1,0,0:0:0:0:
192,192,89386,1,0,0:0:0:0:
64,192,89467,1,0,0:0:0:0:
448,192,89467,1,0,0:0:0:0:
320,192,89569,1,0,0:0:0:0:
64,192,89670,1,0,0:0:0:0:
192,192,89670,1,0,0:0:0:0:
448,192,89771,1,0,0:0:0:0:
320,192,89873,1,0,0:0:0:0:
192,192,89873,1,0,0:0:0:0:
64,192,89974,1,0,0:0:0:0:
192,192,90075,1,0,0:0:0:0:
448,192,90075,1,0,0:0:0:0:
320,192,90177,1,0,0:0:0:0:
64,192,90278,1,0,0:0:0:0:
320,192,90379,1,0,0:0:0:0:
192,192,90481,1,0,0:0:0:0:
320,192,90548,1,0,0:0:0:0:
448,192,90548,1,0,0:0:0:0:
192,192,90683,1,0,0:0:0:0:
64,192,90683,1,0,0:0:0:0:
320,192,90785,1,0,0:0:0:0:
64,192,90886,1,0,0:0:0:0:
448,192,90988,1,0,0:0:0:0:
192,192,91089,1,0,0:0:0:0:
320,192,91190,1,0,0:0:0:0:
64,192,91292,1,0,0:0:0:0:
192,192,91359,1,0,0:0:0:0:
448,192,91359,1,0,0:0:0:0:
320,192,91494,1,0,0:0:0:0:
64,192,91494,1,0,0:0:0:0:
192,192,91596,1,0,0:0:0:0:
320,192,91697,1,0,0:0:0:0:
448,192,91798,1,0,0:0:0:0:
64,192,91900,1,0,0:0:0:0:
192,192,92001,1,0,0:0:0:0:
448,192,92102,1,0,0:0:0:0:
192,192,92204,1,0,0:0:0:0:
320,192,92305,1,0,0:0:0:0:
448,192,92305,1,0,0:0:0:0:
64,192,92406,1,0,0:0:0:0:
448,192,92508,1,0,0:0:0:0:
192,192,92508,1,0,0:0:0:0:
320,192,92609,1,0,0:0:0:0:
64,192,92711,1,0,0:0:0:0:
192,192,92711,1,0,0:0:0:0:
448,192,92812,1,0,0:0:0:0:
320,192,92913,1,0,0:0:0:0:
64,192,92913,1,0,0:0:0:0:
192,192,93015,1,0,0:0:0:0:
320,192,93116,1,0,0:0:0:0:
448,192,93116,1,0,0:0:0:0:
64,192,93183,1,0,0:0:0:0:
192,192,93521,1,0,0:0:0:0:
64,192,93521,1,0,0:0:0:0:
320,192,93927,1,0,0:0:0:0:
448,192,93927,1,0,0:0:0:0:
192,192,94028,1,0,0:0:0:0:
448,192,94129,1,0,0:0:0:0:
320,192,94231,1,0,0:0:0:0:
192,192,94332,1,0,0:0:0:0:
64,192,94332,1,0,0:0:0:0:
448,192,94433,1,0,0:0:0:0:
64,192,94535,1,0,0:0:0:0:
192,192,94636,1,0,0:0:0:0:
320,192,94738,1,0,0:0:0:0:
448,192,94738,1,0,0:0:0:0:
64,192,94819,1,0,0:0:0:0:
192,192,94900,1,0,0:0:0:0:
320,192,94981,1,0,0:0:0:0:
64,192,95062,1,0,0:0:0:0:
192,192,95143,1,0,0:0:0:0:
448,192,95143,1,0,0:0:0:0:
320,192,95224,1,0,0:0:0:0:
192,192,95305,1,0,0:0:0:0:
448,192,95386,1,0,0:0:0:0:
320,192,95467,1,0,0:0:0:0:
64,192,95548,1,0,0:0:0:0:
192,192,95548,1,0,0:0:0:0:
64,192,95751,1,0,0:0:0:0:
320,192,95751,1,0,0:0:0:0:
448,192,95954,1,0,0:0:0:0:
192,192,96021,1,0,0:0:0:0:
320,192,96089,1,0,0:0:0:0:
448,192,96224,1,0,0:0:0:0:
192,192,96359,1,0,0:0:0:0:
64,192,96359,1,0,0:0:0:0:
320,192,96461,1,0,0:0:0:0:
448,192,96562,1,0,0:0:0:0:
192,192,96663,1,0,0:0:0:0:
320,192,96765,1,0,0:0:0:0:
64,192,96846,1,0,0:0:0:0:
448,192,96927,1,0,0:0:0:0:
192,192,97008,1,0,0:0:0:0:
320,192,97089,1,0,0:0:0:0:
448,192,97170,1,0,0:0:0:0:
64,192,97170,1,0,0:0:0:0:
192,192,97251,1,0,0:0:0:0:
320,192,97332,1,0,0:0:0:0:
64,192,97413,1,0,0:0:0:0:
448,192,97494,1,0,0:0:0:0:
320,192,97575,1,0,0:0:0:0:
192,192,97677,1,0,0:0:0:0:
64,192,97778,1,0,0:0:0:0:
448,192,97829,1,0,0:0:0:0:
320,192,97879,1,0,0:0:0:0:
64,192,97981,1,0,0:0:0:0:
448,192,98031,1,0,0:0:0:0:
192,192,98082,1,0,0:0:0:0:
320,192,98183,1,0,0:0:0:0:
448,192,98285,1,0,0:0:0:0:
64,192,98386,1,0,0:0:0:0:
320,192,98386,1,0,0:0:0:0:
192,192,98488,1,0,0:0:0:0:
448,192,98589,1,0,0:0:0:0:
64,192,98589,1,0,0:0:0:0:
320,192,98690,1,0,0:0:0:0:
448,192,98792,1,0,0:0:0:0:
192,192,98792,1,0,0:0:0:0:
64,192,98893,1,0,0:0:0:0:
320,192,98994,1,0,0:0:0:0:
448,192,98994,1,0,0:0:0:0:
192,192,99096,1,0,0:0:0:0:
448,192,99197,1,0,0:0:0:0:
64,192,99197,1,0,0:0:0:0:
320,192,99298,1,0,0:0:0:0:
192,192,99400,1,0,0:0:0:0:
64,192,99400,1,0,0:0:0:0:
448,192,99501,1,0,0:0:0:0:
320,192,99602,1,0,0:0:0:0:
192,192,99602,1,0,0:0:0:0:
64,192,99704,1,0,0:0:0:0:
320,192,99805,1,0,0:0:0:0:
448,192,99805,1,0,0:0:0:0:
192,192,99906,1,0,0:0:0:0:
64,192,100008,1,0,0:0:0:0:
448,192,100008,1,0,0:0:0:0:
320,192,100109,1,0,0:0:0:0:
192,192,100211,1,0,0:0:0:0:
448,192,100312,1,0,0:0:0:0:
320,192,100413,1,0,0:0:0:0:
64,192,100413,1,0,0:0:0:0:
192,192,100515,1,0,0:0:0:0:
448,192,100616,1,0,0:0:0:0:
64,192,100717,1,0,0:0:0:0:
320,192,100819,1,0,0:0:0:0:
192,192,100920,1,0,0:0:0:0:
320,192,101021,1,0,0:0:0:0:
448,192,101123,1,0,0:0:0:0:
192,192,101224,1,0,0:0:0:0:
64,192,101292,1,0,0:0:0:0:
320,192,101359,1,0,0:0:0:0:
192,192,101427,1,0,0:0:0:0:
448,192,101528,1,0,0:0:0:0:
64,192,101629,1,0,0:0:0:0:
320,192,101697,1,0,0:0:0:0:
192,192,101765,1,0,0:0:0:0:
448,192,101832,1,0,0:0:0:0:
64,192,101933,1,0,0:0:0:0:
192,192,102035,1,0,0:0:0:0:
448,192,102035,1,0,0:0:0:0:
320,192,102136,1,0,0:0:0:0:
64,192,102238,1,0,0:0:0:0:
192,192,102238,1,0,0:0:0:0:
448,192,102339,1,0,0:0:0:0:
320,192,102440,1,0,0:0:0:0:
64,192,102440,1,0,0:0:0:0:
192,192,102542,1,0,0:0:0:0:
448,192,102643,1,0,0:0:0:0:
320,192,102643,1,0,0:0:0:0:
64,192,102744,1,0,0:0:0:0:
192,192,102846,1,0,0:0:0:0:
448,192,102846,1,0,0:0:0:0:
320,192,102947,1,0,0:0:0:0:
64,192,103048,1,0,0:0:0:0:
448,192,103150,1,0,0:0:0:0:
320,192,103251,1,0,0:0:0:0:
192,192,103352,1,0,0:0:0:0:
448,192,103454,1,0,0:0:0:0:
64,192,103555,1,0,0:0:0:0:
192,192,103656,1,0,0:0:0:0:
448,192,103656,1,0,0:0:0:0:
320,192,103758,1,0,0:0:0:0:
64,192,103859,1,0,0:0:0:0:
448,192,103961,1,0,0:0:0:0:
64,192,104062,1,0,0:0:0:0:
192,192,104163,1,0,0:0:0:0:
320,192,104265,1,0,0:0:0:0:
448,192,104265,1,0,0:0:0:0:
64,192,104366,1,0,0:0:0:0:
192,192,104467,1,0,0:0:0:0:
448,192,104467,1,0,0:0:0:0:
320,192,104569,1,0,0:0:0:0:
64,192,104670,1,0,0:0:0:0:
448,192,104771,1,0,0:0:0:0:
192,192,104873,1,0,0:0:0:0:
320,192,104974,1,0,0:0:0:0:
64,192,105075,1,0,0:0:0:0:
192,192,105177,1,0,0:0:0:0:
320,192,105278,1,0,0:0:0:0:
448,192,105278,1,0,0:0:0:0:
64,192,105359,1,0,0:0:0:0:
192,192,105440,1,0,0:0:0:0:
320,192,105521,1,0,0:0:0:0:
64,192,105602,5,0,0:0:0:0:
448,192,105683,1,0,0:0:0:0:
192,192,105683,1,0,0:0:0:0:
320,192,105785,1,0,0:0:0:0:
192,192,105886,1,0,0:0:0:0:
64,192,105886,1,0,0:0:0:0:
448,192,105988,1,0,0:0:0:0:
320,192,106044,1,0,0:0:0:0:
64,192,106089,1,0,0:0:0:0:
192,192,106494,1,0,0:0:0:0:
320,192,106494,1,0,0:0:0:0:
320,192,106948,1,0,0:0:0:0:
192,192,106948,1,0,0:0:0:0:
320,192,107857,1,0,0:0:0:0:
192,192,107857,1,0,0:0:0:0:
320,192,108312,1,0,0:0:0:0:
192,192,108312,1,0,0:0:0:0:
192,192,109789,1,0,0:0:0:0:
320,192,109940,1,0,0:0:0:0:
64,192,110054,1,0,0:0:0:0:
192,192,110130,1,0,0:0:0:0:
320,192,110206,1,0,0:0:0:0:
448,192,110281,1,0,0:0:0:0:
