osu file format v14

[General]
AudioFilename: audio.mp3
AudioLeadIn: 0
PreviewTime: 48833
Countdown: 0
SampleSet: Soft
StackLeniency: 0.7
Mode: 2
LetterboxInBreaks: 0
WidescreenStoryboard: 1

[Editor]
Bookmarks: 2015,9981,17753
DistanceSpacing: 1.6
BeatDivisor: 6
GridSize: 16
TimelineZoom: 2.299999

[Metadata]
Title:Cat
TitleUnicode:Cat
Artist:Kazui (CV: Ryota Takeuchi)
ArtistUnicode:カズイ (CV: 竹内良太)
Creator:rew0825
Version:Overdose
Source:MILGRAM
Tags:ミルグラム 椋原 一威 Mukuhara Ryōta Ryouta DECO*27 Rockwell OTOIRO akka DMYM 山中拓也 Takuya Yamanaka Male Vocal Vocals Japanese Jazz Rock Swing
BeatmapID:4259017
BeatmapSetID:2033493

[Difficulty]
HPDrainRate:6
CircleSize:4
OverallDifficulty:9.4
ApproachRate:9.4
SliderMultiplier:1.65
SliderTickRate:0.5

[Events]
//Background and Video events
0,0,"bg.png",0,0
Video,50,"vdo.m4v"
//Break Periods
2,140308,150342
//Storyboard Layer 0 (Background)
//Storyboard Layer 1 (Fail)
//Storyboard Layer 2 (Pass)
//Storyboard Layer 3 (Foreground)
//Storyboard Layer 4 (Overlay)
//Storyboard Sound Samples

[TimingPoints]
145,245.901639344262,4,2,25,50,1,0
5800,-100,4,2,1,50,0,0
5841,-100,4,2,25,50,0,0
7030,-100,4,3,1,50,0,0
7071,-100,4,2,25,50,0,0
7440,-100,4,3,1,50,0,0
7481,-100,4,2,25,50,0,0
7767,-100,4,3,1,50,0,0
7808,-100,4,2,25,50,0,0
9981,-100,4,2,25,60,0,0
17358,-100,4,3,1,60,0,0
17849,-100,4,2,25,40,0,0
24653,-90.9090909090909,4,2,25,40,0,0
25144,-100,4,2,25,40,0,0
25718,-100,4,2,25,50,0,0
33259,-100,4,3,1,50,0,0
33300,-100,4,2,25,50,0,0
45226,-100,4,3,1,50,0,0
45390,-100,4,2,25,60,0,0
49325,-100,4,2,25,65,0,1
56702,-100,4,3,1,65,0,1
57194,-100,4,2,25,65,0,1
64571,-100,4,3,1,65,0,1
65063,-100,4,2,25,60,0,0
66046,-100,4,3,1,60,0,0
66087,-100,4,2,25,60,0,0
66456,-100,4,3,1,60,0,0
66497,-100,4,2,25,60,0,0
66784,-100,4,3,1,60,0,0
66825,-100,4,2,25,60,0,0
68997,-100,4,2,25,40,0,0
84735,-100,4,2,25,50,0,0
104243,-100,4,3,1,50,0,0
104407,-100,4,2,25,60,0,0
107849,-90.9090909090909,4,2,25,60,0,0
108013,-100,4,3,1,60,0,0
108341,-100,4,2,25,65,0,1
115718,-100,4,3,1,65,0,1
116210,-100,4,2,25,65,0,1
122112,-86.9565217391304,4,2,25,65,0,1
122358,-100,4,2,25,65,0,1
123669,-100,4,3,1,65,0,1
123833,-100,4,2,25,65,0,1
123997,-100,4,3,1,65,0,1
124079,-100,4,2,25,50,0,0
131948,-100,4,2,25,60,0,0
151374,245.901639344262,4,2,25,60,1,0
152849,-100,4,3,1,60,0,0
153341,-100,4,2,25,60,0,0
155308,-100,4,2,25,50,0,0
158259,-100,4,2,25,60,0,0
159242,-100,4,2,25,65,0,1
163013,-100,4,3,1,65,0,1
163177,-100,4,2,25,65,0,1
165472,-100,4,3,1,65,0,1
165636,-100,4,2,25,65,0,1
166210,-100,4,3,1,65,0,1
166373,-100,4,2,25,65,0,1
167111,-100,4,2,25,60,0,0
172767,-100,4,3,1,60,0,0
172931,-100,4,2,25,60,0,0

[Colours]
Combo1 : 133,235,140
Combo2 : 84,194,218
Combo3 : 209,134,234
Combo4 : 238,115,170
Combo5 : 233,215,114

[HitObjects]
366,323,2112,6,0,L|366:240,1,82.5,0|2,1:2|0:0,0:0:0:0:
311,241,2317,1,2,0:0:0:0:
145,241,2481,2,0,L|202:241,1,55,2|2,0:0|0:0,0:0:0:0:
366,241,2726,2,0,P|423:198|365:159,1,165,2|2,0:0|0:0,0:0:0:0:
186,159,3054,6,0,L|185:271,1,110,2|2,0:0|0:0,0:0:0:0:
285,268,3300,2,0,L|286:149,1,110,2|2,0:0|0:0,0:0:0:0:
186,159,3546,2,0,L|70:159,1,110,2|2,0:0|0:0,0:0:0:0:
407,159,3956,6,0,P|409:202|252:280,1,247.5,2|2,0:0|0:0,0:0:0:0:
468,280,4571,1,2,0:0:0:0:
303,280,4735,2,0,L|469:280,1,165,2|2,0:0|0:0,0:0:0:0:
289,280,5063,6,0,L|171:280,1,110,2|2,0:0|0:0,0:0:0:0:
279,280,5308,2,0,L|393:280,1,110,2|2,0:0|0:0,0:0:0:0:
102,280,5800,1,8,0:0:0:0:
432,280,6046,6,0,P|459:226|317:125,1,275,4|8,1:3|0:3,0:0:0:0:
140,124,6538,2,0,L|140:238,1,110,8|0,0:3|0:0,0:0:0:0:
240,234,6784,2,0,L|351:234,1,110,8|0,0:3|0:0,0:0:0:0:
171,234,7030,6,0,L|39:234,1,110,8|8,2:3|2:3,0:0:0:0:
63,178,7276,1,8,2:3:0:0:
118,178,7358,1,8,2:3:0:0:
294,178,7440,2,0,L|294:67,1,110,8|8,2:3|2:3,0:0:0:0:
238,68,7685,1,8,2:3:0:0:
138,68,7767,2,0,L|76:69,2,55,8|0|0,2:3|3:2|3:2,0:0:0:0:
317,68,8013,6,0,L|430:68,1,110,2|0,1:2|0:0,0:0:0:0:
426,123,8259,1,0,0:0:0:0:
370,123,8341,1,0,0:0:0:0:
270,123,8423,2,0,L|270:235,1,110,2|0,0:0|0:0,0:0:0:0:
325,233,8669,1,0,0:0:0:0:
424,233,8751,2,0,L|425:349,1,110,2|0,0:0|0:0,0:0:0:0:
207,342,8997,5,8,2:3:0:0:
52,342,9161,2,0,L|53:282,1,55,8|0,2:3|0:0,0:0:0:0:
209,282,9407,1,8,2:3:0:0:
264,282,9489,2,0,L|143:282,1,110,0|8,1:2|2:3,0:0:0:0:
368,282,9735,1,8,2:3:0:0:
427,282,9817,1,8,2:3:0:0:
368,282,9899,1,0,3:2:0:0:
115,282,9981,6,0,P|111:255|211:192,1,165,6|8,1:2|3:2,0:0:0:0:
209,191,10390,1,0,0:0:0:0:
32,191,10472,2,0,L|31:77,1,110,2|0,1:2|0:0,0:0:0:0:
136,81,10718,2,0,L|137:193,1,110,8|0,3:2|0:0,0:0:0:0:
354,190,10964,6,0,L|467:190,1,110,2|2,1:2|0:0,0:0:0:0:
408,190,11210,1,8,3:2:0:0:
150,191,11374,1,2,0:0:0:0:
94,191,11456,2,0,L|93:301,1,110,0|0,1:2|0:0,0:0:0:0:
193,300,11702,2,0,L|194:187,1,110,10|0,3:2|0:0,0:0:0:0:
450,190,11948,5,6,1:2:0:0:
236,190,12194,2,0,L|236:299,1,110,10|0,3:2|0:0,0:0:0:0:
414,300,12440,2,0,L|414:185,1,110,2|0,1:2|0:0,0:0:0:0:
312,190,12685,2,0,L|311:81,1,110,8|0,3:2|0:0,0:0:0:0:
111,81,12931,6,0,L|110:191,1,110,2|2,1:2|0:0,0:0:0:0:
166,190,13177,1,8,3:2:0:0:
420,190,13341,1,2,0:0:0:0:
476,190,13423,2,0,L|363:190,1,110,0|0,1:2|3:2,0:0:0:0:
149,190,13669,1,10,3:2:0:0:
94,190,13751,1,0,3:2:0:0:
149,190,13833,1,0,3:2:0:0:
402,190,13915,6,0,P|406:163|306:100,1,165,6|0,1:2|3:2,0:0:0:0:
308,99,14325,1,0,0:0:0:0:
484,99,14407,2,0,L|485:213,1,110,2|2,1:2|0:0,0:0:0:0:
380,209,14653,2,0,L|379:97,1,110,0|2,3:2|0:0,0:0:0:0:
164,99,14899,6,0,L|47:99,1,110,2|2,1:2|0:0,0:0:0:0:
109,99,15144,1,0,3:2:0:0:
362,99,15308,2,0,L|297:99,1,55,2|0,0:0|1:2,0:0:0:0:
140,99,15554,1,2,0:0:0:0:
84,99,15636,2,0,L|83:214,1,110,0|0,3:2|0:0,0:0:0:0:
300,208,15882,5,6,1:3:0:0:
146,208,16046,2,0,L|145:263,1,55,2|0,0:0|3:2,0:0:0:0:
398,262,16292,2,0,L|397:323,1,55,2|2,0:0|1:2,0:0:0:0:
231,316,16538,2,0,L|173:316,1,55,2|0,0:0|3:2,0:0:0:0:
452,316,16784,6,0,P|454:287|353:223,1,165,6|0,3:2|1:2,0:0:0:0:
139,222,17112,2,0,L|85:222,1,55,2|0,3:2|3:2,0:0:0:0:
85,166,17276,1,0,3:2:0:0:
292,166,17358,1,8,2:3:0:0:
347,166,17440,1,8,2:3:0:0:
292,166,17522,1,8,2:3:0:0:
192,166,17604,2,0,L|128:166,2,55,4|4|4,2:3|2:3|2:3,0:0:0:0:
448,166,17849,6,0,P|496:131|445:60,1,165,6|0,1:2|0:0,0:0:0:0:
213,60,18341,1,2,0:0:0:0:
378,60,18505,2,0,L|322:60,1,55,2|0,0:0|0:0,0:0:0:0:
68,60,18751,6,0,P|22:107|66:181,1,165,2|0,0:0|0:0,0:0:0:0:
122,181,19079,1,0,0:0:0:0:
353,181,19325,2,0,L|353:295,1,110,0|2,3:2|0:0,0:0:0:0:
252,291,19571,2,0,L|135:291,1,110,0|2,0:0|0:0,0:0:0:0:
318,291,19817,6,0,L|429:291,1,110,2|2,0:0|1:2,0:0:0:0:
327,291,20063,2,0,L|327:180,1,110,2|2,0:0|0:0,0:0:0:0:
427,181,20308,2,0,L|427:71,1,110,2|0,0:0|0:0,0:0:0:0:
371,71,20554,1,2,0:0:0:0:
117,71,20718,6,0,L|230:71,1,110,2|0,0:0|1:2,0:0:0:0:
260,115,20964,1,0,1:2:0:0:
227,71,21046,1,2,3:2:0:0:
61,71,21210,2,0,P|57:105|153:171,1,165,0|0,3:2|3:2,0:0:0:0:
329,171,21538,2,0,L|392:171,2,55,0|0|0,1:2|3:2|3:2,0:0:0:0:
111,171,21784,6,0,P|60:229|112:283,1,165,6|0,1:3|0:0,0:0:0:0:
341,282,22276,2,0,L|453:282,1,110,2|2,0:0|0:0,0:0:0:0:
395,282,22522,1,0,0:0:0:0:
141,282,22685,6,0,P|88:282|48:188,1,165,2|0,0:0|0:0,0:0:0:0:
102,190,23013,1,0,0:0:0:0:
334,190,23259,2,0,L|334:81,1,110,0|0,3:2|0:0,0:0:0:0:
234,80,23505,2,0,L|122:81,1,110,2|2,0:0|0:0,0:0:0:0:
302,79,23751,6,0,L|418:79,1,110,2|2,0:0|1:2,0:0:0:0:
412,79,23997,2,0,L|301:79,1,110,0|2,0:0|0:0,0:0:0:0:
201,79,24243,2,0,L|89:80,1,110,2|0,0:0|0:0,0:0:0:0:
146,79,24489,1,2,0:0:0:0:
397,79,24653,6,0,L|267:79,1,121.000003692627,2|0,0:0|1:2,0:0:0:0:
245,131,24899,1,0,3:2:0:0:
276,79,24981,2,0,L|401:80,1,121.000003692627,2|0,3:2|3:2,0:0:0:0:
396,79,25390,1,0,3:2:0:0:
181,79,25472,2,0,L|118:79,2,55,0|0|0,1:2|3:2|3:2,0:0:0:0:
437,79,25718,5,6,1:2:0:0:
239,79,25964,2,0,L|239:190,1,110,2|0,0:0|0:0,0:0:0:0:
339,189,26210,2,0,L|339:304,1,110,2|0,0:0|0:0,0:0:0:0:
238,299,26456,2,0,L|117:300,1,110,2|0,0:0|0:0,0:0:0:0:
306,299,26702,6,0,L|421:299,1,110,2|2,0:0|0:0,0:0:0:0:
184,299,27112,2,0,L|184:240,1,55,2|0,0:0|3:2,0:0:0:0:
350,244,27358,2,0,L|414:245,1,55,2|0,0:0|3:2,0:0:0:0:
128,244,27604,6,0,P|72:205|129:158,1,165,2|0,3:2|1:2,0:0:0:0:
235,158,27931,2,0,L|344:159,1,110,0|0,1:2|0:0,0:0:0:0:
239,159,28177,2,0,L|125:159,1,110,0|0,1:2|0:0,0:0:0:0:
23,159,28423,2,0,L|23:275,1,110,2|0,0:0|0:0,0:0:0:0:
201,269,28669,5,2,0:0:0:0:
355,269,28833,2,0,L|355:211,1,55,2|0,0:0|0:0,0:0:0:0:
199,214,29079,1,2,0:0:0:0:
143,214,29161,2,0,L|143:102,1,110,2|2,0:0|3:2,0:0:0:0:
360,104,29407,2,0,L|416:102,2,55,2|0|0,1:2|3:2|3:2,0:0:0:0:
106,104,29653,5,4,1:3:0:0:
304,104,29899,2,0,L|304:215,1,110,2|0,0:0|0:0,0:0:0:0:
204,214,30144,2,0,L|204:329,1,110,2|0,0:0|0:0,0:0:0:0:
305,324,30390,2,0,L|426:325,1,110,2|0,0:0|0:0,0:0:0:0:
237,324,30636,6,0,L|122:324,1,110,2|2,0:0|0:0,0:0:0:0:
359,324,31046,2,0,L|359:265,1,55,2|0,0:0|3:2,0:0:0:0:
193,269,31292,2,0,L|129:270,1,55,2|0,0:0|3:2,0:0:0:0:
415,269,31538,6,0,P|471:230|414:183,1,165,2|0,3:2|1:2,0:0:0:0:
311,183,31866,2,0,L|311:73,1,110,0|2,1:2|0:0,0:0:0:0:
211,73,32112,2,0,L|211:188,1,110,0|0,0:0|0:0,0:0:0:0:
311,183,32358,2,0,L|426:183,1,110,2|0,0:0|0:0,0:0:0:0:
242,183,32604,6,0,L|241:295,1,110,2|0,0:0|0:0,0:0:0:0:
341,292,32849,2,0,L|223:291,1,110,2|0,0:0|0:0,0:0:0:0:
131,293,33095,2,0,L|131:182,1,110,2|8,0:0|2:3,0:0:0:0:
309,183,33341,2,0,L|429:183,1,110,2|0,0:0|3:2,0:0:0:0:
201,183,33587,6,0,P|127:171|117:89,1,165,6|0,1:2|0:0,0:0:0:0:
226,92,33997,1,0,0:0:0:0:
325,92,34079,2,0,P|382:139|325:180,1,165,2|0,0:0|0:0,0:0:0:0:
214,180,34489,1,0,0:0:0:0:
114,180,34571,6,0,P|57:227|114:268,1,165,2|2,0:0|0:0,0:0:0:0:
343,268,35063,2,0,P|416:258|424:179,1,165,2|0,3:2|0:0,0:0:0:0:
313,178,35472,1,2,0:0:0:0:
136,178,35554,6,0,L|136:63,1,110,2|2,1:2|0:0,0:0:0:0:
191,68,35800,1,2,0:0:0:0:
356,68,35964,2,0,L|287:69,1,55,2|0,0:0|0:0,0:0:0:0:
134,68,36210,2,0,L|134:124,1,55,2|0,0:0|0:0,0:0:0:0:
388,123,36456,5,2,0:0:0:0:
421,167,36538,1,0,0:0:0:0:
386,210,36620,1,0,1:2:0:0:
330,210,36702,1,0,3:2:0:0:
230,210,36784,2,0,L|230:324,1,110,2|0,0:0|3:2,0:0:0:0:
330,320,37030,2,0,L|330:211,1,110,2|2,0:0|3:2,0:0:0:0:
115,210,37276,2,0,L|51:210,2,55,0|0|0,1:2|3:2|3:2,0:0:0:0:
386,210,37522,6,0,L|386:100,1,110,6|2,1:2|0:0,0:0:0:0:
285,100,37767,2,0,L|161:100,1,110,2|2,0:0|0:0,0:0:0:0:
74,100,38013,2,0,L|205:100,1,110,2|2,1:2|0:0,0:0:0:0:
284,100,38259,2,0,L|284:213,1,110,0|2,0:0|0:0,0:0:0:0:
105,210,38505,6,0,L|105:322,1,110,0|2,1:2|0:0,0:0:0:0:
205,320,38751,2,0,L|325:320,1,110,0|2,0:0|0:0,0:0:0:0:
415,320,38997,2,0,L|415:200,1,110,2|2,3:2|0:0,0:0:0:0:
314,210,39243,2,0,L|432:210,1,110,0|2,3:2|3:2,0:0:0:0:
167,210,39489,6,0,L|47:210,1,110,6|2,1:2|1:2,0:0:0:0:
263,210,39899,2,0,L|319:210,1,55,2|0,1:2|1:2,0:0:0:0:
151,210,40144,1,2,1:2:0:0:
95,210,40226,2,0,L|95:99,1,110,0|0,0:0|1:2,0:0:0:0:
312,100,40472,6,0,P|369:136|311:183,1,165,2|0,1:2|0:0,0:0:0:0:
145,183,40882,1,0,3:2:0:0:
89,183,40964,2,0,L|205:183,1,110,2|8,1:2|0:3,0:0:0:0:
416,183,41210,2,0,L|471:182,2,55,2|0|0,1:2|0:0|3:2,0:0:0:0:
159,183,41456,6,0,L|159:299,1,110,6|2,1:2|0:0,0:0:0:0:
214,293,41702,1,2,0:0:0:0:
379,293,41866,2,0,L|321:292,1,55,2|0,0:0|0:0,0:0:0:0:
158,292,42112,2,0,L|89:292,1,55,2|0,0:0|0:0,0:0:0:0:
379,292,42358,6,0,P|381:254|280:207,1,165,6|0,1:2|1:2,0:0:0:0:
181,206,42685,2,0,L|180:94,1,110,2|0,0:0|0:0,0:0:0:0:
358,96,42931,2,0,L|358:209,1,110,2|0,0:0|0:0,0:0:0:0:
258,206,43177,2,0,L|136:206,1,110,2|0,0:0|3:2,0:0:0:0:
365,206,43423,6,0,L|365:94,1,110,6|2,1:2|0:0,0:0:0:0:
309,96,43669,1,0,0:0:0:0:
143,96,43833,2,0,L|206:96,1,55,2|0,0:0|0:0,0:0:0:0:
364,96,44079,2,0,L|419:96,1,55,2|0,0:0|0:0,0:0:0:0:
142,96,44325,6,0,P|84:137|142:179,1,165,6|0,1:2|1:2,0:0:0:0:
239,179,44653,2,0,L|354:179,1,110,2|0,0:0|0:0,0:0:0:0:
170,179,44899,2,0,L|105:178,2,55,10|8|0,0:3|0:3|3:2,0:0:0:0:
349,179,45144,2,0,L|414:178,2,55,2|8|8,1:2|2:3|2:3,0:0:0:0:
131,179,45390,6,0,L|21:178,1,110,6|2,1:2|0:0,0:0:0:0:
253,178,45800,1,2,0:0:0:0:
308,178,45882,2,0,L|308:290,1,110,2|2,1:2|0:0,0:0:0:0:
129,288,46128,2,0,L|129:178,1,110,0|2,0:0|0:0,0:0:0:0:
184,178,46374,5,2,1:2:0:0:
437,178,46538,2,0,P|439:141|340:83,1,165,2|2,0:0|0:0,0:0:0:0:
163,82,46866,2,0,L|163:195,1,110,2|0,1:2|0:0,0:0:0:0:
339,192,47112,2,0,L|453:193,1,110,2|0,3:2|0:0,0:0:0:0:
192,192,47358,5,6,1:2:0:0:
49,192,47522,1,6,1:2:0:0:
192,192,47685,1,6,1:2:0:0:
467,192,47849,1,6,3:3:0:0:
324,192,48013,1,6,3:3:0:0:
467,192,48177,1,6,1:2:0:0:
191,192,48341,1,6,3:2:0:0:
191,192,48833,5,0,3:2:0:0:
367,192,48915,2,0,L|426:192,2,55,8|8|0,0:3|0:3|3:2,0:0:0:0:
149,192,49161,2,0,L|72:193,1,55,8|0,0:3|3:2,0:0:0:0:
350,192,49325,6,0,P|402:190|458:100,1,165,6|8,1:2|3:2,0:0:0:0:
126,102,49817,2,0,P|74:104|18:194,1,165,2|8,1:2|3:2,0:0:0:0:
364,191,50308,6,0,L|479:191,1,110,2|2,1:2|0:0,0:0:0:0:
418,191,50554,1,8,3:2:0:0:
164,191,50718,1,2,0:0:0:0:
108,191,50800,2,0,L|108:80,1,110,0|0,1:2|0:0,0:0:0:0:
286,81,51046,2,0,L|406:81,1,110,10|0,3:2|3:2,0:0:0:0:
139,81,51292,6,0,P|87:83|31:173,1,165,6|8,1:2|3:2,0:0:0:0:
363,171,51784,2,0,P|415:169|471:79,1,165,2|8,1:2|3:2,0:0:0:0:
123,81,52276,6,0,L|123:193,1,110,2|2,1:2|0:0,0:0:0:0:
178,191,52522,1,8,3:2:0:0:
429,191,52685,1,2,0:0:0:0:
484,191,52767,2,0,L|354:191,1,110,0|0,1:2|3:2,0:0:0:0:
156,191,53013,2,0,L|79:192,2,55,8|0|0,3:2|3:2|3:2,0:0:0:0:
412,191,53259,6,0,L|412:307,1,110,6|0,1:2|0:0,0:0:0:0:
233,301,53505,2,0,L|109:301,1,110,2|0,3:2|0:0,0:0:0:0:
178,301,53751,1,2,1:2:0:0:
431,301,53915,2,0,L|365:301,1,55,2|0,0:0|3:2,0:0:0:0:
121,301,54161,1,2,0:0:0:0:
65,301,54243,6,0,L|65:191,1,110,0|0,1:2|0:0,0:0:0:0:
243,191,54489,2,0,L|373:191,1,110,2|0,3:2|0:0,0:0:0:0:
174,191,54735,2,0,L|174:70,1,110,2|0,1:2|0:0,0:0:0:0:
353,81,54981,2,0,L|353:198,1,110,2|0,3:2|0:0,0:0:0:0:
138,191,55226,6,0,L|21:191,1,110,6|2,1:3|0:0,0:0:0:0:
83,191,55472,1,0,3:2:0:0:
336,191,55636,2,0,L|394:191,1,55,2|0,0:0|1:2,0:0:0:0:
136,191,55882,2,0,L|64:191,1,55,2|0,0:0|3:2,0:0:0:0:
357,191,56128,6,0,P|414:147|356:103,1,165,6|0,3:2|1:2,0:0:0:0:
140,102,56456,2,0,L|73:102,2,55,0|0|0,3:2|3:2|3:2,0:0:0:0:
318,102,56702,1,8,2:3:0:0:
318,157,56784,1,8,2:3:0:0:
262,157,56866,1,12,2:3:0:0:
162,157,56948,1,12,2:3:0:0:
162,101,57030,1,4,2:3:0:0:
218,102,57112,1,4,2:3:0:0:
471,102,57194,6,0,P|440:175|362:191,1,165,6|8,1:2|3:2,0:0:0:0:
32,191,57685,2,0,L|33:301,1,110,2|0,1:2|0:0,0:0:0:0:
88,300,57931,1,8,3:2:0:0:
434,300,58177,6,0,L|434:190,1,110,2|2,1:2|0:0,0:0:0:0:
378,190,58423,1,8,3:2:0:0:
124,190,58587,1,2,0:0:0:0:
68,190,58669,2,0,L|192:190,1,110,0|0,1:2|0:0,0:0:0:0:
356,190,58915,2,0,L|223:189,1,110,10|0,3:2|0:0,0:0:0:0:
28,189,59161,6,0,L|28:75,1,110,6|0,1:2|0:0,0:0:0:0:
206,79,59407,2,0,L|321:79,1,110,8|0,3:2|0:0,0:0:0:0:
137,79,59653,2,0,P|81:117|137:167,1,165,2|8,1:2|3:2,0:0:0:0:
467,166,60144,6,0,L|467:277,1,110,2|2,1:2|0:0,0:0:0:0:
411,276,60390,1,8,3:2:0:0:
157,276,60554,1,2,0:0:0:0:
101,276,60636,2,0,L|101:165,1,110,0|0,1:2|3:2,0:0:0:0:
318,166,60882,2,0,L|376:166,2,55,10|0|0,3:2|3:2|3:2,0:0:0:0:
61,166,61128,6,0,L|61:53,1,110,6|0,1:2|0:0,0:0:0:0:
161,56,61374,2,0,L|161:171,1,110,2|0,3:2|0:0,0:0:0:0:
339,166,61620,2,0,L|455:166,1,110,2|0,1:2|0:0,0:0:0:0:
270,166,61866,2,0,L|152:166,1,110,2|0,3:2|0:0,0:0:0:0:
377,166,62112,6,0,L|377:279,1,110,2|0,1:2|0:0,0:0:0:0:
276,276,62358,2,0,L|276:167,1,110,2|0,3:2|0:0,0:0:0:0:
97,166,62604,2,0,L|97:54,1,110,2|0,1:2|0:0,0:0:0:0:
275,56,62849,2,0,L|393:56,1,110,2|0,3:2|0:0,0:0:0:0:
131,56,63095,6,0,P|75:93|132:143,1,165,6|0,1:2|1:0,0:0:0:0:
386,143,63505,2,0,P|444:184|385:227,1,165,4|0,3:3|1:0,0:0:0:0:
287,227,63833,2,0,L|412:227,1,110,0|0,1:0|0:0,0:0:0:0:
179,227,64079,6,0,L|114:228,2,55,0|0|0,3:2|3:2|3:2,0:0:0:0:
358,227,64325,2,0,L|438:227,2,55,0|0|0,3:2|3:2|3:2,0:0:0:0:
141,227,64571,1,8,2:3:0:0:
86,227,64653,1,8,2:3:0:0:
141,227,64735,1,8,2:3:0:0:
240,227,64817,1,4,2:3:0:0:
240,171,64899,1,4,2:3:0:0:
180,171,64981,1,4,2:3:0:0:
433,171,65063,6,0,L|433:60,1,110,4|2,1:2|0:0,0:0:0:0:
377,61,65308,1,2,0:0:0:0:
162,61,65390,2,0,L|89:60,2,55,4|2|2,1:2|0:0|0:0,0:0:0:0:
416,61,65718,2,0,P|417:98|316:150,1,165,2|2,0:0|1:2,0:0:0:0:
100,150,66046,6,0,L|100:260,1,110,8|10,2:3|0:3,0:0:0:0:
278,260,66292,1,2,3:2:0:0:
311,216,66374,1,0,3:2:0:0:
278,171,66456,1,8,2:3:0:0:
217,171,66538,1,2,0:0:0:0:
393,171,66620,2,0,L|451:171,2,55,10|10|8,0:3|0:3|2:3,0:0:0:0:
116,171,66948,6,0,P|61:137|121:87,1,165,2|0,1:2|0:0,0:0:0:0:
296,86,67276,2,0,L|406:86,1,110,2|0,0:0|0:0,0:0:0:0:
350,86,67522,1,2,0:0:0:0:
98,86,67685,2,0,P|41:129|99:172,1,165,2|2,0:0|0:0,0:0:0:0:
314,172,68013,6,0,L|426:172,1,110,2|2,1:2|0:0,0:0:0:0:
368,172,68259,1,10,2:3:0:0:
114,172,68423,2,0,P|112:217|213:258,1,165,10|0,2:3|0:0,0:0:0:0:
107,260,68751,2,0,L|107:151,1,110,2|0,0:0|0:0,0:0:0:0:
363,150,68997,6,0,P|421:119|364:72,1,165,6|0,1:2|0:0,0:0:0:0:
198,71,69407,2,0,L|198:132,1,55,0|0,0:0|0:0,0:0:0:0:
364,126,69653,2,0,L|424:126,1,55,2|0,0:0|0:0,0:0:0:0:
164,126,69899,6,0,L|104:126,1,55,2|0,0:0|0:0,0:0:0:0:
274,126,70144,1,0,3:2:0:0:
329,126,70226,2,0,L|329:236,1,110,0|0,3:2|0:0,0:0:0:0:
150,236,70472,2,0,L|150:354,1,110,2|0,3:2|0:0,0:0:0:0:
250,346,70718,2,0,L|373:346,1,110,0|0,3:2|3:2,0:0:0:0:
360,346,70964,5,2,0:0:0:0:
194,346,71128,1,0,1:2:0:0:
138,346,71210,2,0,L|138:237,1,110,0|0,3:2|0:0,0:0:0:0:
238,236,71456,2,0,L|115:236,1,110,2|0,0:0|3:2,0:0:0:0:
128,236,71702,1,0,3:2:0:0:
381,236,71866,5,2,0:0:0:0:
414,192,71948,1,0,0:0:0:0:
381,236,72030,1,0,1:2:0:0:
325,236,72112,1,0,3:2:0:0:
381,236,72194,1,0,3:2:0:0:
215,236,72358,1,0,3:2:0:0:
156,236,72440,2,0,L|156:127,1,110,2|0,0:0|3:2,0:0:0:0:
370,126,72685,2,0,L|436:127,2,55,0|0|0,1:2|3:2|3:2,0:0:0:0:
113,126,72931,6,0,P|56:165|113:211,1,165,4|0,1:2|3:2,0:0:0:0:
344,211,73423,2,0,L|344:323,1,110,2|0,0:0|3:2,0:0:0:0:
288,321,73669,1,0,3:2:0:0:
122,321,73833,5,2,0:0:0:0:
177,321,73915,2,0,L|177:210,1,110,0|0,0:0|3:2,0:0:0:0:
277,211,74161,2,0,L|396:211,1,110,0|0,3:2|0:0,0:0:0:0:
208,211,74407,1,2,3:2:0:0:
42,211,74653,2,0,L|42:101,1,110,2|0,3:2|3:2,0:0:0:0:
220,101,74899,6,0,L|331:101,1,110,2|0,0:0|1:2,0:0:0:0:
230,101,75144,2,0,L|230:221,1,110,0|0,3:2|0:0,0:0:0:0:
330,211,75390,2,0,L|442:210,1,110,2|0,0:0|3:2,0:0:0:0:
384,210,75636,1,0,3:2:0:0:
130,210,75800,5,2,0:0:0:0:
74,210,75882,2,0,L|74:96,1,110,0|0,0:0|3:2,0:0:0:0:
174,100,76128,2,0,L|42:100,1,110,0|0,3:2|3:2,0:0:0:0:
119,100,76374,1,2,0:0:0:0:
372,100,76538,2,0,L|432:99,1,55,0|0,3:2|1:2,0:0:0:0:
209,99,76702,2,0,L|137:99,1,55,0|0,3:2|3:2,0:0:0:0:
410,99,76866,6,0,P|483:173|389:232,1,247.5,6|6,1:2|1:2,0:0:0:0:
141,234,77604,6,0,P|280:215|358:54,1,330,0|0,0:0|0:0,0:0:0:0:
141,234,78587,6,0,P|280:215|358:54,1,330,0|0,0:0|0:0,0:0:0:0:
141,234,79571,6,0,P|280:215|358:54,2,330,0|0|0,0:0|0:0|0:0,0:0:0:0:
471,234,80800,6,0,L|471:114,1,110,2|0,0:0|0:0,0:0:0:0:
415,124,81046,1,0,0:0:0:0:
183,124,81292,2,0,P|125:129|94:220,1,165,2|0,0:0|0:0,0:0:0:0:
348,219,81702,6,0,P|423:265|338:329,1,220,2|0,0:0|0:0,0:0:0:0:
182,332,82276,1,0,0:0:0:0:
347,332,82440,2,0,L|411:332,1,55,2|0,0:0|0:0,0:0:0:0:
71,332,82767,6,0,L|71:216,1,110,2|0,0:0|0:0,0:0:0:0:
126,222,83013,2,0,L|235:222,1,110,0|0,0:0|0:0,0:0:0:0:
414,222,83259,2,0,P|467:187|408:131,1,165,2|0,0:0|0:0,0:0:0:0:
156,130,83669,6,0,L|386:128,1,220,2|0,0:0|0:0,0:0:0:0:
209,128,84161,2,0,L|144:128,1,55,0|2,3:2|0:0,0:0:0:0:
154,128,84407,1,0,3:2:0:0:
369,128,84489,2,0,L|439:127,2,55,0|0|0,1:2|3:2|3:2,0:0:0:0:
113,128,84735,5,6,1:2:0:0:
311,128,84981,2,0,L|311:239,1,110,2|0,0:0|0:0,0:0:0:0:
211,238,85226,2,0,L|321:238,1,110,2|0,0:0|0:0,0:0:0:0:
420,237,85472,2,0,L|299:238,1,110,2|0,0:0|0:0,0:0:0:0:
131,237,85718,6,0,L|131:348,1,110,2|2,0:0|0:0,0:0:0:0:
362,348,86128,2,0,L|303:348,1,55,2|0,0:0|3:2,0:0:0:0:
141,348,86374,2,0,L|195:348,1,55,2|0,0:0|3:2,0:0:0:0:
448,348,86620,6,0,P|452:309|354:258,1,165,2|0,3:2|1:2,0:0:0:0:
255,257,86948,2,0,L|255:147,1,110,0|0,1:2|0:0,0:0:0:0:
154,147,87194,2,0,L|154:37,1,110,0|0,1:2|0:0,0:0:0:0:
254,37,87440,2,0,L|372:37,1,110,2|0,0:0|0:0,0:0:0:0:
187,37,87685,5,2,0:0:0:0:
32,37,87849,2,0,L|92:37,1,55,2|0,0:0|0:0,0:0:0:0:
242,37,88095,1,2,0:0:0:0:
186,37,88177,2,0,L|301:36,1,110,2|2,0:0|3:2,0:0:0:0:
117,36,88423,2,0,L|48:36,2,55,2|0|0,1:2|3:2|3:2,0:0:0:0:
335,36,88669,5,4,1:3:0:0:
136,36,88915,2,0,L|136:150,1,110,2|0,0:0|0:0,0:0:0:0:
236,146,89161,2,0,L|236:258,1,110,2|0,0:0|0:0,0:0:0:0:
135,256,89407,2,0,L|248:256,1,110,2|0,0:0|0:0,0:0:0:0:
423,256,89653,6,0,L|303:255,1,110,2|2,0:0|0:0,0:0:0:0:
80,255,90063,2,0,L|138:253,1,55,2|0,0:0|3:2,0:0:0:0:
300,253,90308,2,0,L|359:253,1,55,2|0,0:0|3:2,0:0:0:0:
100,253,90554,6,0,P|45:221|108:173,1,165,2|0,3:2|1:2,0:0:0:0:
203,170,90882,2,0,L|203:58,1,110,0|0,1:2|0:0,0:0:0:0:
303,60,91128,2,0,L|422:59,1,110,2|0,1:2|0:0,0:0:0:0:
312,59,91374,2,0,L|196:58,1,110,2|0,0:0|0:0,0:0:0:0:
23,58,91620,6,0,L|23:169,1,110,2|0,0:0|0:0,0:0:0:0:
123,168,91866,2,0,L|244:168,1,110,2|0,0:0|0:0,0:0:0:0:
333,168,92112,2,0,L|333:282,1,110,2|8,0:0|2:3,0:0:0:0:
154,278,92358,2,0,L|82:278,2,55,2|0|0,0:0|0:0|3:2,0:0:0:0:
371,278,92604,6,0,P|427:230|369:187,1,165,6|0,1:2|0:0,0:0:0:0:
261,186,93013,1,0,0:0:0:0:
161,186,93095,2,0,P|158:138|256:88,1,165,2|0,0:0|0:0,0:0:0:0:
359,85,93505,1,0,0:0:0:0:
182,85,93587,6,0,P|124:121|182:168,1,165,2|2,0:0|0:0,0:0:0:0:
345,168,93997,2,0,L|282:169,1,55,2|0,0:0|3:2,0:0:0:0:
123,168,94243,2,0,L|65:168,1,55,2|0,0:0|0:0,0:0:0:0:
449,168,94571,6,0,L|449:278,1,110,0|0,1:2|1:2,0:0:0:0:
348,278,94817,2,0,P|283:275|247:191,1,165,2|0,0:0|0:0,0:0:0:0:
411,191,95226,2,0,P|417:147|321:103,1,165,2|0,3:2|0:0,0:0:0:0:
145,101,95554,6,0,L|145:158,1,55,2|0,0:0|1:2,0:0:0:0:
200,156,95718,1,0,3:2:0:0:
299,156,95800,2,0,L|299:268,1,110,0|0,0:0|3:2,0:0:0:0:
204,266,96046,2,0,L|88:266,1,110,0|0,0:0|3:2,0:0:0:0:
272,266,96292,2,0,L|348:266,1,55,0|0,1:2|3:2,0:0:0:0:
327,210,96456,1,0,3:2:0:0:
112,210,96538,6,0,L|111:94,1,110,6|0,1:2|0:0,0:0:0:0:
211,100,96784,2,0,L|321:101,1,110,2|0,1:2|0:0,0:0:0:0:
421,100,97030,2,0,L|421:214,1,110,2|0,1:2|3:0,0:0:0:0:
320,210,97276,2,0,L|188:210,1,110,2|0,1:2|0:0,0:0:0:0:
388,210,97522,6,0,L|389:327,1,110,2|0,1:2|3:2,0:0:0:0:
289,319,97767,2,0,L|289:206,1,110,2|0,1:2|0:0,0:0:0:0:
188,209,98013,2,0,L|63:209,1,110,2|0,3:2|0:0,0:0:0:0:
178,209,98259,2,0,L|311:209,1,110,2|0,1:2|3:2,0:0:0:0:
70,209,98505,6,0,L|70:99,1,110,6|0,1:2|1:2,0:0:0:0:
170,99,98751,2,0,L|170:153,1,55,2|0,0:0|0:0,0:0:0:0:
114,154,98915,1,0,1:2:0:0:
213,154,98997,2,0,L|212:265,1,110,2|0,1:2|1:2,0:0:0:0:
111,263,99243,2,0,L|40:263,2,55,0|0|0,3:2|3:2|3:2,0:0:0:0:
289,263,99489,6,0,L|410:263,1,110,2|0,1:2|1:2,0:0:0:0:
298,263,99735,2,0,L|298:144,1,110,0|0,3:2|1:2,0:0:0:0:
197,153,99981,2,0,L|63:153,1,110,2|8,3:2|0:3,0:0:0:0:
301,153,100226,2,0,L|427:154,1,110,2|0,3:2|3:2,0:0:0:0:
154,153,100472,6,0,L|154:272,1,110,6|2,1:2|0:0,0:0:0:0:
209,263,100718,1,2,0:0:0:0:
374,263,100882,2,0,L|308:263,1,55,2|0,0:0|0:0,0:0:0:0:
154,263,101128,2,0,L|82:263,1,55,2|0,0:0|0:0,0:0:0:0:
353,263,101374,6,0,P|358:226|259:173,1,165,6|0,1:2|1:2,0:0:0:0:
161,171,101702,2,0,L|161:59,1,110,2|0,0:0|0:0,0:0:0:0:
339,61,101948,2,0,L|338:176,1,110,2|0,0:0|0:0,0:0:0:0:
239,170,102194,2,0,L|112:170,1,110,2|0,0:0|3:2,0:0:0:0:
346,170,102440,6,0,L|346:289,1,110,6|2,1:2|0:0,0:0:0:0:
291,280,102685,1,0,0:0:0:0:
126,280,102849,2,0,L|192:280,1,55,2|0,0:0|0:0,0:0:0:0:
346,280,103095,2,0,L|418:280,1,55,2|0,0:0|0:0,0:0:0:0:
147,280,103341,6,0,P|154:226|248:190,1,165,6|0,1:2|1:2,0:0:0:0:
147,190,103669,2,0,L|146:78,1,110,2|0,0:0|0:0,0:0:0:0:
324,80,103915,2,0,L|387:80,2,55,10|8|0,0:3|0:3|3:2,0:0:0:0:
107,80,104161,2,0,L|44:80,2,55,2|8|8,3:2|2:3|2:3,0:0:0:0:
364,80,104407,6,0,L|492:80,1,110,6|2,1:2|0:0,0:0:0:0:
241,80,104817,1,2,0:0:0:0:
186,80,104899,2,0,L|185:192,1,110,2|2,1:2|0:0,0:0:0:0:
362,190,105144,2,0,L|430:190,2,55,0|0|2,0:0|0:0|0:0,0:0:0:0:
145,190,105390,5,2,1:2:0:0:
34,190,105554,2,0,P|34:240|129:287,1,165,2|2,0:0|0:0,0:0:0:0:
304,287,105882,2,0,L|304:176,1,110,2|0,1:2|0:0,0:0:0:0:
204,177,106128,2,0,L|87:177,1,110,2|0,3:2|0:0,0:0:0:0:
350,177,106374,5,6,1:2:0:0:
493,177,106538,1,6,1:2:0:0:
350,177,106702,1,6,1:2:0:0:
75,177,106866,1,2,3:2:0:0:
218,177,107030,1,2,3:2:0:0:
75,177,107194,1,2,1:2:0:0:
372,177,107358,6,0,L|372:67,1,110,6|0,3:2|0:0,0:0:0:0:
160,67,107604,2,0,L|100:66,2,55,0|8|8,3:2|2:3|2:3,0:0:0:0:
374,67,107849,1,8,2:3:0:0:
432,67,107931,1,8,2:3:0:0:
473,109,108013,1,8,2:3:0:0:
472,168,108095,1,8,2:3:0:0:
428,207,108177,1,4,2:3:0:0:
369,204,108259,1,4,2:3:0:0:
151,204,108341,6,0,L|90:204,2,55,6|2|2,1:2|0:0|0:0,0:0:0:0:
369,204,108587,2,0,L|430:204,2,55,10|2|2,3:2|0:0|0:0,0:0:0:0:
151,204,108833,2,0,L|40:204,1,110,2|0,1:2|0:0,0:0:0:0:
136,204,109079,2,0,L|136:94,1,110,8|2,3:2|0:0,0:0:0:0:
354,94,109325,6,0,L|415:94,2,55,2|2|2,1:2|0:0|0:0,0:0:0:0:
136,94,109571,2,0,L|75:94,2,55,10|2|2,3:2|0:0|0:0,0:0:0:0:
354,94,109817,2,0,L|465:94,1,110,2|0,1:2|0:0,0:0:0:0:
369,94,110063,2,0,L|369:204,1,110,8|0,3:2|0:0,0:0:0:0:
154,204,110308,6,0,P|97:248|155:290,1,165,6|10,1:2|3:2,0:0:0:0:
319,290,110718,1,2,0:0:0:0:
374,290,110800,2,0,L|257:290,1,110,2|2,1:2|0:0,0:0:0:0:
85,290,111046,2,0,L|85:181,1,110,10|0,3:2|0:0,0:0:0:0:
264,182,111292,6,0,L|384:181,1,110,0|2,1:2|0:0,0:0:0:0:
195,181,111538,2,0,L|196:299,1,110,10|0,3:2|0:0,0:0:0:0:
413,290,111784,2,0,L|413:173,1,110,2|0,1:2|3:2,0:0:0:0:
195,180,112030,2,0,L|127:180,2,55,8|0|0,3:2|3:2|3:2,0:0:0:0:
451,180,112276,6,0,L|451:66,1,110,6|2,1:2|0:0,0:0:0:0:
272,70,112522,2,0,L|148:70,1,110,2|2,3:2|0:0,0:0:0:0:
338,70,112767,2,0,L|338:187,1,110,2|2,1:2|0:0,0:0:0:0:
159,180,113013,2,0,L|158:304,1,110,2|2,3:2|0:0,0:0:0:0:
375,289,113259,6,0,L|491:289,1,110,2|2,1:2|0:0,0:0:0:0:
306,289,113505,2,0,L|306:176,1,110,2|2,3:2|0:0,0:0:0:0:
127,179,113751,2,0,L|127:61,1,110,2|0,1:2|0:0,0:0:0:0:
305,69,113997,2,0,L|436:69,1,110,2|2,3:2|0:0,0:0:0:0:
197,69,114243,6,0,P|111:82|104:148,1,165,6|2,1:3|3:2,0:0:0:0:
451,147,114735,2,0,L|451:263,1,110,2|0,1:2|0:0,0:0:0:0:
395,257,114981,1,2,3:2:0:0:
88,257,115144,5,6,3:2:0:0:
32,257,115226,2,0,L|161:258,1,110,2|2,1:2|1:2,0:0:0:0:
359,257,115472,2,0,L|421:256,2,55,0|0|2,3:2|3:2|3:2,0:0:0:0:
180,257,115718,1,8,2:3:0:0:
119,257,115800,1,8,2:3:0:0:
81,209,115882,1,12,2:3:0:0:
85,148,115964,1,12,2:3:0:0:
124,106,116046,1,4,2:3:0:0:
184,102,116128,1,4,2:3:0:0:
437,102,116210,6,0,L|436:162,1,55,6|2,1:2|0:0,0:0:0:0:
380,156,116374,1,0,0:0:0:0:
203,156,116456,2,0,L|143:157,1,55,10|2,3:2|0:0,0:0:0:0:
149,213,116620,1,0,0:0:0:0:
363,213,116702,2,0,L|426:213,1,55,2|2,1:2|0:0,0:0:0:0:
418,268,116866,1,0,0:0:0:0:
241,268,116948,2,0,L|242:327,1,55,10|2,3:2|0:0,0:0:0:0:
298,322,117112,1,0,0:0:0:0:
83,322,117194,6,0,L|21:323,2,55,2|2|0,1:2|0:0|0:0,0:0:0:0:
261,322,117440,2,0,L|324:322,1,55,10|2,3:2|0:0,0:0:0:0:
316,266,117604,1,0,0:0:0:0:
104,266,117685,1,2,1:2:0:0:
50,240,117767,1,2,0:0:0:0:
26,186,117849,1,0,0:0:0:0:
43,130,117931,1,10,3:2:0:0:
93,98,118013,1,2,0:0:0:0:
154,99,118095,1,0,0:0:0:0:
371,99,118177,5,2,1:2:0:0:
421,164,118300,1,2,0:0:0:0:
370,229,118423,1,10,3:2:0:0:
237,229,118546,1,2,0:0:0:0:
451,229,118669,2,0,L|452:127,1,82.5,2|2,1:2|0:0,0:0:0:0:
327,146,118915,1,10,3:2:0:0:
450,146,119038,1,2,0:0:0:0:
218,146,119161,5,2,1:2:0:0:
168,211,119284,1,2,0:0:0:0:
219,276,119407,1,10,3:2:0:0:
352,276,119530,1,2,0:0:0:0:
138,276,119653,2,0,L|138:162,1,110,2|0,1:2|3:2,0:0:0:0:
355,166,119899,2,0,L|413:167,2,55,10|0|0,3:2|3:2|3:2,0:0:0:0:
101,166,120144,6,0,P|46:122|105:74,1,165,6|2,1:2|3:2,0:0:0:0:
160,73,120472,1,2,0:0:0:0:
218,73,120554,1,0,0:0:0:0:
399,73,120636,2,0,P|398:115|296:164,1,165,2|2,1:2|3:2,0:0:0:0:
359,165,120964,1,2,0:0:0:0:
417,165,121046,1,0,0:0:0:0:
206,165,121128,6,0,P|183:208|273:251,1,165,2|2,1:2|3:2,0:0:0:0:
322,257,121456,1,0,0:0:0:0:
263,257,121538,1,0,0:0:0:0:
87,257,121620,2,0,L|87:148,1,110,2|2,1:2|0:0,0:0:0:0:
304,147,121866,2,0,L|423:147,1,110,2|2,3:2|0:0,0:0:0:0:
157,147,122112,6,0,P|97:110|166:53,1,189.750003619194,6|2,1:2|3:2,0:0:0:0:
435,62,122522,2,0,P|436:111|340:154,1,165,4|0,0:0|0:0,0:0:0:0:
128,155,122849,2,0,L|127:266,1,110,2|2,3:2|0:0,0:0:0:0:
344,264,123095,6,0,L|409:264,2,55,2|0|2,1:2|3:2|3:2,0:0:0:0:
126,264,123341,2,0,L|128:150,1,110,2|2,3:2|3:2,0:0:0:0:
306,154,123587,2,0,L|364:154,1,55,0|8,1:2|2:3,0:0:0:0:
361,209,123751,1,8,2:3:0:0:
184,209,123833,2,0,L|63:209,1,110,0|8,1:2|2:3,0:0:0:0:
291,209,124079,6,0,L|422:209,1,110,6|2,1:2|0:0,0:0:0:0:
300,209,124325,2,0,L|180:209,1,110,8|2,0:0|0:0,0:0:0:0:
245,209,124571,1,2,0:0:0:0:
410,209,124735,1,2,0:0:0:0:
465,209,124817,2,0,L|465:96,1,110,8|0,0:0|0:0,0:0:0:0:
364,99,125063,6,0,L|251:99,1,110,2|2,0:0|0:0,0:0:0:0:
154,99,125308,2,0,L|154:210,1,110,8|2,0:0|0:0,0:0:0:0:
254,209,125554,2,0,L|376:209,1,110,0|2,3:2|0:0,0:0:0:0:
263,209,125800,2,0,L|144:210,1,110,10|2,3:2|3:2,0:0:0:0:
208,209,126046,5,2,0:0:0:0:
373,209,126210,1,2,1:2:0:0:
428,209,126292,2,0,L|428:100,1,110,8|0,0:0|0:0,0:0:0:0:
327,99,126538,2,0,L|440:98,1,110,2|2,0:0|0:0,0:0:0:0:
381,98,126784,1,8,0:0:0:0:
215,98,126948,6,0,L|214:208,1,110,2|0,0:0|1:2,0:0:0:0:
269,207,127194,2,0,L|325:207,1,55,2|8,0:0|0:0,0:0:0:0:
157,207,127440,2,0,P|101:168|163:120,1,165,2|2,3:2|3:2,0:0:0:0:
256,118,127767,2,0,L|311:98,2,55,10|0|2,0:0|3:2|3:2,0:0:0:0:
38,118,128013,5,4,1:3:0:0:
203,118,128177,2,0,L|263:117,1,55,2|2,0:0|3:2,0:0:0:0:
91,117,128423,2,0,L|152:117,1,55,2|2,0:0|3:2,0:0:0:0:
422,117,128669,2,0,P|472:145|415:208,1,165,2|2,3:2|0:0,0:0:0:0:
239,208,128997,5,2,3:2:0:0:
404,208,129161,2,0,L|335:209,1,55,2|2,3:2|3:2,0:0:0:0:
72,208,129407,2,0,P|72:160|169:116,1,165,2|2,1:2|0:0,0:0:0:0:
66,115,129735,2,0,L|66:232,1,110,2|2,3:2|3:2,0:0:0:0:
283,225,129981,5,2,0:0:0:0:
447,225,130144,2,0,P|496:166|442:115,1,165,2|2,1:2|1:2,0:0:0:0:
225,115,130472,1,2,3:2:0:0:
59,115,130636,2,0,P|59:169|155:208,1,165,2|2,1:2|1:2,0:0:0:0:
366,210,130964,5,2,3:2:0:0:
200,210,131128,2,0,L|383:211,2,165,2|2|2,1:2|3:2|3:2,0:0:0:0:
417,210,131702,2,0,L|479:209,2,55,2|0|2,1:2|3:2|3:2,0:0:0:0:
160,210,131948,6,0,L|161:92,1,110,6|2,1:2|0:0,0:0:0:0:
261,100,132194,2,0,L|382:100,1,110,10|2,0:0|0:0,0:0:0:0:
315,100,132440,1,2,1:2:0:0:
149,100,132604,1,2,0:0:0:0:
94,100,132685,2,0,L|94:219,1,110,8|2,0:0|1:2,0:0:0:0:
272,210,132931,6,0,L|390:209,1,110,2|2,0:0|0:0,0:0:0:0:
326,209,133177,1,10,0:0:0:0:
160,209,133341,2,0,P|106:176|167:122,1,165,2|2,1:2|3:0,0:0:0:0:
262,120,133669,2,0,L|374:120,1,110,10|2,0:0|3:2,0:0:0:0:
193,120,133915,6,0,L|77:120,1,110,6|2,0:3|1:2,0:0:0:0:
138,120,134161,1,8,0:0:0:0:
303,120,134325,2,0,L|241:120,1,55,2|2,0:0|1:2,0:0:0:0:
81,120,134571,2,0,L|80:182,1,55,2|8,0:0|0:0,0:0:0:0:
334,174,134817,6,0,L|401:174,1,55,2|2,1:2|0:0,0:0:0:0:
222,174,135063,2,0,L|221:233,1,55,2|8,0:0|0:0,0:0:0:0:
386,228,135308,1,2,0:0:0:0:
441,228,135390,2,0,L|442:345,1,110,0|0,0:0|3:2,0:0:0:0:
263,337,135636,2,0,L|193:337,2,55,10|0|0,0:0|3:2|3:2,0:0:0:0:
480,337,135882,5,4,1:3:0:0:
329,338,136046,2,0,L|269:337,1,55,2|2,0:0|3:2,0:0:0:0:
441,337,136292,2,0,L|380:337,1,55,2|2,0:0|3:2,0:0:0:0:
109,337,136538,2,0,P|59:309|116:246,1,165,2|2,3:2|0:0,0:0:0:0:
292,246,136866,5,2,3:2:0:0:
127,246,137030,2,0,L|196:245,1,55,2|2,3:2|3:2,0:0:0:0:
436,245,137276,2,0,P|485:200|429:139,1,165,2|2,1:2|0:0,0:0:0:0:
330,139,137604,2,0,L|460:139,1,110,2|2,3:2|3:2,0:0:0:0:
222,139,137849,5,6,0:0:0:0:
68,139,138013,2,0,P|16:199|73:249,1,165,2|2,1:2|1:2,0:0:0:0:
289,248,138341,1,2,3:2:0:0:
454,248,138505,2,0,P|454:194|358:155,1,165,2|2,1:2|1:2,0:0:0:0:
146,152,138833,5,2,3:2:0:0:
300,152,138997,2,0,L|117:151,1,165,2|2,1:2|3:2,0:0:0:0:
466,151,139489,2,0,L|396:151,1,55,2|2,3:2|1:2,0:0:0:0:
134,151,139735,6,8,L|133:208,1,55,2|0,3:2|0:0,0:3:0:0:
131,317,150882,6,0,P|37:267|135:190,1,275,2|0,0:0|0:0,0:0:0:0:
351,189,151374,6,0,P|376:119|192:69,1,330,6|2,1:2|0:0,0:0:0:0:
356,69,152029,2,0,P|413:116|356:153,1,165,2|0,0:0|0:0,0:0:0:0:
177,153,152357,6,0,L|176:274,1,110,2|2,1:2|0:0,0:0:0:0:
408,262,152767,1,2,0:0:0:0:
193,262,152849,2,0,L|118:263,2,55,8|8|12,2:3|2:3|2:3,0:0:0:0:
371,262,153095,2,0,L|446:263,2,55,12|4|4,2:3|2:3|2:3,0:0:0:0:
153,262,153341,6,0,P|58:199|155:122,1,275,6|2,1:2|0:0,0:0:0:0:
252,121,153833,2,0,L|252:232,1,110,2|2,0:0|0:0,0:0:0:0:
152,231,154078,2,0,L|152:109,1,110,2|0,0:0|0:0,0:0:0:0:
330,121,154324,6,0,L|455:121,1,110,2|2,1:2|0:0,0:0:0:0:
207,121,154734,1,2,3:2:0:0:
151,121,154816,2,0,L|151:236,1,110,0|2,1:2|3:2,0:0:0:0:
329,231,155062,2,0,L|443:231,1,110,2|0,3:2|0:0,0:0:0:0:
221,231,155308,6,0,L|220:117,1,110,6|0,1:2|0:0,0:0:0:0:
320,121,155554,2,0,L|321:231,1,110,2|0,0:0|0:0,0:0:0:0:
220,230,155800,2,0,L|92:230,1,110,0|0,0:0|0:0,0:0:0:0:
210,230,156046,2,0,L|326:229,1,110,2|0,0:0|0:0,0:0:0:0:
141,229,156292,6,0,L|141:113,1,110,0|0,0:0|0:0,0:0:0:0:
240,119,156537,2,0,L|359:119,1,110,2|0,0:0|0:0,0:0:0:0:
249,119,156783,2,0,L|138:119,1,110,0|0,0:0|0:0,0:0:0:0:
38,119,157029,2,0,L|38:234,1,110,2|0,0:0|0:0,0:0:0:0:
216,229,157275,6,0,L|343:228,1,110,0|0,0:0|0:0,0:0:0:0:
426,228,157521,2,0,L|426:111,1,110,2|0,0:0|0:0,0:0:0:0:
325,118,157767,2,0,L|201:119,1,110,0|0,0:0|0:0,0:0:0:0:
315,118,158013,2,0,L|429:117,1,110,2|0,0:0|0:0,0:0:0:0:
207,117,158259,6,0,P|190:218|371:256,1,330,2|2,1:2|3:2,0:0:0:0:
154,255,158833,2,0,L|79:255,2,55,8|8|8,0:3|0:3|2:3,0:0:0:0:
368,255,159078,2,0,L|431:255,1,55,8|0,0:3|3:2,0:0:0:0:
166,255,159242,6,0,P|85:242|69:165,1,165,6|8,1:2|3:2,0:0:0:0:
177,170,159652,1,0,0:0:0:0:
353,170,159734,2,0,L|353:60,1,110,2|0,1:2|0:0,0:0:0:0:
174,60,159980,2,0,L|56:60,1,110,8|2,3:2|0:0,0:0:0:0:
281,60,160226,6,0,L|394:61,1,110,2|2,1:2|0:0,0:0:0:0:
335,60,160472,1,8,3:2:0:0:
81,60,160636,1,2,0:0:0:0:
25,60,160718,2,0,L|24:174,1,110,0|0,1:2|0:0,0:0:0:0:
203,169,160964,2,0,L|322:169,1,110,10|0,3:2|0:0,0:0:0:0:
95,169,161210,6,0,L|94:53,1,110,2|2,1:2|0:0,0:0:0:0:
149,59,161455,1,8,3:2:0:0:
424,59,161619,1,2,0:0:0:0:
479,59,161701,2,0,L|358:58,1,110,0|2,1:2|0:0,0:0:0:0:
149,59,161947,2,0,L|82:57,2,55,8|0|2,3:2|0:0|0:0,0:0:0:0:
405,59,162193,6,0,L|405:173,1,110,6|0,1:2|0:0,0:0:0:0:
187,169,162439,2,0,L|121:170,1,55,8|0,3:2|3:2,0:0:0:0:
132,225,162603,1,0,3:2:0:0:
346,225,162685,1,0,1:2:0:0:
346,280,162767,1,8,2:3:0:0:
290,280,162849,1,8,2:3:0:0:
389,280,162931,2,0,L|443:280,2,55,8|8|8,3:2|2:3|2:3,0:0:0:0:
132,280,163177,6,0,L|22:280,1,110,6|0,1:2|0:0,0:0:0:0:
119,279,163423,2,0,L|238:278,1,110,10|0,3:2|0:0,0:0:0:0:
50,278,163669,2,0,L|50:163,1,110,2|0,1:2|0:0,0:0:0:0:
226,168,163914,2,0,L|346:168,1,110,10|0,3:2|0:0,0:0:0:0:
118,169,164160,6,0,L|119:282,1,110,2|0,1:2|0:0,0:0:0:0:
219,279,164406,2,0,L|329:279,1,110,10|0,3:2|0:0,0:0:0:0:
128,279,164652,2,0,L|128:163,1,110,2|0,1:2|0:0,0:0:0:0:
307,169,164898,2,0,L|428:170,1,110,10|0,3:2|0:0,0:0:0:0:
161,58,165144,6,0,L|101:57,2,55,2|0|0,1:2|3:2|3:2,0:0:0:0:
379,58,165390,2,0,L|443:60,2,55,8|8|8,3:2|2:3|2:3,0:0:0:0:
162,58,165636,2,0,L|103:58,1,55,4|0,1:3|1:2,0:0:0:0:
325,58,165800,2,0,L|384:58,1,55,8|8,2:3|2:3,0:0:0:0:
162,58,165964,2,0,L|103:58,1,55,8|0,2:3|1:2,0:0:0:0:
364,58,166128,6,0,L|365:119,1,55,6|8,1:2|2:3,0:0:0:0:
310,112,166292,1,8,2:3:0:0:
99,112,166373,2,0,L|98:173,1,55,8|0,3:2|1:2,0:0:0:0:
153,166,166537,1,8,2:3:0:0:
368,166,166619,1,0,1:2:0:0:
424,166,166701,1,0,1:2:0:0:
424,221,166783,1,0,1:2:0:0:
325,221,166865,2,0,L|326:280,1,55,8|0,3:2|3:2,0:0:0:0:
382,275,167029,1,0,3:2:0:0:
129,275,167111,6,0,L|129:155,1,110,6|2,1:2|0:0,0:0:0:0:
184,165,167357,1,2,0:0:0:0:
349,165,167521,2,0,L|408:165,1,55,2|2,1:2|0:0,0:0:0:0:
149,165,167767,2,0,P|91:128|151:87,1,165,2|2,0:0|0:0,0:0:0:0:
366,86,168095,6,0,L|366:202,1,110,2|2,1:2|0:0,0:0:0:0:
265,196,168341,2,0,L|148:196,1,110,2|2,0:0|0:0,0:0:0:0:
333,196,168587,2,0,L|449:196,1,110,2|2,3:2|0:0,0:0:0:0:
387,196,168833,1,0,3:0:0:0:
91,196,168996,6,0,P|85:141|173:94,1,165,6|0,1:2|1:2,0:0:0:0:
270,93,169324,2,0,L|271:210,1,110,2|0,0:0|0:0,0:0:0:0:
92,202,169570,2,0,L|211:202,1,110,2|2,1:2|1:2,0:0:0:0:
417,202,169980,1,2,1:2:0:0:
202,202,170062,6,0,L|83:204,1,110,2|10,3:2|0:3,0:0:0:0:
147,203,170308,1,2,3:2:0:0:
421,202,170472,1,10,0:3:0:0:
189,202,170718,1,8,0:3:0:0:
133,202,170800,1,0,1:2:0:0:
106,154,170882,1,0,3:2:0:0:
138,109,170964,1,0,3:2:0:0:
391,109,171046,6,0,L|391:223,1,110,4|2,1:2|0:0,0:0:0:0:
335,219,171292,1,2,0:0:0:0:
123,219,171373,2,0,L|59:220,2,55,4|2|2,1:2|0:0|0:0,0:0:0:0:
377,219,171701,2,0,P|437:215|461:126,1,165,2|2,0:0|1:2,0:0:0:0:
243,125,172029,6,0,L|131:125,1,110,2|2,1:2|3:2,0:0:0:0:
350,125,172275,2,0,L|410:125,1,55,2|2,3:2|3:2,0:0:0:0:
403,180,172439,1,2,1:2:0:0:
188,180,172521,2,0,L|128:180,1,55,2|0,0:0|3:2,0:0:0:0:
350,180,172685,2,0,L|408:179,1,55,2|8,3:2|2:3,0:0:0:0:
128,179,172931,6,0,P|51:139|129:79,1,220,2|2,0:0|0:0,0:0:0:0:
359,78,173505,1,2,0:0:0:0:
105,78,173669,2,0,P|51:125|111:174,1,165,2|2,0:0|0:0,0:0:0:0:
320,174,173996,6,0,L|321:293,1,110,2|2,1:2|0:0,0:0:0:0:
103,283,174242,2,0,L|166:282,1,55,2|0,3:2|3:2,0:0:0:0:
375,282,174406,5,2,3:2:0:0:
