osu file format v14

[General]
AudioFilename: audio.mp3
AudioLeadIn: 0
PreviewTime: 29359
Countdown: 0
SampleSet: Normal
StackLeniency: 1
Mode: 0
LetterboxInBreaks: 0
WidescreenStoryboard: 1

[Editor]
DistanceSpacing: 2
BeatDivisor: 4
GridSize: 32
TimelineZoom: 4.499998

[Metadata]
Title:Voprosi
TitleUnicode:Вопросы
Artist:Kazennii Unitaz
ArtistUnicode:Казённый унитаз
Creator:Rostisha
Version:Dishonest
Source:Russia
Tags:Thrash Metal Russian Govno Fun RSI сектор ДРИСЬ казенный унитаз вопросы
BeatmapID:1860918
BeatmapSetID:890232

[Difficulty]
HPDrainRate:3
CircleSize:4
OverallDifficulty:9
ApproachRate:9.5
SliderMultiplier:1.6
SliderTickRate:1

[Events]
//Background and Video events
0,0,"Zachem.png",0,0
//Break Periods
//Storyboard Layer 0 (Background)
//Storyboard Layer 1 (Fail)
//Storyboard Layer 2 (Pass)
//Storyboard Layer 3 (Foreground)
//Storyboard Sound Samples

[TimingPoints]
1536,257.62129669386,4,1,0,70,1,0
5657,-58.8235294117647,4,1,0,70,0,0
6236,-58.8235294117647,4,1,0,5,0,0
6300,-58.8235294117647,4,1,0,70,0,0
6365,-58.8235294117647,4,1,0,5,0,0
6429,-58.8235294117647,4,1,0,70,0,0
11325,-83.3333333333333,4,1,0,70,0,0
11840,-83.3333333333333,4,1,0,50,0,0
12356,-83.3333333333333,4,1,0,70,0,0
13128,-58.8235294117647,4,1,0,70,0,0
13515,-83.3333333333333,4,1,0,70,0,0
16993,-58.8235294117647,4,1,0,70,0,1
25237,-100,4,1,0,70,0,0
28328,-58.8235294117647,4,1,0,70,0,0
29359,-75.0001875004688,4,1,0,70,0,0
31420,-83.3333333333333,4,1,0,70,0,0
42755,-58.8235294117647,4,1,0,70,0,1
43785,-52.6315789473684,4,1,0,70,0,1
44816,-58.8235294117647,4,1,0,70,0,1
45846,-52.6315789473684,4,1,0,70,0,1
46877,-58.8235294117647,4,1,0,70,0,1
47907,-52.6315789473684,4,1,0,70,0,1
48938,-58.8235294117647,4,1,0,70,0,1
49968,-50,4,1,0,70,0,1
50162,-50,4,1,0,5,0,1
50226,-50,4,1,0,70,0,1
50419,-50,4,1,0,5,0,1
50484,-50,4,1,0,75,0,1
50677,-50,4,1,0,5,0,1
50741,-50,4,1,0,80,0,1
50934,-50,4,1,0,5,0,1
50999,-50,4,1,0,85,0,0

[Colours]
Combo1 : 117,65,40
Combo2 : 96,73,68
Combo3 : 120,103,97

[HitObjects]
134,119,1536,5,8,0:0:0:0:
114,276,1793,1,8,0:0:0:0:
149,104,2051,1,8,0:0:0:0:
98,287,2308,1,8,0:0:0:0:
330,278,2566,6,0,L|244:266,1,80,8|0,0:0|0:0,0:0:0:0:
191,220,2824,1,8,0:0:0:0:
191,220,2888,1,0,0:0:0:0:
191,220,2952,1,0,0:0:0:0:
228,336,3081,2,0,L|314:348,1,80,8|0,0:0|0:0,0:0:0:0:
408,319,3339,1,8,0:0:0:0:
408,319,3403,1,0,0:0:0:0:
408,319,3468,1,0,0:0:0:0:
384,156,3596,6,0,P|378:198|383:239,1,80,8|0,0:0|0:0,0:0:0:0:
467,258,3854,1,8,0:0:0:0:
468,238,3918,1,0,0:0:0:0:
469,218,3982,1,0,0:0:0:0:
432,116,4112,2,0,L|345:106,1,80,8|0,0:0|0:0,0:0:0:0:
266,204,4369,1,8,0:0:0:0:
266,204,4434,1,0,0:0:0:0:
266,204,4498,1,0,0:0:0:0:
372,284,4627,6,0,L|291:292,1,80,8|0,0:0|0:0,0:0:0:0:
173,305,4885,1,8,0:0:0:0:
193,307,4949,1,0,0:0:0:0:
213,309,5013,1,0,0:0:0:0:
188,219,5142,2,0,L|107:227,1,80,8|0,0:0|0:0,0:0:0:0:
56,326,5400,1,8,0:0:0:0:
56,326,5464,1,0,0:0:0:0:
56,326,5529,1,0,0:0:0:0:
63,229,5657,6,0,B|53:125|53:125|28:91,1,136.000002593994,8|0,0:0|0:0,0:0:0:0:
116,26,5915,2,0,B|126:130|126:130|151:164,1,136.000002593994,8|0,0:0|0:0,0:0:0:0:
375,81,6173,2,0,L|252:91,1,102.000001945496,8|0,0:0|0:0,0:0:0:0:
170,176,6334,2,0,L|269:184,1,68.0000012969971,8|0,0:0|0:0,0:0:0:0:
345,252,6463,2,0,L|245:260,1,68.0000012969971,8|0,0:0|0:0,0:0:0:0:
50,344,6688,5,8,0:0:0:0:
65,331,6752,1,0,0:0:0:0:
83,321,6816,1,8,0:0:0:0:
102,314,6881,1,0,0:0:0:0:
122,310,6945,1,8,0:0:0:0:
143,310,7010,1,0,0:0:0:0:
163,312,7074,1,8,0:0:0:0:
182,319,7138,1,0,0:0:0:0:
200,328,7203,1,8,0:0:0:0:
217,338,7267,1,0,0:0:0:0:
236,345,7332,1,8,0:0:0:0:
256,349,7396,1,0,0:0:0:0:
276,350,7460,1,8,0:0:0:0:
297,347,7525,1,0,0:0:0:0:
316,341,7590,1,8,0:0:0:0:
334,332,7653,1,0,0:0:0:0:
351,320,7718,6,0,L|360:251,3,68.0000012969971,8|0|8|0,0:0|0:0|0:0|0:0,0:0:0:0:
442,271,7976,2,0,L|433:201,3,68.0000012969971,8|0|8|0,0:0|0:0|0:0|0:0,0:0:0:0:
344,366,8234,2,0,L|355:271,3,68.0000012969971,8|0|8|0,0:0|0:0|0:0|0:0,0:0:0:0:
465,298,8492,2,0,L|453:203,3,68.0000012969971,8|0|8|0,0:0|0:0|0:0|0:0,0:0:0:0:
318,380,8749,5,8,0:0:0:0:
320,359,8813,1,0,0:0:0:0:
322,339,8877,1,8,0:0:0:0:
325,319,8942,1,0,0:0:0:0:
327,298,9006,1,8,0:0:0:0:
329,278,9071,1,0,0:0:0:0:
332,258,9135,1,8,0:0:0:0:
334,238,9199,1,0,0:0:0:0:
336,217,9264,1,8,0:0:0:0:
339,197,9328,1,0,0:0:0:0:
341,177,9393,1,8,0:0:0:0:
343,157,9457,1,0,0:0:0:0:
346,136,9522,6,0,P|306:123|275:126,3,68.0000012969971,8|0|8|0,0:0|0:0|0:0|0:0,0:0:0:0:
412,104,9779,2,0,P|444:117|478:117,3,68.0000012969971,8|0|8|0,0:0|0:0|0:0|0:0,0:0:0:0:
456,31,10037,1,8,0:0:0:0:
436,28,10101,1,0,0:0:0:0:
416,26,10166,1,8,0:0:0:0:
396,23,10230,1,0,0:0:0:0:
375,21,10295,1,8,0:0:0:0:
355,18,10359,1,0,0:0:0:0:
335,16,10424,1,8,0:0:0:0:
315,13,10488,1,0,0:0:0:0:
294,11,10553,1,8,0:0:0:0:
273,9,10617,1,0,0:0:0:0:
252,7,10681,2,0,L|245:74,1,68.0000012969971,8|0,0:0|0:0,0:0:0:0:
200,144,10810,6,0,B|216:126|243:106|292:126|311:161|296:218|268:231|229:234|229:234|222:301,1,272.000005187988,8|8,0:0|0:0,0:0:0:0:
216,371,11196,1,0,0:0:0:0:
419,304,11325,6,0,L|314:312,1,95.9999970703126,8|0,0:0|0:0,0:0:0:0:
177,380,11583,1,8,0:0:0:0:
187,378,11648,1,0,0:0:0:0:
197,376,11712,1,0,0:0:0:0:
171,197,11840,6,0,L|159:303,1,95.9999970703126,8|0,0:0|0:0,0:0:0:0:
0,350,12098,2,0,P|50:336|99:341,1,95.9999970703126,8|0,0:0|0:0,0:0:0:0:
333,274,12356,2,0,P|287:287|239:284,1,95.9999970703126,8|0,0:0|0:0,0:0:0:0:
16,194,12613,2,0,L|111:204,1,95.9999970703126,8|0,0:0|0:0,0:0:0:0:
329,98,12871,2,0,L|233:108,1,95.9999970703126,8|0,0:0|0:0,0:0:0:0:
157,294,13128,6,0,B|174:318|201:329|249:307|266:271|248:215|220:203|181:202|181:202|175:146,1,272.000005187988,8|8,0:0|0:0,0:0:0:0:
162,34,13515,2,0,L|166:81,2,47.9999985351563
105,123,13709,1,0,0:0:0:0:
108,142,13773,6,0,L|213:150,1,95.9999970703126,0|8,0:0|0:0,0:0:0:0:
288,238,14030,2,0,L|384:231,1,95.9999970703126,0|8,0:0|0:0,0:0:0:0:
399,244,14223,1,0,0:0:0:0:
412,256,14288,1,0,0:0:0:0:
221,330,14417,6,0,P|234:279|229:222,1,95.9999970703126,8|0,0:0|0:0,0:0:0:0:
315,48,14675,2,0,P|302:99|307:156,1,95.9999970703126,8|0,0:0|0:0,0:0:0:0:
407,348,14932,1,8,0:0:0:0:
423,76,15189,5,8,0:0:0:0:
381,155,15318,1,0,0:0:0:0:
471,152,15447,1,8,0:0:0:0:
228,195,15705,5,8,0:0:0:0:
315,215,15833,1,0,0:0:0:0:
252,280,15962,1,8,0:0:0:0:
250,300,16091,1,0,0:0:0:0:
296,346,16220,1,8,0:0:0:0:
298,326,16349,1,0,0:0:0:0:
207,361,16478,2,0,P|158:360|110:369,1,95.9999970703126,8|0,0:0|0:0,0:0:0:0:
181,211,16735,2,0,P|204:253|236:291,1,95.9999970703126,8|0,0:0|0:0,0:0:0:0:
64,307,16993,6,0,P|95:248|106:181,1,136.000002593994,8|0,0:0|0:0,0:0:0:0:
224,59,17250,2,0,P|192:118|181:185,1,136.000002593994,8|0,0:0|0:0,0:0:0:0:
357,285,17508,2,0,P|318:233|257:252,1,136.000002593994,8|0,0:0|0:0,0:0:0:0:
145,355,17766,6,0,L|283:335,1,136.000002593994,8|0,0:0|0:0,0:0:0:0:
450,205,18023,2,0,L|315:185,1,136.000002593994,8|0,0:0|0:0,0:0:0:0:
101,221,18281,2,0,P|167:211|233:227,1,136.000002593994,8|0,0:0|0:0,0:0:0:0:
422,68,18539,2,0,P|355:77|289:61,1,136.000002593994,8|0,0:0|0:0,0:0:0:0:
214,146,18796,6,0,L|209:78,1,68.0000012969971,8|0,0:0|0:0,0:0:0:0:
243,178,18925,1,8,0:0:0:0:
109,43,19054,6,0,L|119:205,1,136.000002593994,8|0,0:0|0:0,0:0:0:0:
66,318,19311,2,0,B|133:297|133:297|215:309,1,136.000002593994,8|0,0:0|0:0,0:0:0:0:
400,231,19569,2,0,B|333:252|333:252|251:240,1,136.000002593994,8|0,0:0|0:0,0:0:0:0:
468,307,19827,2,0,L|476:166,1,136.000002593994,8|0,0:0|0:0,0:0:0:0:
315,38,20084,2,0,L|322:173,1,136.000002593994,8|0,0:0|0:0,0:0:0:0:
317,318,20342,2,0,P|250:310|187:332,1,136.000002593994,8|0,0:0|0:0,0:0:0:0:
35,238,20599,2,0,P|102:246|166:225,1,136.000002593994,8|0,0:0|0:0,0:0:0:0:
349,132,20857,2,0,P|282:140|218:119,1,136.000002593994,8|0,0:0|0:0,0:0:0:0:
467,39,21115,6,0,B|447:103|447:103|458:180,1,136.000002593994,8|0,0:0|0:0,0:0:0:0:
485,327,21372,1,8,0:0:0:0:
445,200,21501,1,0,0:0:0:0:
354,343,21630,2,0,B|374:279|374:279|363:202,1,136.000002593994,8|0,0:0|0:0,0:0:0:0:
155,290,21888,6,0,L|308:273,1,136.000002593994,8|0,0:0|0:0,0:0:0:0:
426,154,22145,2,0,L|273:137,1,136.000002593994,8|0,0:0|0:0,0:0:0:0:
123,320,22403,6,0,L|323:297,1,136.000002593994,8|0,0:0|0:0,0:0:0:0:
478,142,22660,2,0,L|278:120,1,136.000002593994,8|0,0:0|0:0,0:0:0:0:
114,228,22918,2,0,L|181:220,1,68.0000012969971,8|0,0:0|0:0,0:0:0:0:
294,268,23047,1,8,0:0:0:0:
229,187,23176,2,0,L|89:195,1,136.000002593994,8|0,0:0|0:0,0:0:0:0:
40,338,23433,6,0,P|59:271|55:204,1,136.000002593994,8|0,0:0|0:0,0:0:0:0:
151,34,23691,2,0,P|132:101|136:168,1,136.000002593994,8|0,0:0|0:0,0:0:0:0:
187,258,23949,2,0,L|331:247,1,136.000002593994,8|0,0:0|0:0,0:0:0:0:
415,92,24206,2,0,L|271:81,1,136.000002593994,8|0,0:0|0:0,0:0:0:0:
60,153,24464,2,0,L|195:142,1,136.000002593994,8|0,0:0|0:0,0:0:0:0:
370,252,24721,1,8,0:0:0:0:
361,233,24786,1,0,0:0:0:0:
352,214,24850,2,0,L|208:225,1,136.000002593994,8|8,0:0|0:0,0:0:0:0:
97,320,25108,1,0,0:0:0:0:
222,260,25237,6,0,L|301:253,1,80,8|0,0:0|0:0,0:0:0:0:
413,312,25494,1,8,0:0:0:0:
413,312,25559,1,0,0:0:0:0:
413,312,25623,1,0,0:0:0:0:
352,214,25752,2,0,L|273:207,1,80,8|0,0:0|0:0,0:0:0:0:
189,271,26010,1,8,0:0:0:0:
189,271,26074,1,0,0:0:0:0:
189,271,26138,1,0,0:0:0:0:
115,131,26267,6,0,B|125:172|125:172|121:209,1,80,8|0,0:0|0:0,0:0:0:0:
52,310,26525,1,8,0:0:0:0:
54,294,26589,1,0,0:0:0:0:
56,278,26654,1,0,0:0:0:0:
157,348,26782,2,0,B|194:351|194:351|235:341,1,80,8|0,0:0|0:0,0:0:0:0:
278,228,27040,1,8,0:0:0:0:
280,244,27104,1,0,0:0:0:0:
282,260,27169,1,0,0:0:0:0:
138,310,27298,6,0,L|145:230,1,80,8|0,0:0|0:0,0:0:0:0:
155,126,27555,1,8,0:0:0:0:
155,126,27620,1,0,0:0:0:0:
155,126,27684,1,0,0:0:0:0:
248,255,27813,6,0,L|234:175,1,80,8|0,0:0|0:0,0:0:0:0:
216,72,28070,1,8,0:0:0:0:
216,72,28135,1,0,0:0:0:0:
216,72,28199,1,0,0:0:0:0:
319,217,28328,6,0,B|338:189|338:189|344:87,1,136.000002593994,8|0,0:0|0:0,0:0:0:0:
455,1,28586,2,0,B|435:28|435:28|429:130,1,136.000002593994,8|0,0:0|0:0,0:0:0:0:
488,331,28843,6,0,L|484:263,1,68.0000012969971,8|0,0:0|0:0,0:0:0:0:
406,164,28972,2,0,L|402:231,1,68.0000012969971,8|0,0:0|0:0,0:0:0:0:
322,325,29101,2,0,L|318:257,1,68.0000012969971,8|0,0:0|0:0,0:0:0:0:
63,59,29359,6,0,L|70:186,1,106.666395399995,8|0,0:0|0:0,0:0:0:0:
83,271,29616,1,8,0:0:0:0:
83,271,29681,1,0,0:0:0:0:
83,271,29745,1,0,0:0:0:0:
172,137,29874,2,0,L|166:243,1,106.666395399995,8|0,0:0|0:0,0:0:0:0:
225,351,30131,1,8,0:0:0:0:
224,329,30195,1,0,0:0:0:0:
222,308,30259,1,0,0:0:0:0:
92,356,30389,6,0,L|200:370,1,106.666395399995
308,274,30647,1,0,0:0:0:0:
306,295,30711,1,0,0:0:0:0:
305,317,30776,2,0,B|357:285|405:317|405:317|382:274|392:242|417:193|470:193|517:215|532:267|496:303|496:303|478:279|446:265,1,426.665581599982
367,153,31420,6,0,L|372:57,1,95.9999970703126,8|0,0:0|0:0,0:0:0:0:
457,0,31677,1,8,0:0:0:0:
457,0,31742,1,0,0:0:0:0:
457,0,31806,1,0,0:0:0:0:
301,76,31935,2,0,L|295:171,1,95.9999970703126,8|0,0:0|0:0,0:0:0:0:
386,282,32192,2,0,L|383:234,2,47.9999985351563,8|0|0,0:0|0:0|0:0,0:0:0:0:
465,115,32450,6,0,L|470:210,1,95.9999970703126,8|0,0:0|0:0,0:0:0:0:
463,348,32708,2,0,P|407:335|352:343,1,95.9999970703126,8|0,0:0|0:0,0:0:0:0:
221,264,32965,2,0,P|267:276|314:273,1,95.9999970703126,8|0,0:0|0:0,0:0:0:0:
392,196,33223,1,8,0:0:0:0:
393,210,33287,1,0,0:0:0:0:
394,224,33351,1,0,0:0:0:0:
487,357,33481,6,0,L|492:261,1,95.9999970703126,8|0,0:0|0:0,0:0:0:0:
462,117,33738,1,8,0:0:0:0:
461,131,33802,1,0,0:0:0:0:
460,145,33866,1,0,0:0:0:0:
385,311,33996,2,0,B|331:314|331:314|284:300,1,95.9999970703126,8|0,0:0|0:0,0:0:0:0:
143,346,34253,2,0,B|197:343|197:343|244:357,1,95.9999970703126,8|0,0:0|0:0,0:0:0:0:
372,231,34511,6,0,L|276:225,1,95.9999970703126,8|0,2:0|2:0,2:0:0:0:
155,287,34769,1,8,0:0:0:0:
155,287,34833,1,0,0:0:0:0:
155,287,34897,1,0,0:0:0:0:
216,189,35026,2,0,L|311:194,1,95.9999970703126,8|0,2:0|2:0,2:0:0:0:
502,269,35284,2,0,B|455:260|455:260|407:264,1,95.9999970703126,8|0,2:0|2:0,2:0:0:0:
298,314,35542,6,0,B|250:318|250:318|203:309,1,95.9999970703126,8|0,2:0|2:0,2:0:0:0:
119,197,35799,1,8,0:0:0:0:
120,211,35863,1,0,0:0:0:0:
121,225,35927,1,0,0:0:0:0:
37,331,36057,2,0,L|44:235,1,95.9999970703126,8|0,0:0|0:0,0:0:0:0:
120,91,36314,1,8,0:0:0:0:
119,105,36378,1,0,0:0:0:0:
118,119,36442,1,0,0:0:0:0:
27,220,36572,6,0,L|34:124,1,95.9999970703126,8|0,0:0|0:0,0:0:0:0:
189,36,36830,1,8,0:0:0:0:
189,36,36894,1,0,0:0:0:0:
189,36,36958,1,0,0:0:0:0:
240,160,37087,1,8,0:0:0:0:
312,49,37216,1,0,0:0:0:0:
326,178,37345,1,8,0:0:0:0:
330,19,37474,1,0,0:0:0:0:
323,213,37602,6,0,B|345:240|345:240|347:174,1,95.9999970703126,8|0,0:0|0:0,0:0:0:0:
436,106,37860,2,0,B|423:135|423:135|423:204,1,95.9999970703126,8|0,0:0|0:0,0:0:0:0:
342,339,38118,2,0,P|370:325|440:325,2,95.9999970703126,8|0|0,0:0|0:0|0:0,0:0:0:0:
270,218,38633,5,8,0:0:0:0:
259,361,38762,1,0,0:0:0:0:
186,173,38891,1,8,0:0:0:0:
197,318,39019,1,0,0:0:0:0:
275,146,39148,1,8,0:0:0:0:
264,289,39277,1,0,0:0:0:0:
181,101,39406,1,8,0:0:0:0:
192,244,39534,1,0,0:0:0:0:
281,75,39663,5,8,0:0:0:0:
270,218,39792,1,0,0:0:0:0:
175,30,39921,1,8,0:0:0:0:
186,173,40049,1,0,0:0:0:0:
286,3,40179,1,8,0:0:0:0:
275,146,40308,1,0,0:0:0:0:
174,0,40436,2,0,L|181:96,1,95.9999970703126,8|0,0:0|0:0,0:0:0:0:
110,230,40694,5,8,0:0:0:0:
110,215,40758,1,0,0:0:0:0:
111,201,40822,1,8,0:0:0:0:
111,186,40887,1,0,0:0:0:0:
111,171,40952,2,0,L|172:174,3,47.9999985351563,8|0|8|0,0:0|0:0|0:0|0:0,0:0:0:0:
213,257,41209,2,0,L|260:254,3,47.9999985351563,8|0|8|0,0:0|0:0|0:0|0:0,0:0:0:0:
194,278,41467,5,8,0:0:0:0:
211,287,41531,1,0,0:0:0:0:
229,294,41595,1,8,0:0:0:0:
247,299,41660,1,0,0:0:0:0:
267,299,41724,1,8,0:0:0:0:
286,296,41789,1,0,0:0:0:0:
304,290,41853,1,8,0:0:0:0:
321,281,41917,1,0,0:0:0:0:
336,270,41982,1,8,0:0:0:0:
353,260,42046,1,0,0:0:0:0:
370,253,42111,1,8,0:0:0:0:
389,249,42175,1,0,0:0:0:0:
408,247,42240,2,0,P|439:245|463:250,3,47.9999985351563,8|0|8|0,0:0|0:0|0:0|0:0,0:0:0:0:
484,290,42497,2,0,L|488:348,3,47.9999985351563,8|0|8|0,0:0|0:0|0:0|0:0,0:0:0:0:
457,113,42755,6,0,B|445:179|445:179|456:252,1,136.000002593994,8|0,0:0|0:0,0:0:0:0:
380,363,43013,2,0,B|392:297|392:297|381:224,1,136.000002593994,8|0,0:0|0:0,0:0:0:0:
322,295,43270,2,0,P|254:310|189:294,1,136.000002593994,8|0,0:0|0:0,0:0:0:0:
138,233,43528,2,0,L|128:97,1,136.000002593994,8|0,0:0|0:0,0:0:0:0:
391,156,43785,6,0,L|235:147,1,151.999995941162,8|0,0:0|0:0,0:0:0:0:
107,52,44043,2,0,L|261:43,1,151.999995941162,8|0,0:0|0:0,0:0:0:0:
430,174,44301,2,0,L|239:163,1,151.999995941162,8|0,0:0|0:0,0:0:0:0:
71,41,44559,2,0,L|252:30,1,151.999995941162,8|0,0:0|0:0,0:0:0:0:
341,243,44816,6,0,B|351:174|351:174|339:108,1,136.000002593994,8|0,0:0|0:0,0:0:0:0:
420,3,45073,2,0,B|409:71|409:71|421:137,1,136.000002593994,8|0,0:0|0:0,0:0:0:0:
508,360,45331,2,0,B|487:333|487:333|499:231,1,136.000002593994,8|0,0:0|0:0,0:0:0:0:
457,90,45589,2,0,B|477:116|477:116|465:218,1,136.000002593994,8|0,0:0|0:0,0:0:0:0:
379,328,45846,6,0,L|224:335,1,151.999995941162,8|0,0:0|0:0,0:0:0:0:
84,154,46104,2,0,L|239:161,1,151.999995941162,8|0,0:0|0:0,0:0:0:0:
417,350,46362,2,0,L|222:359,1,151.999995941162,8|0,0:0|0:0,0:0:0:0:
45,131,46620,2,0,L|240:139,1,151.999995941162,8|0,0:0|0:0,0:0:0:0:
123,357,46877,6,0,L|116:205,1,136.000002593994,8|0,0:0|0:0,0:0:0:0:
217,113,47134,2,0,L|211:265,1,136.000002593994,8|0,0:0|0:0,0:0:0:0:
242,343,47392,2,0,P|312:330|385:342,1,136.000002593994,8|0,0:0|0:0,0:0:0:0:
512,264,47650,2,0,P|445:276|378:268,1,136.000002593994,8|0,0:0|0:0,0:0:0:0:
249,130,47907,6,0,B|242:204|242:204|251:281,1,151.999995941162,8|0,0:0|0:0,0:0:0:0:
444,244,48165,2,0,B|450:169|450:169|441:92,1,151.999995941162,8|0,0:0|0:0,0:0:0:0:
224,115,48423,2,0,B|217:208|217:208|228:304,1,151.999995941162,8|0,0:0|0:0,0:0:0:0:
468,258,48681,2,0,B|475:165|475:165|464:69,1,151.999995941162,8|0,0:0|0:0,0:0:0:0:
239,279,48938,6,0,L|374:285,1,136.000002593994,8|0,0:0|0:0,0:0:0:0:
508,355,49195,2,0,L|372:361,1,136.000002593994,8|0,0:0|0:0,0:0:0:0:
417,151,49453,2,0,B|431:244|431:244|419:289,1,136.000002593994,8|0,0:0|0:0,0:0:0:0:
323,101,49711,2,0,B|323:195|323:195|342:237,1,136.000002593994,8|0,0:0|0:0,0:0:0:0:
362,338,49968,6,0,B|342:220|342:220|428:135,1,240,8|0,0:0|0:0,0:0:0:0:
423,132,50226,2,0,B|304:114|304:114|251:6,1,240,8|0,0:0|0:0,0:0:0:0:
243,13,50484,2,0,B|191:121|191:121|73:140,1,240,8|0,0:0|0:0,0:0:0:0:
76,150,50741,2,0,B|164:230|164:230|148:349,1,240,8|0,0:0|0:0,0:0:0:0:
