osu file format v14

[General]
AudioFilename: audio.mp3
AudioLeadIn: 0
PreviewTime: -1
Countdown: 1
SampleSet: Normal
StackLeniency: 0.7
Mode: 0
LetterboxInBreaks: 0
WidescreenStoryboard: 0

[Editor]
DistanceSpacing: 1.7
BeatDivisor: 4
GridSize: 4
TimelineZoom: 2.1

[Metadata]
Title:This Time
TitleUnicode:This Time
Artist:Kayzo
ArtistUnicode:Kayzo
Creator:Geffern
Version:Normal
Source:
Tags:
BeatmapID:1437317
BeatmapSetID:679692

[Difficulty]
HPDrainRate:1
CircleSize:4
OverallDifficulty:5
ApproachRate:10
SliderMultiplier:1.4
SliderTickRate:1

[Events]
//Background and Video events
0,0,"adga.jpg",0,0
//Break Periods
//Storyboard Layer 0 (Background)
//Storyboard Layer 1 (Fail)
//Storyboard Layer 2 (Pass)
//Storyboard Layer 3 (Foreground)
//Storyboard Layer 4 (Overlay)
//Storyboard Sound Samples

[TimingPoints]
12787.167244762,400,4,1,0,100,1,0
25587,-100,4,1,0,100,0,0
37587,-25,4,1,0,100,0,0
38387,-100,4,1,0,100,0,0
38987,-25,4,1,0,100,0,0
39387,-100,4,1,0,100,0,0
40587,-10,4,1,0,100,0,0
40987,-100,4,1,0,100,0,0
41198,400,4,1,0,100,1,0
42187,-9,4,1,0,100,0,0
42587,-100,4,1,0,100,0,0
43787,-8,4,1,0,100,0,0
44187,-100,4,1,0,100,0,0
45387,-9,4,1,0,100,0,0
45787,-100,4,1,0,100,0,0
46987,-10,4,1,0,100,0,0
47387,-100,4,1,0,100,0,0
48587,-10,4,1,0,100,0,0
48987,-100,4,1,0,100,0,0
49598,-0.8,4,1,0,100,0,0
50387,-1000,4,1,0,100,0,0
51187,-100,4,1,0,100,0,0
51798,-9,4,1,0,100,0,0
52398,-100,4,1,0,100,0,0
52798,-14,4,1,0,100,0,0
53398,-9,4,1,0,100,0,0
53998,-100,4,1,0,100,0,0
54998,-9,4,1,0,100,0,0
55398,-100,4,1,0,100,0,0
55998,-1000,4,1,0,100,0,0
56398,-100,4,1,0,100,0,0
56598,-9,4,1,0,100,0,0
56998,-100,4,1,0,100,0,0
58198,-9,4,1,0,100,0,0
58398,-1000,4,1,0,100,0,0
58498,-9,4,1,0,100,0,0
58598,-100,4,1,0,100,0,0
63998,-100,4,1,0,100,0,0
64398,-100,4,1,0,100,0,0
64798,-100,4,1,0,100,0,0

[HitObjects]
104,64,12787,6,0,L|72:80,1,35
104,64,12987,2,0,L|144:48,1,35
104,64,13187,2,0,L|92:32,1,35
104,64,13387,2,0,L|120:96,1,35
104,64,13587,2,0,L|136:136,1,70
392,80,14387,6,0,L|366:54,1,35
392,80,14587,2,0,L|420:104,1,35
392,80,14787,2,0,L|424:52,1,35
392,80,14987,2,0,L|364:108,1,35
392,80,15187,2,0,L|338:135,1,70
128,168,15987,6,0,L|88:156,1,35
192,188,16187,2,0,L|204:152,1,35
172,248,16387,2,0,L|224:264,1,35
108,232,16587,2,0,L|92:276,1,35
128,168,16787,2,0,L|64:140,1,70
412,240,17587,6,0,L|439:208,1,35
368,296,17787,2,0,L|408:336,1,35
308,256,17987,2,0,L|280:280,1,35
352,200,18187,2,0,L|321:169,1,35
296,124,18387,1,0,0:0:0:0:
147,146,18587,1,0,0:0:0:0:
169,295,18787,1,0,0:0:0:0:
318,274,18987,1,0,0:0:0:0:
384,192,19187,6,0,L|384:156,1,35
352,100,19387,2,0,L|300:100,1,35
264,144,19587,2,0,L|264:180,1,35
304,236,19787,2,0,L|364:236,1,35
404,208,19987,2,0,L|408:132,1,70
312,112,20787,6,0,L|292:142,1,35
236,173,20987,2,0,L|191:145,1,35
185,89,21187,2,0,L|204:58,1,35
267,33,21387,2,0,L|317:64,1,35
337,109,21587,2,0,L|300:175,1,70
156,88,22387,6,0,L|129:113,1,35
180,160,22587,2,0,L|208:132,1,35
120,192,22787,2,0,L|92:160,1,35
212,60,22987,2,0,L|242:93,1,35
284,136,23187,2,0,L|338:193,1,70
336,256,23987,6,0,L|304:236,1,35
272,297,24187,2,0,L|306:316,1,35
226,248,24387,2,0,L|249:212,1,35
377,302,24587,2,0,L|352:339,1,35
300,324,24787,1,0,0:0:0:0:
220,336,24987,1,0,0:0:0:0:
156,280,25187,2,0,L|290:214,1,140
144,160,26587,5,0,0:0:0:0:
224,160,26787,1,0,0:0:0:0:
144,160,26987,1,0,0:0:0:0:
224,160,27587,1,0,0:0:0:0:
144,160,27987,1,0,0:0:0:0:
224,160,28187,1,0,0:0:0:0:
224,160,28387,1,0,0:0:0:0:
288,160,28787,5,0,0:0:0:0:
368,168,29187,1,0,0:0:0:0:
368,168,29487,1,0,0:0:0:0:
368,168,29687,1,0,0:0:0:0:
288,160,29787,1,0,0:0:0:0:
288,160,29987,2,0,L|376:160,1,70
288,168,30387,1,0,0:0:0:0:
368,168,30787,1,0,0:0:0:0:
288,168,31087,1,0,0:0:0:0:
368,168,31287,1,0,0:0:0:0:
368,168,31387,1,0,0:0:0:0:
288,168,31587,2,0,L|372:168,1,70
192,260,32987,6,0,L|192:204,1,35
192,220,33187,2,0,L|192:268,1,35
192,260,33387,2,0,L|232:260,1,35
316,264,33987,2,0,L|316:228,1,35
316,220,34387,2,0,L|316:268,1,35
316,264,34587,2,0,L|272:264,1,35
316,264,34787,2,0,L|372:264,1,35
260,188,35587,5,0,0:0:0:0:
260,188,35787,2,0,L|216:188,1,35
260,188,35987,2,0,L|316:188,1,35
248,188,36187,1,0,0:0:0:0:
252,192,36387,2,0,L|200:192,1,35
104,64,36787,5,0,0:0:0:0:
412,64,37187,1,0,0:0:0:0:
220,124,37487,1,0,0:0:0:0:
220,124,37687,1,0,0:0:0:0:
220,124,37787,2,0,L|108:240,1,140
144,260,37987,2,0,B|368:200|368:200|332:160,1,280
248,84,38387,5,0,0:0:0:0:
212,56,38487,1,0,0:0:0:0:
168,44,38587,1,0,0:0:0:0:
128,52,38687,1,0,0:0:0:0:
92,80,38787,1,0,0:0:0:0:
64,116,38887,1,0,0:0:0:0:
56,160,38987,2,0,B|52:240|52:240|184:300,1,140
160,284,39187,2,0,L|444:200,1,280
456,200,39987,5,0,0:3:0:0:
410,231,40087,1,0,0:3:0:0:
373,257,40187,1,0,0:3:0:0:
332,284,40287,1,0,0:3:0:0:
291,314,40387,1,0,0:3:0:0:
248,340,40487,1,0,0:0:0:0:
192,340,40587,2,0,B|68:304|68:304|88:288|88:288|60:292|60:292|84:268|84:268|48:272|48:272|40:240|40:236|40:236|76:156,1,350
80,140,40787,2,0,B|452:32|452:32|424:84|424:84|472:104|472:104|424:104|424:104|468:136|468:136|416:120|416:120|444:164,1,700
444,180,41598,5,0,0:0:0:0:
390,184,41698,1,0,0:0:0:0:
345,188,41798,1,0,0:0:0:0:
294,191,41898,1,0,0:0:0:0:
244,193,41998,1,0,0:0:0:0:
192,192,42098,1,0,0:0:0:0:
196,148,42198,2,0,B|384:100|384:100|299:39|299:39|223:31,1,350
248,32,42398,2,0,B|553:244|479:333|297:413|94:276,1,700
184,92,43198,5,0,0:0:0:0:
140,96,43298,1,0,0:0:0:0:
100,120,43398,1,0,0:0:0:0:
80,164,43498,1,0,0:0:0:0:
88,212,43598,1,0,0:0:0:0:
104,256,43698,1,0,0:0:0:0:
128,296,43798,2,0,B|272:360|272:360|276:332|276:332|288:356|288:356|288:332|288:332|304:356|304:356|308:328|308:328|332:348|332:348|364:312,1,350
360,304,43998,2,0,B|424:56|424:56|400:80|400:80|420:36|420:36|372:64|372:64|200:32|136:48|228:200,1,700
232,207,44798,5,0,0:0:0:0:
280,229,44898,1,0,0:0:0:0:
322,247,44998,1,0,0:0:0:0:
368,270,45098,1,0,0:0:0:0:
413,292,45198,1,0,0:0:0:0:
456,312,45298,1,0,0:0:0:0:
424,340,45398,2,0,P|168:348|72:328,1,350
68,312,45598,2,0,B|160:92|160:92|180:136|180:136|184:72|184:72|200:116|200:116|384:32|404:28|404:28|404:44|404:44|412:36|412:36|408:60|408:60|416:52|416:52|424:88,1,700
432,88,45898,5,0,0:0:0:0:
408,132,45998,1,0,0:0:0:0:
376,168,46098,1,0,0:0:0:0:
332,204,46198,1,0,0:0:0:0:
288,236,46298,1,0,0:0:0:0:
244,260,46398,1,0,0:0:0:0:
192,260,46498,1,0,0:0:0:0:
146,229,46598,1,0,0:0:0:0:
110,186,46698,1,0,0:0:0:0:
95,130,46798,1,0,0:0:0:0:
97,73,46898,1,0,0:0:0:0:
137,19,46998,5,0,0:0:0:0:
203,15,47098,1,0,0:0:0:0:
251,48,47198,1,0,0:0:0:0:
231,108,47298,1,0,0:0:0:0:
183,152,47398,1,0,0:0:0:0:
201,213,47498,1,0,0:0:0:0:
265,196,47598,1,0,0:0:0:0:
323,171,47698,1,0,0:0:0:0:
380,143,47798,1,0,0:0:0:0:
405,198,47898,1,0,0:0:0:0:
434,253,47998,1,0,0:0:0:0:
453,316,48098,1,0,0:0:0:0:
396,347,48198,1,0,0:0:0:0:
347,305,48298,1,0,0:0:0:0:
301,351,48398,1,0,0:0:0:0:
250,314,48498,1,0,0:0:0:0:
184,348,48598,1,0,0:0:0:0:
136,292,48698,1,0,0:0:0:0:
72,336,48798,1,0,0:0:0:0:
32,272,48898,1,0,0:0:0:0:
100,224,48998,1,0,0:0:0:0:
172,192,49098,1,0,0:0:0:0:
236,144,49198,1,0,0:0:0:0:
168,108,49298,1,0,0:0:0:0:
92,84,49398,1,0,0:0:0:0:
72,40,49598,6,0,B|104:160|104:160|213:45|213:45|336:177|336:177|361:22|361:22|456:14,1,700,0|0,3:0|3:0,3:0:0:0:
48,206,49998,2,0,B|149:207|149:207|150:365|150:365|155:207|155:207|448:204,1,700,0|0,3:0|3:0,3:0:0:0:
256,188,50398,2,0,L|256:204,1,14
424,332,51198,5,0,0:0:0:0:
68,40,51598,1,0,0:0:0:0:
440,40,51698,1,0,0:0:0:0:
440,40,51798,2,0,B|320:28|320:28|328:80|328:80|280:28|280:28|280:96|280:96|220:32|220:32|224:120|224:120|196:60|196:56|160:44|160:44|80:224|204:316|416:344|476:292|476:64|144:32,1,1400
88,52,52398,5,0,0:0:0:0:
368,96,52598,1,0,0:0:0:0:
443,343,52798,1,0,0:0:0:0:
88,52,53198,5,0,0:0:0:0:
92,48,53398,2,0,B|224:40|224:40|232:120|232:120|288:32|288:32|368:44|440:144|300:168|296:168|364:208|364:208|416:204|416:204|240:272|240:272|160:264|44:200|100:120|100:120|256:156|256:156|284:192|208:324,1,1400
308,144,53998,5,0,0:0:0:0:
344,76,54198,1,0,0:0:0:0:
372,112,54298,1,0,0:0:0:0:
380,160,54398,1,0,0:0:0:0:
456,256,54798,1,0,0:0:0:0:
424,288,54998,2,0,B|88:308|88:308|120:256|120:256|72:244|72:244|64:48|336:72|300:212|300:212|256:268|132:392|176:196|176:196|328:224|328:224|516:96|144:40|552:24|156:28|156:28|96:68,1,1400
352,8,55598,5,0,0:0:0:0:
83,99,55798,1,0,0:0:0:0:
88,320,55998,2,12,L|100:312,1,14,12|12,3:0|3:0,3:0:0:0:
152,360,56598,2,0,B|176:292|176:292|112:240|112:240|176:288|176:288|112:232|112:232|172:292,1,350
116,236,56798,2,0,B|172:292|172:292|148:360|148:360|176:296|176:296|112:236|112:236|172:296|172:296|160:356|160:356|176:296|176:296|116:232|116:232|168:296|168:296|152:364,1,700
64,52,57598,5,0,0:0:0:0:
159,317,57998,1,0,0:0:0:0:
417,344,58198,2,0,B|432:228|432:228|392:224|392:224|448:64|144:20|64:248|88:324|88:324|228:272|228:272|312:372|384:280|288:168|56:128|56:128|96:32|192:56,1,1400
