osu file format v14

[General]
AudioFilename: audio.mp3
AudioLeadIn: 0
PreviewTime: -1
Countdown: 0
SampleSet: Normal
StackLeniency: 0.2
Mode: 0
LetterboxInBreaks: 0
WidescreenStoryboard: 0

[Editor]
DistanceSpacing: 0.2
BeatDivisor: 4
GridSize: 16
TimelineZoom: 3.499999

[Metadata]
Title:infinite:youniverse
TitleUnicode:infinite:youniverse
Artist:Kayuki
ArtistUnicode:かゆき
Creator:Jaitonat
Version:Xd
Source:
Tags:
BeatmapID:1283731
BeatmapSetID:607813

[Difficulty]
HPDrainRate:8
CircleSize:4
OverallDifficulty:9
ApproachRate:9.4
SliderMultiplier:1.6
SliderTickRate:1

[Events]
//Background and Video events
//Break Periods
2,79363,82987
//Storyboard Layer 0 (Background)
//Storyboard Layer 1 (Fail)
//Storyboard Layer 2 (Pass)
//Storyboard Layer 3 (Foreground)
//Storyboard Sound Samples

[TimingPoints]
618,272.727272727273,4,2,0,70,1,0
618,-133.333333333333,4,2,1,70,0,0
8254,-100,4,2,1,70,0,0
9345,-100,4,1,1,70,0,0
18072,-100,4,2,1,70,0,0
26799,-100,4,1,1,70,0,0
35527,-100,4,2,1,70,0,0
44254,-100,4,1,1,70,0,1
52964,-100,4,2,1,70,0,0
52981,-100,4,1,1,70,0,1
55163,-100,4,2,1,70,0,0
57345,-100,4,1,1,70,0,1
61708,-100,4,2,1,70,0,0
72799,-100,4,2,1,40,0,0
73072,-100,4,2,1,50,0,0
73299,-100,4,2,1,60,0,0
87890,-100,4,1,1,70,0,1
98799,-100,4,2,1,70,0,0
100981,-100,4,1,1,70,0,1
105345,-100,4,1,1,70,0,0

[HitObjects]
313,268,618,5,0,0:0:0:0:
313,268,686,6,0,B|351:259|351:259|378:262|378:262|425:256,1,90.0000034332277,2|0,0:0|0:0,0:0:0:0:
308,348,1027,2,0,P|266:333|250:313,1,60.0000022888184,2|0,0:0|0:0,0:0:0:0:
313,268,1299,1,0,0:0:0:0:
176,335,1436,1,2,0:0:0:0:
257,210,1572,1,0,0:0:0:0:
185,251,1708,6,0,L|120:259,1,60.0000022888184,2|0,0:0|0:0,0:0:0:0:
94,265,1981,1,0,0:0:0:0:
82,186,2118,2,0,P|29:218|17:288,1,120.000004577637,2|0,0:0|0:0,0:0:0:0:
161,180,2527,1,2,0:0:0:0:
94,265,2663,1,0,0:0:0:0:
108,111,2799,6,0,L|80:57,1,60.0000022888184,2|0,0:0|0:0,0:0:0:0:
189,90,3072,1,0,0:0:0:0:
189,90,3208,2,0,P|237:43|312:47,1,120.000004577637,2|0,0:0|0:0,0:0:0:0:
380,83,3618,1,2,0:0:0:0:
272,128,3754,1,0,0:0:0:0:
387,163,3890,5,2,0:0:0:0:
404,166,4163,1,0,0:0:0:0:
220,183,4299,1,2,0:0:0:0:
420,169,4436,1,0,0:0:0:0:
181,174,4572,1,2,0:0:0:0:
436,171,4708,1,0,0:0:0:0:
263,193,4845,1,2,0:0:0:0:
442,249,4981,5,2,0:0:0:0:
307,347,5254,1,0,0:0:0:0:
307,347,5390,2,0,P|353:317|436:340,1,120.000004577637,2|0,0:0|0:0,0:0:0:0:
415,324,5799,1,2,0:0:0:0:
360,274,5936,1,0,0:0:0:0:
277,261,6072,6,0,P|222:251|200:170,1,120.000004577637,2|0,0:0|0:0,0:0:0:0:
194,197,6481,1,2,0:0:0:0:
310,137,6754,1,0,0:0:0:0:
310,137,6890,2,0,L|299:74,1,60.0000022888184,2|0,0:0|0:0,0:0:0:0:
178,116,7163,6,0,L|190:48,1,60.0000022888184,2|0,0:0|0:0,0:0:0:0:
188,56,7436,1,0,0:0:0:0:
310,137,7572,1,2,0:0:0:0:
214,182,7845,1,0,0:0:0:0:
179,347,7981,1,2,0:0:0:0:
47,247,8118,1,0,0:0:0:0:
47,247,8254,6,0,L|66:163,1,80,2|0,3:0|0:0,0:0:0:0:
327,215,8527,2,0,L|308:131,1,80,2|0,3:0|0:0,0:0:0:0:
179,347,8799,2,0,L|198:263,1,80,2|0,3:0|0:0,0:0:0:0:
345,334,9072,1,4,3:0:0:0:
179,347,9345,5,0,0:0:0:0:
201,253,9481,1,2,2:1:0:0:
345,334,9618,1,0,1:0:0:0:
325,225,9754,1,2,2:1:0:0:
416,275,9890,5,0,0:0:0:0:
418,248,9958,1,0,0:0:0:0:
421,220,10027,2,0,L|426:181,1,40,2|2,2:1|2:1,0:0:0:0:
319,143,10163,1,0,0:0:0:0:
316,116,10231,1,0,2:0:0:0:
313,89,10299,1,2,2:1:0:0:
228,220,10436,5,0,0:0:0:0:
209,126,10572,1,2,2:1:0:0:
133,165,10708,1,0,0:0:0:0:
179,41,10845,1,2,2:1:0:0:
81,95,10981,5,0,0:0:0:0:
62,87,11049,1,0,0:0:0:0:
40,79,11118,2,0,L|3:66,1,40,2|2,2:1|2:1,2:0:0:0:
97,9,11254,1,0,0:0:0:0:
54,165,11390,1,2,2:1:0:0:
54,165,11527,6,0,L|33:259,1,80,0|2,0:0|2:1,0:0:0:0:
159,319,11799,2,0,L|141:240,1,80,0|2,0:0|2:1,0:0:0:0:
141,240,12072,1,0,0:0:0:0:
285,317,12208,1,2,2:1:0:0:
291,280,12277,1,2,2:1:0:0:
275,246,12345,1,0,0:0:0:0:
159,319,12481,1,2,2:1:0:0:
354,353,12618,6,0,L|367:268,1,80,0|2,0:0|2:1,0:0:0:0:
506,256,12890,2,0,L|488:177,1,80,0|2,0:0|2:1,0:0:0:0:
473,336,13163,5,8,3:0:0:0:
464,300,13231,1,8,3:0:0:0:
455,265,13299,1,8,3:0:0:0:
443,228,13368,1,8,3:0:0:0:
476,241,13436,1,2,2:1:0:0:
506,256,13504,1,2,2:1:0:0:
506,256,13572,1,2,2:1:0:0:
473,336,13708,6,0,L|388:362,1,80,0|2,0:0|2:1,0:0:0:0:
155,312,13981,2,0,L|251:333,1,80,0|2,0:0|2:1,0:0:0:0:
233,329,14254,5,0,0:0:0:0:
63,354,14390,1,2,2:1:0:0:
47,320,14458,1,2,2:1:0:0:
51,282,14527,1,0,0:0:0:0:
155,312,14663,1,2,2:1:0:0:
100,152,14799,6,0,L|114:230,1,80,0|2,0:0|2:1,0:0:0:0:
217,245,15072,2,0,L|239:161,1,80,0|2,0:0|2:1,0:0:0:0:
332,125,15345,1,0,0:0:0:0:
363,110,15413,1,0,0:0:0:0:
394,97,15481,1,0,0:0:0:0:
427,87,15549,1,0,0:0:0:0:
415,120,15618,1,0,0:0:0:0:
335,286,15754,5,2,2:1:0:0:
335,286,15822,1,0,0:0:0:0:
335,286,15890,2,0,L|311:201,1,80,0|2,0:0|2:1,0:0:0:0:
101,166,16163,2,0,L|125:81,1,80,0|2,0:0|2:1,0:0:0:0:
406,236,16436,2,0,L|382:151,1,80,0|2,0:0|2:1,0:0:0:0:
203,316,16708,2,0,L|227:231,1,80,0|2,0:0|2:1,0:0:0:0:
178,179,16981,5,0,0:0:0:0:
211,165,17049,1,0,0:0:0:0:
247,164,17118,1,2,2:1:0:0:
280,177,17186,1,2,2:1:0:0:
308,199,17254,5,0,0:0:0:0:
340,213,17322,1,0,0:0:0:0:
375,211,17390,1,2,2:1:0:0:
407,195,17458,1,2,2:1:0:0:
422,161,17527,5,2,2:1:0:0:
414,125,17595,1,2,2:1:0:0:
383,106,17663,1,2,2:1:0:0:
348,114,17731,1,2,2:1:0:0:
334,147,17799,1,4,1:2:0:0:
464,256,18072,6,0,P|487:217|488:177,1,80,2|0,0:0|0:0,0:0:0:0:
407,195,18345,1,8,0:1:0:0:
339,237,18481,2,0,B|257:215|257:272|172:238,1,160,2|0,0:0|0:0,0:0:0:0:
297,308,18890,1,8,0:1:0:0:
334,147,19027,1,0,0:0:0:0:
217,166,19163,6,0,L|128:147,1,80,2|0,0:0|0:0,0:0:0:0:
117,144,19436,1,8,0:1:0:0:
109,262,19572,6,0,L|20:243,1,80,2|0,0:0|0:0,0:0:0:0:
30,245,19845,1,8,0:0:0:0:
297,308,19981,1,8,0:0:0:0:
297,308,20254,2,0,L|321:225,1,80,2|0,0:0|0:0,0:0:0:0:
200,319,20527,2,0,L|180:234,1,80,8|0,0:1|0:0,0:0:0:0:
384,184,20799,1,2,0:0:0:0:
384,184,20936,2,0,L|404:99,1,80,2|8,0:0|0:1,0:0:0:0:
251,131,21208,2,0,L|231:46,1,80,2|0,0:0|0:0,0:0:0:0:
384,184,21481,1,0,0:0:0:0:
384,184,21618,6,0,P|370:226|341:252,1,80,8|0,0:1|0:0,0:0:0:0:
349,102,21890,2,0,P|319:68|311:30,1,80,2|0,0:0|0:0,0:0:0:0:
429,116,22163,2,8,P|472:107|509:119,1,80,8|0,0:1|0:0,0:0:0:0:
311,184,22436,6,0,L|227:188,1,80,6|0,0:0|0:0,0:0:0:0:
79,180,22708,1,8,0:1:0:0:
41,99,22845,2,0,B|123:77|123:134|208:100,1,160,2|0,0:0|0:0,0:0:0:0:
159,37,23254,1,8,0:1:0:0:
79,180,23390,1,2,0:0:0:0:
197,103,23527,6,0,L|216:186,1,80,2|0,0:0|0:0,0:0:0:0:
236,266,23799,1,8,0:1:0:0:
79,180,23936,2,0,L|60:263,1,80,2|0,0:0|0:0,0:0:0:0:
40,344,24208,1,0,0:0:0:0:
237,267,24345,5,10,0:1:0:0:
119,332,24618,2,0,B|201:310|201:367|286:333,1,160,6|8,0:0|0:1,0:0:0:0:
388,253,25027,2,0,P|431:249|470:276,1,80,2|0,0:0|0:0,0:0:0:0:
461,266,25299,1,2,0:0:0:0:
308,230,25436,1,8,0:1:0:0:
408,343,25572,1,2,0:0:0:0:
467,176,25708,6,0,P|428:165|389:168,1,80,2|0,0:0|0:0,0:0:0:0:
308,230,25981,1,8,0:1:0:0:
390,52,26118,1,2,0:0:0:0:
281,136,26254,2,0,L|301:131,1,20
272,102,26322,2,0,L|291:105,1,20
273,73,26390,2,0,L|292:76,1,20
278,37,26458,2,0,L|294:48,1,20
296,17,26527,5,0,0:0:0:0:
258,45,26595,1,0,0:0:0:0:
213,53,26663,1,0,0:0:0:0:
168,51,26731,1,0,0:0:0:0:
126,32,26799,5,0,0:0:0:0:
201,203,26936,1,8,0:0:0:0:
63,86,27072,1,0,0:0:0:0:
63,86,27140,1,0,0:0:0:0:
63,86,27208,1,8,0:0:0:0:
172,104,27345,1,0,0:0:0:0:
172,237,27482,1,8,0:0:0:0:
96,73,27618,1,0,0:0:0:0:
96,73,27686,1,0,0:0:0:0:
96,73,27754,1,8,0:0:0:0:
258,196,27890,5,2,2:1:0:0:
296,17,28027,1,8,0:1:0:0:
411,217,28163,1,2,2:1:0:0:
416,201,28231,1,2,2:1:0:0:
421,186,28299,1,8,0:0:0:0:
461,62,28436,1,2,2:1:0:0:
326,237,28572,1,8,0:0:0:0:
452,186,28708,5,2,2:1:0:0:
457,170,28776,1,2,2:1:0:0:
462,155,28844,1,8,0:0:0:0:
448,316,28981,5,2,2:1:0:0:
268,163,29118,1,8,0:0:0:0:
367,356,29254,1,2,2:1:0:0:
367,356,29322,1,0,0:0:0:0:
367,356,29390,2,0,L|339:312,1,40
234,314,29527,2,0,L|262:270,1,40
159,348,29663,5,0,0:0:0:0:
135,345,29731,1,0,0:0:0:0:
111,344,29799,1,0,0:0:0:0:
86,342,29868,1,0,0:0:0:0:
62,339,29936,1,0,0:0:0:0:
35,338,30004,1,0,0:0:0:0:
51,317,30072,5,0,0:0:0:0:
71,299,30140,1,0,0:0:0:0:
91,281,30208,1,0,0:0:0:0:
111,263,30277,1,0,0:0:0:0:
130,244,30345,1,0,0:0:0:0:
212,239,30481,5,0,0:0:0:0:
42,191,30618,1,0,0:0:0:0:
212,239,30754,1,0,0:0:0:0:
90,123,30890,1,0,0:0:0:0:
111,263,31027,1,0,0:0:0:0:
292,219,31163,5,0,0:0:0:0:
323,211,31231,1,0,0:0:0:0:
354,203,31299,1,0,0:0:0:0:
385,194,31368,1,0,0:0:0:0:
355,183,31436,1,0,0:0:0:0:
324,173,31504,1,0,0:0:0:0:
293,164,31572,1,0,0:0:0:0:
261,156,31640,1,0,0:0:0:0:
292,148,31708,5,0,0:0:0:0:
323,140,31776,1,0,0:0:0:0:
354,132,31844,1,0,0:0:0:0:
385,123,31913,1,0,0:0:0:0:
355,112,31981,1,0,0:0:0:0:
324,102,32049,1,0,0:0:0:0:
293,93,32117,1,0,0:0:0:0:
261,85,32185,1,0,0:0:0:0:
291,74,32254,5,0,0:0:0:0:
321,64,32322,1,0,0:0:0:0:
352,57,32390,1,0,0:0:0:0:
382,48,32458,1,0,0:0:0:0:
413,56,32527,1,0,0:0:0:0:
442,67,32595,1,0,0:0:0:0:
471,79,32663,1,0,0:0:0:0:
499,92,32731,1,0,0:0:0:0:
475,113,32799,5,0,0:0:0:0:
460,142,32868,1,0,0:0:0:0:
454,173,32936,1,0,0:0:0:0:
456,204,33004,1,0,0:0:0:0:
465,234,33072,1,0,0:0:0:0:
488,270,33140,1,0,0:0:0:0:
488,270,33208,1,0,0:0:0:0:
488,270,33277,1,0,0:0:0:0:
488,270,33345,1,0,0:0:0:0:
390,228,33481,6,0,P|317:230|264:300,1,160
354,314,33890,1,2,3:1:0:0:
319,91,34026,1,10,3:1:0:0:
354,314,34162,1,2,3:1:0:0:
417,131,34299,1,8,3:1:0:0:
261,171,34436,6,0,L|213:184,1,40
140,199,34572,1,0,0:0:0:0:
108,205,34640,1,0,0:0:0:0:
72,212,34708,2,0,L|123:219,1,40,8|0,0:0|0:0,0:0:0:0:
257,187,34845,6,0,L|209:200,1,40,8|0,0:0|0:0,0:0:0:0:
173,278,34981,1,0,0:0:0:0:
141,284,35049,1,0,0:0:0:0:
105,291,35117,2,0,L|156:298,1,40,8|0,0:0|0:0,0:0:0:0:
140,199,35254,5,8,0:0:0:0:
133,167,35322,1,0,0:0:0:0:
135,135,35390,1,0,0:0:0:0:
148,105,35458,1,0,0:0:0:0:
168,80,35527,1,4,0:1:0:0:
141,284,35663,1,2,0:0:0:0:
63,40,35799,1,2,0:0:0:0:
205,156,35936,2,0,P|237:119|251:89,1,80,2|0,0:0|0:0,0:0:0:0:
168,80,36208,5,2,0:0:0:0:
168,80,36277,1,0,0:0:0:0:
168,80,36345,1,2,0:0:0:0:
140,243,36481,1,0,0:0:0:0:
270,57,36618,1,2,0:0:0:0:
242,220,36754,1,0,0:0:0:0:
387,52,36890,1,2,0:0:0:0:
359,215,37026,1,0,0:0:0:0:
459,95,37163,5,2,0:0:0:0:
430,270,37299,1,2,0:0:0:0:
381,40,37436,1,2,0:0:0:0:
476,193,37572,1,0,0:0:0:0:
270,57,37708,5,2,0:0:0:0:
359,215,37845,1,2,0:0:0:0:
381,40,37981,1,2,0:0:0:0:
245,224,38118,1,2,0:0:0:0:
476,193,38390,1,2,0:0:0:0:
270,57,38527,1,2,0:0:0:0:
376,299,38663,1,0,0:0:0:0:
374,182,38799,1,2,0:0:0:0:
374,182,38890,6,0,L|335:113,1,53.3333333333333
333,110,39072,1,2,0:0:0:0:
318,245,39208,1,4,0:0:0:0:
168,139,39345,5,0,0:0:0:0:
231,297,39481,1,6,0:0:0:0:
270,57,39618,1,0,0:0:0:0:
115,226,39754,2,0,L|169:215,1,40,2|0,0:0|0:1,1:0:0:0:
318,245,39890,5,2,1:2:0:0:
138,309,40027,1,2,1:2:0:0:
191,64,40163,1,2,1:2:0:0:
191,64,40299,1,2,1:2:0:0:
107,215,40572,6,0,L|157:218,1,40,2|0,0:0|0:1,1:0:0:0:
337,115,40708,1,2,1:2:0:0:
231,297,40845,1,2,1:2:0:0:
191,64,40981,1,2,1:2:0:0:
318,245,41118,1,2,1:2:0:0:
405,58,41390,5,0,1:0:0:0:
405,58,41458,1,0,1:0:0:0:
405,58,41527,6,2,L|414:114,1,40,2|2,0:0|0:0,1:0:0:0:
320,150,41663,6,2,L|326:189,1,40,2|2,0:0|0:0,1:0:0:0:
428,191,41799,6,2,L|434:230,1,40,2|2,0:0|0:0,1:0:0:0:
423,337,41936,6,0,L|414:258,1,80,6|0,0:0|0:0,0:0:0:0:
200,107,42208,1,2,2:1:0:0:
200,107,42276,1,2,2:1:0:0:
200,107,42344,1,8,1:0:0:0:
314,333,42481,1,2,2:1:0:0:
347,108,42618,1,8,1:0:0:0:
230,270,42754,5,2,0:1:0:0:
253,267,42822,1,2,0:1:0:0:
276,264,42890,1,8,1:0:0:0:
433,241,43027,1,0,0:0:0:0:
122,155,43163,5,2,3:1:0:0:
272,67,43368,1,2,3:1:0:0:
230,270,43572,1,4,3:0:0:0:
230,270,43708,1,4,2:2:0:0:
353,252,44254,6,0,L|336:171,1,80,2|8,2:1|0:0,0:0:0:0:
319,95,44527,1,2,2:1:0:0:
449,241,44663,1,8,0:0:0:0:
212,191,44799,5,2,2:1:0:0:
449,241,44936,1,8,0:0:0:0:
319,95,45072,1,2,2:1:0:0:
228,269,45208,6,0,L|211:188,1,80,8|2,0:0|2:1,0:0:0:0:
80,146,45481,2,8,L|63:224,1,80,8|2,0:0|2:1,0:0:0:0:
217,151,45754,2,8,L|200:70,1,80,10|2,0:0|2:1,0:0:0:0:
47,299,46027,5,8,0:0:0:0:
217,151,46163,1,2,2:1:0:0:
217,151,46231,1,2,2:1:0:0:
217,151,46299,1,8,0:0:0:0:
80,146,46436,2,8,L|63:224,1,80,2|8,2:1|0:0,0:0:0:0:
227,268,46708,1,2,2:1:0:0:
97,43,46845,1,8,0:0:0:0:
392,241,46981,1,2,2:1:0:0:
262,16,47118,1,8,0:0:0:0:
227,268,47254,1,2,2:1:0:0:
352,35,47390,6,0,L|369:116,1,80,8|2,0:0|2:1,0:0:0:0:
482,103,47663,2,8,L|465:184,1,80,8|2,0:0|2:1,0:0:0:0:
376,163,47936,2,8,L|393:244,1,80,10|2,0:0|2:1,0:0:0:0:
413,315,48208,1,8,0:0:0:0:
378,60,48345,1,2,2:1:0:0:
465,181,48481,1,8,0:0:0:0:
223,56,48618,6,0,L|207:134,1,80,2|8,2:1|0:0,0:0:0:0:
274,194,48890,1,2,2:1:0:0:
274,194,48958,1,2,2:1:0:0:
274,194,49027,1,8,0:0:0:0:
224,55,49163,1,2,2:1:0:0:
190,218,49299,1,8,0:0:0:0:
297,104,49436,1,2,2:1:0:0:
297,104,49504,1,2,2:1:0:0:
297,104,49572,1,8,0:0:0:0:
101,204,49708,5,2,2:1:0:0:
101,204,49845,2,0,L|117:282,1,80,8|2,0:0|2:1,0:0:0:0:
298,101,50118,2,0,L|282:179,1,80,8|2,0:0|2:1,0:0:0:0:
264,271,50390,1,8,0:0:0:0:
76,107,50527,1,2,2:1:0:0:
117,282,50663,1,8,0:0:0:0:
316,94,50799,5,2,2:1:0:0:
426,262,50936,1,8,0:0:0:0:
316,94,51072,1,2,2:1:0:0:
497,216,51208,1,8,0:0:0:0:
386,49,51345,5,2,2:1:0:0:
396,346,51481,1,8,0:0:0:0:
281,179,51618,1,2,2:1:0:0:
310,341,51754,1,8,0:0:0:0:
133,236,51890,5,8,3:0:0:0:
124,205,51958,1,8,3:0:0:0:
115,173,52027,1,8,3:0:0:0:
106,142,52095,1,8,3:0:0:0:
97,111,52163,1,8,3:0:0:0:
89,79,52231,1,8,3:0:0:0:
79,48,52299,1,8,3:0:0:0:
70,16,52368,1,8,3:0:0:0:
70,16,52436,6,0,L|41:63,1,40,4|0,3:0|3:0,3:0:0:0:
251,168,52572,2,0,L|259:126,1,40,4|0,3:0|3:0,3:0:0:0:
335,60,52708,6,0,L|364:107,1,40,4|0,3:0|3:0,3:0:0:0:
453,133,52845,2,0,L|461:91,1,40,4|0,3:0|3:0,3:0:0:0:
180,99,52981,6,0,L|163:20,1,80,2|8,2:1|0:0,0:0:0:0:
339,172,53254,2,0,L|356:93,1,80,2|8,2:1|0:0,0:0:0:0:
181,99,53527,1,2,2:1:0:0:
246,302,53663,1,8,0:0:0:0:
355,93,53799,1,2,2:1:0:0:
101,261,53936,6,0,L|84:182,1,80,8|2,0:0|2:1,0:0:0:0:
283,343,54208,2,0,L|300:264,1,80,8|2,0:0|2:1,0:0:0:0:
101,261,54481,1,8,0:0:0:0:
355,93,54618,1,0,0:0:0:0:
283,343,54754,1,12,2:1:0:0:
352,200,54890,5,2,2:1:0:0:
355,188,54958,1,2,2:1:0:0:
358,176,55027,1,8,0:0:0:0:
450,174,55163,6,0,L|436:93,1,80,8|2,1:0|0:1,0:0:0:0:
450,174,55572,5,2,2:1:0:0:
443,134,55640,1,2,2:1:0:0:
436,95,55708,2,0,L|426:142,1,40,8|0,1:0|0:0,0:0:0:0:
287,84,55845,2,0,L|297:130,1,40,0|0,1:0|0:0,0:0:0:0:
222,44,55981,1,2,2:1:0:0:
192,46,56049,1,2,2:1:0:0:
162,49,56117,1,2,2:1:0:0:
132,52,56185,1,2,2:1:0:0:
102,55,56253,5,12,1:0:0:0:
173,183,56390,1,2,2:1:0:0:
222,44,56527,1,2,2:1:0:0:
84,99,56663,5,12,1:0:0:0:
194,194,56800,1,2,2:1:0:0:
192,46,56937,1,2,2:1:0:0:
81,145,57072,5,12,1:0:0:0:
216,196,57209,1,8,1:0:0:0:
164,58,57346,5,2,2:1:0:0:
109,252,57481,1,8,0:0:0:0:
216,196,57618,1,2,2:1:0:0:
216,196,57686,1,2,2:1:0:0:
216,196,57754,1,8,0:0:0:0:
81,145,57890,5,2,2:1:0:0:
191,287,58027,1,8,0:0:0:0:
222,44,58163,1,2,2:1:0:0:
303,142,58299,5,8,0:0:0:0:
308,118,58368,1,0,0:0:0:0:
313,94,58436,1,2,2:1:0:0:
407,249,58572,1,8,0:0:0:0:
313,94,58708,1,2,2:1:0:0:
481,173,58845,1,8,0:0:0:0:
321,266,58981,5,2,2:1:0:0:
326,242,59050,1,2,2:1:0:0:
332,218,59118,1,8,0:0:0:0:
477,328,59254,1,0,0:0:0:0:
251,360,59390,5,8,0:0:0:0:
246,336,59459,1,2,2:1:0:0:
239,308,59527,2,0,L|222:223,1,80,2|8,2:1|0:0,0:0:0:0:
142,295,59799,5,2,2:1:0:0:
114,251,59868,1,2,2:1:0:0:
89,207,59936,1,8,0:0:0:0:
41,346,60072,1,2,2:1:0:0:
52,122,60208,1,8,0:0:0:0:
245,253,60345,5,2,2:1:0:0:
240,229,60414,1,2,2:1:0:0:
233,201,60481,1,8,0:0:0:0:
89,207,60618,5,2,2:1:0:0:
345,174,60754,1,8,0:0:0:0:
143,296,60890,1,2,2:1:0:0:
141,32,61027,1,8,0:0:0:0:
233,121,61163,1,2,2:0:0:0:
233,121,61254,2,0,L|224:181,1,53.3333333333333,0|0,2:0|2:0,2:0:0:0:
348,181,61436,1,2,2:0:0:0:
348,181,61527,2,0,L|339:121,1,53.3333333333333,0|0,2:0|2:0,2:0:0:0:
356,49,61708,5,4,0:1:0:0:
440,113,61845,1,0,0:0:0:0:
440,113,61981,2,0,L|462:32,1,80,2|0,0:0|0:0,0:0:0:0:
457,326,62254,1,0,0:0:0:0:
457,326,62390,2,0,L|479:245,1,80,2|0,0:0|0:0,0:0:0:0:
354,257,62663,6,0,P|311:242|265:247,1,80,2|0,0:0|0:0,0:0:0:0:
178,210,62936,2,0,P|212:180|231:137,1,80,2|0,0:0|0:0,0:0:0:0:
217,287,63208,1,2,0:0:0:0:
217,287,63345,2,0,P|194:326|191:372,1,80,2|2,2:0|2:0,2:0:0:0:
84,194,63618,1,0,0:0:0:0:
103,328,63754,1,0,0:0:0:0:
143,124,63890,5,2,0:0:0:0:
34,265,64027,1,2,0:0:0:0:
178,210,64163,1,0,0:0:0:0:
103,328,64299,1,2,0:0:0:0:
56,108,64436,1,2,0:0:0:0:
255,190,64572,1,0,0:0:0:0:
186,84,64845,6,0,L|273:76,1,80,2|0,0:0|0:0,0:0:0:0:
255,190,65118,6,0,L|342:182,1,80,2|0,0:0|0:0,0:0:0:0:
350,67,65390,6,0,L|437:59,1,80,2|0,0:0|0:0,0:0:0:0:
407,152,65663,5,0,0:0:0:0:
446,155,65731,1,0,0:0:0:0:
486,158,65799,1,2,0:0:0:0:
356,67,65936,1,0,0:0:0:0:
482,240,66072,5,0,0:0:0:0:
306,156,66345,1,0,0:0:0:0:
486,158,66481,5,0,0:0:0:0:
456,162,66549,1,0,0:0:0:0:
430,177,66617,1,2,0:0:0:0:
411,200,66685,1,2,0:0:0:0:
402,228,66753,5,0,0:0:0:0:
403,258,66821,1,0,0:0:0:0:
415,285,66890,1,2,0:0:0:0:
436,307,66958,1,2,0:0:0:0:
463,319,67026,1,0,0:0:0:0:
482,240,67163,5,0,0:0:0:0:
257,192,67368,1,2,0:0:0:0:
338,315,67572,1,2,0:0:0:0:
184,249,67708,1,0,0:0:0:0:
229,328,67913,1,2,0:0:0:0:
79,225,68118,5,2,0:0:0:0:
142,346,68254,1,2,0:0:0:0:
142,346,68663,5,2,0:0:0:0:
228,216,68799,1,2,0:0:0:0:
316,296,69345,5,0,0:0:0:0:
324,264,69436,1,2,0:0:0:0:
332,232,69527,1,2,0:0:0:0:
242,268,69618,2,0,L|227:209,2,53.3333333333333,0|2|2,0:0|0:0|0:0,0:0:0:0:
349,154,69890,5,4,0:0:0:0:
255,134,70027,1,2,0:0:0:0:
252,120,70095,1,2,0:0:0:0:
249,107,70163,1,0,0:0:0:0:
246,94,70231,1,0,0:0:0:0:
243,81,70299,1,0,0:0:0:0:
240,68,70367,1,0,0:0:0:0:
237,55,70436,6,0,L|228:7,1,40,2|2,0:0|0:0,0:0:0:0:
166,127,70572,1,2,0:0:0:0:
319,75,70708,1,2,0:0:0:0:
242,268,70845,1,2,0:0:0:0:
242,268,70913,2,0,L|232:229,1,40,0|2,0:0|0:0,0:0:0:0:
364,322,71049,5,2,0:0:0:0:
369,294,71118,1,0,0:0:0:0:
373,266,71186,1,2,0:0:0:0:
378,238,71254,1,2,0:0:0:0:
383,210,71322,1,2,0:0:0:0:
387,182,71390,1,2,0:0:0:0:
392,154,71458,1,0,0:0:0:0:
397,126,71527,6,0,L|406:68,2,53.3333333333333,2|2|0,0:0|0:0|0:0,0:0:0:0:
221,245,71799,2,0,L|212:297,2,53.3333333333333,2|2|0,0:0|0:0|0:0,0:0:0:0:
117,210,72072,5,2,0:0:0:0:
82,221,72140,1,2,0:0:0:0:
46,214,72208,1,0,0:0:0:0:
19,188,72277,1,0,0:0:0:0:
60,169,72345,1,2,0:0:0:0:
92,185,72413,1,2,0:0:0:0:
117,210,72481,1,0,0:0:0:0:
125,244,72549,1,0,0:0:0:0:
120,280,72618,1,2,0:0:0:0:
223,274,72799,5,2,0:0:0:0:
223,274,72890,2,0,L|210:209,1,53.3333333333333,2|0,0:0|0:0,0:0:0:0:
46,214,73072,5,2,0:0:0:0:
46,214,73163,2,0,L|59:149,1,53.3333333333333,2|0,0:0|0:0,0:0:0:0:
192,151,73299,6,0,L|182:104,1,40,0|2,0:0|0:0,0:0:0:0:
74,82,73436,1,0,0:0:0:0:
74,82,73504,2,2,L|84:35,1,40
64,172,73708,1,8,1:0:0:0:
284,135,73845,2,0,L|265:48,1,80,2|2,0:1|0:1,0:0:0:0:
46,250,74118,2,0,L|65:163,1,80,8|2,0:1|0:1,0:0:0:0:
326,318,74390,2,0,L|307:231,1,80,8|2,0:1|0:1,0:0:0:0:
434,234,74663,1,8,1:0:0:0:
434,234,74799,5,8,1:0:0:0:
248,55,74936,1,8,1:0:0:0:
326,318,75072,1,8,1:0:0:0:
360,107,75208,1,8,1:0:0:0:
434,234,75481,5,2,2:1:0:0:
434,234,75549,1,2,2:1:0:0:
434,234,75618,1,8,1:0:0:0:
144,168,75754,1,8,1:0:0:0:
326,318,75890,1,8,1:0:0:0:
248,55,76027,1,8,1:0:0:0:
326,318,76299,5,2,2:1:0:0:
326,318,76367,1,2,2:1:0:0:
326,318,76436,1,8,1:0:0:0:
267,212,76572,1,2,2:1:0:0:
247,210,76640,1,2,2:1:0:0:
227,211,76708,1,2,2:1:0:0:
208,218,76777,1,2,2:1:0:0:
192,230,76845,1,12,0:1:0:0:
375,187,77072,5,2,0:0:0:0:
375,187,77163,2,0,L|387:114,1,53.3333333333333,2|8,0:0|0:1,0:0:0:0:
192,303,77345,1,2,0:0:0:0:
192,303,77436,2,0,L|180:230,1,53.3333333333333,2|8,0:0|0:1,0:0:0:0:
447,349,77618,5,2,0:0:0:0:
447,349,77709,2,0,L|459:276,1,53.3333333333333,2|8,0:0|0:1,0:0:0:0:
375,309,77890,1,2,0:0:0:0:
339,298,77981,1,2,0:0:0:0:
302,304,78072,5,4,3:0:0:0:
283,18,78277,1,4,3:0:0:0:
176,304,78481,1,4,3:0:0:0:
296,193,78618,1,8,0:1:0:0:
293,161,78708,1,4,3:0:0:0:
291,134,78799,1,4,3:0:0:0:
289,107,78890,1,8,0:1:0:0:
289,107,79163,5,4,0:1:0:0:
185,107,83527,5,0,0:1:0:0:
190,122,83799,1,0,0:1:0:0:
195,136,84072,1,0,0:1:0:0:
111,83,84345,1,0,0:1:0:0:
201,150,84618,5,0,0:1:0:0:
206,165,84890,1,0,0:1:0:0:
211,179,85163,1,0,0:1:0:0:
216,191,85299,1,2,0:1:0:0:
115,102,85436,1,8,1:0:0:0:
128,298,85708,5,8,1:0:0:0:
294,273,85845,1,2,0:1:0:0:
294,273,85981,1,2,0:1:0:0:
53,200,86118,1,8,1:0:0:0:
284,160,86254,1,2,0:1:0:0:
284,160,86390,1,2,0:1:0:0:
0,129,86527,1,8,1:0:0:0:
346,50,86663,1,2,0:1:0:0:
128,298,86799,5,8,1:0:0:0:
352,48,87004,1,8,1:0:0:0:
304,318,87208,1,8,1:0:0:0:
53,200,87345,1,0,0:0:0:0:
260,171,87481,2,0,L|284:160,1,26.6666666666667
263,191,87572,2,0,L|290:191,1,26.6666666666667
261,210,87663,2,0,L|286:221,1,26.6666666666667
253,224,87754,2,0,L|271:245,1,26.6666666666667
235,193,87845,1,0,0:0:0:0:
235,193,87890,6,0,B|154:169|155:219|74:189,1,160,6|2,2:1|2:1,0:0:0:0:
122,122,88299,1,8,0:0:0:0:
191,261,88436,1,2,2:1:0:0:
192,80,88572,1,8,0:0:0:0:
78,190,88708,1,2,2:1:0:0:
267,120,88845,6,0,L|287:38,1,80,8|2,0:0|2:1,0:0:0:0:
78,190,89118,2,0,L|58:108,1,80,8|2,0:0|2:1,0:0:0:0:
191,261,89390,2,0,L|211:179,1,80,8|2,0:0|2:1,0:0:0:0:
99,282,89663,1,8,0:0:0:0:
172,342,89799,1,2,2:1:0:0:
172,342,89868,1,2,2:1:0:0:
172,342,89936,1,8,0:0:0:0:
286,257,90072,6,0,B|367:233|366:283|447:253,1,160,2|2,2:1|2:1,0:0:0:0:
399,189,90481,1,8,0:0:0:0:
327,336,90618,1,2,2:1:0:0:
353,127,90754,1,8,0:0:0:0:
442,254,90890,1,2,2:1:0:0:
462,43,91027,6,0,L|431:124,1,80,8|2,0:0|2:1,0:0:0:0:
259,110,91299,2,0,L|290:191,1,80,8|2,0:0|2:1,0:0:0:0:
442,254,91572,2,0,L|411:335,1,80,8|2,0:0|2:1,0:0:0:0:
413,328,91845,1,0,2:0:0:0:
462,43,91981,1,8,2:1:0:0:
287,184,92118,1,0,2:0:0:0:
442,254,92254,5,2,2:1:0:0:
334,93,92390,1,8,0:0:0:0:
287,358,92527,1,2,2:1:0:0:
266,338,92595,1,2,2:1:0:0:
245,318,92663,1,8,0:0:0:0:
161,110,92799,5,2,2:1:0:0:
173,269,92936,1,8,0:0:0:0:
72,166,93072,1,2,2:1:0:0:
51,146,93140,1,2,2:1:0:0:
30,126,93208,1,8,0:0:0:0:
154,190,93345,5,2,2:1:0:0:
186,34,93481,2,0,L|222:116,1,80,8|2,0:0|2:1,0:0:0:0:
337,116,93686,1,2,2:1:0:0:
337,116,93754,2,0,L|301:198,1,80,8|2,0:0|2:1,0:0:0:0:
316,29,94027,1,8,0:0:0:0:
407,92,94163,2,0,L|418:135,1,40,2|2,2:1|2:1,0:0:0:0:
489,174,94299,2,8,L|498:135,1,40,8|2,0:0|2:1,0:0:0:0:
316,29,94436,5,0,0:0:0:0:
328,269,94572,1,8,0:0:0:0:
316,29,94708,1,0,0:0:0:0:
437,234,94845,1,8,0:0:0:0:
269,150,94981,1,0,0:0:0:0:
497,135,95118,1,8,0:0:0:0:
328,269,95254,1,0,0:0:0:0:
316,29,95390,1,8,0:0:0:0:
266,205,95527,5,2,2:1:0:0:
244,187,95595,1,2,2:1:0:0:
217,176,95663,1,2,2:1:0:0:
189,176,95731,1,2,2:1:0:0:
162,185,95799,1,2,2:1:0:0:
137,199,95868,1,2,2:1:0:0:
109,202,95936,1,2,2:1:0:0:
81,197,96004,1,2,2:1:0:0:
57,181,96072,5,2,2:0:0:0:
204,286,96208,1,2,2:1:0:0:
205,266,96276,1,2,2:1:0:0:
206,246,96344,1,8,0:0:0:0:
69,300,96481,1,2,2:1:0:0:
67,280,96549,1,2,2:1:0:0:
65,260,96618,6,0,L|56:176,1,80,2|8,2:1|0:0,0:0:0:0:
266,205,96890,2,0,L|276:126,1,80,2|8,2:1|0:0,0:0:0:0:
137,199,97163,5,2,2:1:0:0:
134,172,97231,1,0,2:0:0:0:
131,145,97299,1,8,0:0:0:0:
128,119,97367,1,0,2:0:0:0:
192,138,97436,5,2,2:1:0:0:
189,111,97504,1,2,2:1:0:0:
186,84,97572,1,8,0:0:0:0:
183,58,97640,1,0,2:0:0:0:
183,58,97708,1,2,2:1:0:0:
223,65,97777,1,0,2:1:0:0:
261,57,97845,1,0,0:0:0:0:
296,35,97913,1,0,2:0:0:0:
296,35,97981,5,2,2:1:0:0:
292,75,98049,1,2,2:1:0:0:
302,113,98118,1,8,0:0:0:0:
340,143,98186,1,0,2:0:0:0:
390,135,98254,1,2,2:1:0:0:
398,163,98322,1,2,2:1:0:0:
407,192,98390,1,8,0:0:0:0:
415,221,98458,1,0,2:0:0:0:
424,249,98526,1,2,2:1:0:0:
512,228,98663,5,2,2:1:0:0:
504,271,98731,1,2,2:1:0:0:
498,313,98799,1,8,1:0:0:0:
498,313,98936,1,2,2:1:0:0:
223,130,99208,5,2,2:1:0:0:
231,158,99276,1,2,2:1:0:0:
239,187,99344,1,8,2:1:0:0:
247,216,99412,1,8,2:1:0:0:
255,245,99480,1,8,2:1:0:0:
260,266,99549,1,2,2:1:0:0:
269,294,99618,1,2,2:1:0:0:
238,268,99686,1,2,2:1:0:0:
200,257,99754,1,2,2:1:0:0:
161,262,99822,1,2,2:1:0:0:
127,282,99890,5,12,1:0:0:0:
239,187,100027,1,4,3:0:0:0:
192,354,100163,1,4,3:0:0:0:
140,182,100299,5,12,1:0:0:0:
192,354,100436,1,4,3:0:0:0:
239,187,100572,1,4,3:0:0:0:
62,324,100708,1,12,1:0:0:0:
30,119,100845,1,4,3:0:0:0:
92,233,100981,6,0,L|115:148,1,80,2|8,2:1|0:0,0:0:0:0:
239,187,101254,1,2,2:1:0:0:
267,160,101322,1,2,2:1:0:0:
306,157,101390,1,8,0:0:0:0:
142,134,101527,6,0,L|165:49,1,80,2|8,2:1|0:0,0:0:0:0:
276,83,101799,1,2,2:1:0:0:
313,73,101867,1,2,2:1:0:0:
348,90,101935,1,8,0:0:0:0:
413,165,102072,5,2,2:0:0:0:
313,73,102208,1,8,2:1:0:0:
273,296,102345,1,2,2:0:0:0:
267,160,102481,1,8,2:1:0:0:
357,247,102618,1,2,2:0:0:0:
357,247,102708,2,0,L|409:304,2,53.3333333333333,2|2|8,2:0|2:0|0:0,2:0:0:0:
313,73,103027,5,2,2:1:0:0:
273,296,103163,1,2,2:1:0:0:
156,57,103299,5,8,0:0:0:0:
196,217,103435,1,2,2:1:0:0:
313,73,103572,1,8,0:0:0:0:
273,296,103708,1,2,2:1:0:0:
120,170,103845,1,2,2:1:0:0:
94,188,103913,1,2,2:1:0:0:
62,194,103981,5,2,2:1:0:0:
33,180,104049,1,2,2:1:0:0:
30,147,104118,1,2,2:1:0:0:
55,127,104186,1,2,2:1:0:0:
87,128,104254,6,0,L|80:88,1,40,2|2,2:0|2:0,0:0:0:0:
201,222,104390,1,0,0:0:0:0:
201,222,104458,1,0,0:0:0:0:
201,222,104527,2,0,L|207:182,1,40,2|2,2:0|2:0,0:0:0:0:
126,313,104663,1,0,0:0:0:0:
126,313,104731,1,0,0:0:0:0:
126,313,104800,2,0,L|116:254,1,40,2|0,2:0|2:0,0:0:0:0:
215,356,104936,6,0,L|221:303,1,40,2|0,2:0|2:0,0:0:0:0:
326,315,105072,2,0,L|313:259,1,40,2|0,2:0|2:0,0:0:0:0:
424,359,105208,2,0,L|432:306,1,40,2|0,2:0|2:0,0:0:0:0:
232,96,105345,5,8,0:0:0:0:
215,356,105481,1,2,2:1:0:0:
313,73,105618,1,8,0:0:0:0:
326,315,105754,1,2,2:1:0:0:
393,70,105890,1,8,0:0:0:0:
424,359,106027,1,2,2:1:0:0:
424,359,106095,1,2,2:1:0:0:
424,359,106163,1,8,0:0:0:0:
451,179,106299,1,2,2:1:0:0:
215,356,106436,5,8,0:0:0:0:
319,155,106572,1,2,2:1:0:0:
119,273,106708,1,8,0:0:0:0:
325,247,106845,1,2,2:1:0:0:
115,156,106981,1,8,0:0:0:0:
294,333,107118,1,2,2:1:0:0:
294,333,107186,1,2,2:1:0:0:
294,333,107254,1,8,0:0:0:0:
115,349,107390,1,2,2:1:0:0:
95,344,107458,1,2,2:1:0:0:
76,339,107526,5,8,0:0:0:0:
110,78,107663,1,2,2:1:0:0:
197,332,107799,1,8,0:0:0:0:
190,62,107936,1,2,2:1:0:0:
294,333,108072,1,8,0:0:0:0:
319,155,108208,1,2,2:1:0:0:
319,155,108277,1,2,2:1:0:0:
319,155,108345,1,8,0:0:0:0:
197,332,108481,1,2,2:1:0:0:
110,78,108618,5,8,0:0:0:0:
197,332,108754,1,2,2:1:0:0:
261,89,108890,1,8,0:0:0:0:
294,333,109027,1,2,2:1:0:0:
364,247,109163,5,2,2:1:0:0:
378,218,109231,1,2,2:1:0:0:
394,186,109299,1,2,2:1:0:0:
408,152,109368,1,2,2:1:0:0:
421,118,109436,1,2,2:1:0:0:
387,131,109504,1,2,2:1:0:0:
353,143,109572,1,2,2:1:0:0:
319,154,109640,1,2,2:1:0:0:
319,154,109708,5,8,0:0:0:0:
215,328,109845,1,2,2:1:0:0:
352,60,109981,5,8,0:0:0:0:
336,314,110118,1,2,2:1:0:0:
177,81,110254,5,8,0:0:0:0:
215,328,110390,1,2,2:1:0:0:
352,60,110527,1,8,0:0:0:0:
336,314,110663,1,2,2:1:0:0:
382,147,110799,5,8,0:0:0:0:
421,118,110868,1,0,0:0:0:0:
467,130,110936,1,2,2:1:0:0:
477,176,111004,1,0,0:0:0:0:
441,208,111072,1,8,0:0:0:0:
420,251,111140,1,0,0:0:0:0:
420,296,111208,5,2,2:1:0:0:
446,336,111277,1,0,0:0:0:0:
401,319,111345,1,8,0:0:0:0:
353,320,111413,1,0,0:0:0:0:
309,340,111481,1,2,2:1:0:0:
270,368,111549,1,2,2:1:0:0:
221,370,111618,5,8,0:0:0:0:
183,340,111686,1,0,0:0:0:0:
175,292,111754,1,2,2:1:0:0:
203,253,111822,1,0,0:0:0:0:
250,254,111890,5,8,0:0:0:0:
446,336,112027,1,2,2:1:0:0:
175,292,112163,1,8,0:0:0:0:
446,336,112299,1,2,2:1:0:0:
221,370,112436,1,8,0:0:0:0:
446,336,112572,1,2,2:1:0:0:
111,245,112708,1,8,0:0:0:0:
446,336,112845,1,2,2:1:0:0:
262,196,112981,6,0,L|223:167,1,40,8|2,0:0|2:1,2:1:0:0:
111,245,113118,1,2,2:1:0:0:
111,245,113186,1,0,0:0:0:0:
111,245,113254,2,0,L|91:195,1,40,0|2,0:0|2:1,0:0:0:0:
29,133,113390,1,0,0:0:0:0:
29,133,113458,1,0,0:0:0:0:
29,133,113527,6,0,L|39:89,1,40,6|2,2:1|2:1,2:1:0:0:
63,20,113663,1,0,1:0:0:0:
63,20,113731,1,0,1:0:0:0:
63,20,113799,1,0,1:0:0:0:
63,20,114072,5,4,2:0:0:0:
256,192,114140,12,2,116254,2:0:0:0:
